osu file format v14

[General]
AudioFilename: audio.mp3
AudioLeadIn: 0
PreviewTime: 24677
Countdown: 1
SampleSet: Normal
StackLeniency: 0.4
Mode: 0
LetterboxInBreaks: 0
WidescreenStoryboard: 0

[Editor]
Bookmarks: 35539
DistanceSpacing: 1.5
BeatDivisor: 4
GridSize: 16
TimelineZoom: 1.5

[Metadata]
Title:REANIMATE
TitleUnicode:暗夜苏醒
Artist:Warak
ArtistUnicode:Warak
Creator:YokesPai
Version:Extra
Source:Rhythm Master
Tags:symphonic drumstep
BeatmapID:1512916
BeatmapSetID:716052

[Difficulty]
HPDrainRate:6
CircleSize:5
OverallDifficulty:8
ApproachRate:9
SliderMultiplier:2
SliderTickRate:1

[Events]
//Background and Video events
0,0,"REANIMATE background.jpg",0,0
//Break Periods
2,26142,27004
2,28901,29763
//Storyboard Layer 0 (Background)
//Storyboard Layer 1 (Fail)
//Storyboard Layer 2 (Pass)
//Storyboard Layer 3 (Foreground)
//Storyboard Sound Samples

[TimingPoints]
2436,344.827586206897,4,1,0,50,1,0
2436,-200,4,1,0,50,0,0
9677,-133.333333333333,4,1,0,50,0,0
9849,-100,4,1,0,50,0,0
13470,-100,4,1,0,70,0,0
18642,-150.01500150015,4,1,0,70,0,0
18901,-150.01500150015,4,1,0,5,0,0
18987,-100,4,1,0,70,0,0
21056,-200,4,1,0,70,0,0
21573,-100,4,1,0,70,0,0
22436,-133.333333333333,4,1,0,70,0,0
35539,-200,4,1,0,70,0,0
36056,-181.818181818182,4,1,0,70,0,0
36573,-166.666666666667,4,1,0,70,0,0
37091,-153.846153846154,4,1,0,70,0,0
37608,-142.857142857143,4,1,0,70,0,0
38125,-133.333333333333,4,1,0,70,0,0
38642,-125,4,1,0,70,0,0
39160,-117.647058823529,4,1,0,70,0,0
39677,-111.111111111111,4,1,0,70,0,0
40194,-105.263157894737,4,1,0,70,0,0
40711,-100,4,1,0,70,0,0
41229,-95.2380952380952,4,1,0,70,0,0
41746,-90.9090909090909,4,1,0,70,0,0
42263,-86.9565217391304,4,1,0,70,0,0
42780,-83.3333333333333,4,1,0,70,0,0
43298,-80,4,1,0,70,0,0
43815,-76.9230769230769,4,1,0,70,0,0
44332,-74.0740740740741,4,1,0,70,0,0
44849,-71.4285714285714,4,1,0,70,0,0
46573,-66.6666666666667,4,1,0,90,0,1
48211,-66.6666666666667,4,1,0,5,0,1
48298,-66.6666666666667,4,1,0,90,0,1
49246,-66.6666666666667,4,1,0,5,0,1
49332,-100,4,1,0,90,0,1
49677,-200,4,1,0,90,0,1
51918,-133.333333333333,4,1,0,90,0,1
52091,-66.6666666666667,4,1,0,90,0,1
53298,-200,4,1,0,90,0,1
53384,-200,4,1,0,5,0,1
53470,-66.6666666666667,4,1,0,90,0,1
55539,-200,4,1,0,90,0,1
56229,-200,4,1,0,50,0,0
57522,-200,4,1,0,5,0,0
57608,-66.6666666666667,4,1,0,90,0,1
58298,-100,4,1,0,90,0,1
59160,-133.333333333333,4,1,0,90,0,1
60194,-66.6666666666667,4,1,0,90,0,1
61918,-133.333333333333,4,1,0,90,0,1
63125,-66.6666666666667,4,1,0,90,0,1
63384,-66.6666666666667,4,1,0,5,0,1
63470,-66.6666666666667,4,1,0,90,0,1
63556,-66.6666666666667,4,1,0,5,0,1
63642,-66.6666666666667,4,1,0,90,0,1
64160,-133.333333333333,4,1,0,90,0,1
64504,-66.6666666666667,4,1,0,90,0,1
64849,-133.333333333333,4,1,0,90,0,1
65711,-66.6666666666667,4,1,0,90,0,1
67263,-100,4,1,0,40,0,0
67867,-100,4,1,0,5,0,0
67953,-100,4,1,0,60,0,0
68556,-100,4,1,0,5,0,0
68642,-100,4,1,0,50,0,0
68742,-100,4,1,0,50,0,0
76487,-100,4,1,0,5,0,0
76573,-100,4,1,0,50,0,0
76832,-100,4,1,0,5,0,0
76918,-100,4,1,0,50,0,0
78298,-133.333333333333,4,1,0,50,0,0
79677,-133.333333333333,4,1,0,30,0,0
90711,-200,4,1,0,50,0,0
101746,-200,4,1,0,60,0,0
103556,-200,4,1,0,30,0,0
104504,-200,4,1,0,60,0,0
106315,-200,4,1,0,30,0,0
107263,-200,4,1,0,60,0,0
108815,-200,4,1,0,30,0,0
108987,-133.333333333333,4,1,0,40,0,0
109160,-100,4,1,0,50,0,0
109332,-100,4,1,0,60,0,0
109418,-100,4,1,0,30,0,0
109849,-100,4,1,0,60,0,0
110798,-100,4,1,0,30,0,0
111315,-100,4,1,0,60,0,0
112780,-100,4,1,0,5,0,0
113125,-100,4,1,0,60,0,0
117953,-200,4,1,0,60,0,0
118211,-200,4,1,0,5,0,0
118298,-66.6666666666667,4,1,0,90,0,1
118556,-66.6666666666667,4,1,0,5,0,1
118642,-66.6666666666667,4,1,0,90,0,1
119504,-200,4,1,0,90,0,1
119591,-200,4,1,0,5,0,1
119677,-200,4,1,0,90,0,1
120884,-66.6666666666667,4,1,0,90,0,1
122436,-200,4,1,0,90,0,1
123815,-66.6666666666667,4,1,0,90,0,1
124073,-66.6666666666667,4,1,0,5,0,1
124160,-66.6666666666667,4,1,0,90,0,1
124246,-66.6666666666667,4,1,0,5,0,1
124332,-66.6666666666667,4,1,0,90,0,1
125367,-66.6666666666667,4,1,0,5,0,1
125539,-200,4,1,0,90,0,1
126401,-66.6666666666667,4,1,0,90,0,1
127953,-66.6666666666667,4,1,0,100,0,1
129246,-66.6666666666667,4,1,0,5,0,1
129332,-66.6666666666667,4,1,0,90,0,1
130022,-100,4,1,0,50,0,1
131401,-66.6666666666667,4,1,0,90,0,1
132867,-66.6666666666667,4,1,0,50,0,1
133298,-66.6666666666667,4,1,0,90,0,1
133384,-66.6666666666667,4,1,0,50,0,1
133470,-66.6666666666667,4,1,0,90,0,1
135108,-66.6666666666667,4,1,0,5,0,1
135194,-66.6666666666667,4,1,0,90,0,1
135280,-66.6666666666667,4,1,0,5,0,1
135367,-66.6666666666667,4,1,0,90,0,1
135539,-100,4,1,0,50,0,1
136573,-66.6666666666667,4,1,0,90,0,1
137177,-66.6666666666667,4,1,0,5,0,1
137263,-66.6666666666667,4,1,0,90,0,1
138987,-200,4,1,0,70,0,0
140367,-100,4,1,0,70,0,0

[Colours]
Combo1 : 128,0,0
Combo2 : 128,128,128
Combo3 : 82,82,82
Combo4 : 255,108,108

[HitObjects]
122,56,2436,5,0,0:0:0:0:
141,59,2522,1,0,0:0:0:0:
156,72,2608,1,0,0:0:0:0:
162,89,2694,1,0,0:0:0:0:
159,109,2780,1,0,0:0:0:0:
94,114,2953,1,0,0:0:0:0:
57,60,3125,2,0,P|29:101|39:149,1,100
55,162,3556,1,0,0:0:0:0:
73,165,3642,1,0,0:0:0:0:
91,158,3728,1,0,0:0:0:0:
104,144,3814,5,0,0:0:0:0:
99,79,3987,1,0,0:0:0:0:
157,108,4160,2,0,B|195:150|247:129|247:129|299:150|301:206,1,200
214,69,5194,5,0,0:0:0:0:
238,63,5280,1,0,0:0:0:0:
262,65,5366,1,0,0:0:0:0:
285,75,5452,1,0,0:0:0:0:
307,88,5538,1,0,0:0:0:0:
328,150,5711,1,0,0:0:0:0:
316,213,5884,2,0,P|280:247|231:247,1,100
193,195,6401,1,0,0:0:0:0:
257,186,6573,5,0,0:0:0:0:
257,186,6832,1,0,0:0:0:0:
161,199,6918,2,0,P|113:184|89:142,1,100
89,142,7522,1,0,0:0:0:0:
137,194,7608,2,0,P|105:177|89:144,1,75
156,132,7953,5,0,0:0:0:0:
166,154,8039,1,0,0:0:0:0:
167,179,8125,1,0,0:0:0:0:
159,203,8211,1,0,0:0:0:0:
143,222,8297,1,0,0:0:0:0:
99,170,8470,1,0,0:0:0:0:
122,104,8642,2,0,P|168:89|212:108,1,100
233,176,9160,1,0,0:0:0:0:
210,241,9332,5,0,0:0:0:0:
253,292,9504,2,0,P|266:295|278:292,1,25
306,288,9677,2,0,P|323:280|332:264,1,37.5
354,265,9849,2,0,P|366:243|365:219,1,50
383,217,10022,2,0,B|386:164|372:119|372:119|325:131|282:160|282:160|269:110|239:69,1,300
181,31,10625,1,0,0:0:0:0:
112,27,10711,5,0,0:0:0:0:
112,27,10970,1,0,0:0:0:0:
199,85,11056,1,0,0:0:0:0:
199,85,11315,1,0,0:0:0:0:
245,178,11401,1,0,0:0:0:0:
245,178,11660,1,0,0:0:0:0:
238,281,11746,1,0,0:0:0:0:
238,281,12004,1,0,0:0:0:0:
180,366,12091,5,0,0:0:0:0:
110,362,12263,1,0,0:0:0:0:
90,347,12349,1,0,0:0:0:0:
81,323,12436,2,0,B|72:280|89:224|89:224|133:246|161:292|161:292|179:248|172:193|172:193|197:236|243:263,1,400
241,262,13470,5,0,0:0:0:0:
201,231,13556,1,0,0:0:0:0:
171,191,13642,1,0,0:0:0:0:
152,145,13728,1,0,0:0:0:0:
146,96,13814,1,0,0:0:0:0:
241,15,13987,1,0,0:0:0:0:
346,93,14160,2,0,P|329:190|267:267,1,200
217,273,14591,1,0,0:0:0:0:
169,278,14677,1,0,0:0:0:0:
180,229,14763,1,0,0:0:0:0:
192,180,14849,5,0,0:0:0:0:
214,82,15022,1,0,0:0:0:0:
214,82,15194,1,0,0:0:0:0:
237,82,15539,2,0,B|235:136|273:173|273:173|273:229|238:263,1,200
155,183,16229,5,0,0:0:0:0:
181,140,16315,1,0,0:0:0:0:
207,98,16401,1,0,0:0:0:0:
240,135,16487,1,0,0:0:0:0:
272,173,16573,1,0,0:0:0:0:
220,258,16746,1,0,0:0:0:0:
103,268,16918,1,0,0:0:0:0:
128,267,17263,1,0,0:0:0:0:
128,267,17436,1,0,0:0:0:0:
181,183,17608,5,0,0:0:0:0:
181,183,17867,1,0,0:0:0:0:
102,309,17953,2,0,B|151:298|187:258|187:258|226:290|278:289,1,200
278,288,18556,1,0,0:0:0:0:
147,292,18642,2,0,B|171:276|187:258|187:258|208:276|232:283,1,100
278,288,18987,5,0,0:0:0:0:
312,252,19073,1,0,0:0:0:0:
347,216,19159,1,0,0:0:0:0:
332,168,19245,1,0,0:0:0:0:
317,121,19332,1,0,0:0:0:0:
247,192,19504,1,0,0:0:0:0:
205,363,19677,1,0,0:0:0:0:
182,345,20022,1,0,0:0:0:0:
182,345,20194,1,0,0:0:0:0:
171,205,20367,6,0,P|165:229|165:254,1,50
264,110,20539,1,0,0:0:0:0:
217,94,20625,1,0,0:0:0:0:
173,114,20711,2,0,P|156:132|143:153,1,50
300,78,20884,1,0,0:0:0:0:
268,41,20970,1,0,0:0:0:0:
219,36,21056,2,0,P|173:55|134:86,1,100
110,181,21573,1,0,0:0:0:0:
115,131,21659,1,0,0:0:0:0:
134,85,21746,6,0,P|153:68|174:54,1,50
219,36,21918,1,0,0:0:0:0:
268,41,22005,1,0,0:0:0:0:
300,78,22091,1,0,0:0:0:0:
305,125,22177,1,0,0:0:0:0:
277,167,22263,1,0,0:0:0:0:
232,181,22349,1,0,0:0:0:0:
185,162,22436,2,0,L|127:23,1,150.000005722046
127,23,23039,1,0,0:0:0:0:
185,162,23125,6,0,B|216:218|290:198|299:150|299:150|313:94|386:82|413:135,1,300.000011444092
413,135,24848,5,0,0:0:0:0:
382,186,25193,1,0,0:0:0:0:
329,214,25538,1,0,0:0:0:0:
269,211,25883,1,0,0:0:0:0:
269,211,27608,5,0,0:0:0:0:
218,180,27953,1,0,0:0:0:0:
193,67,28470,1,0,0:0:0:0:
193,67,28642,1,0,0:0:0:0:
193,67,30367,5,0,0:0:0:0:
190,128,30711,1,0,0:0:0:0:
218,180,31056,1,0,0:0:0:0:
269,211,31401,1,0,0:0:0:0:
382,186,31918,1,0,0:0:0:0:
382,186,32091,1,0,0:0:0:0:
382,186,33125,5,0,0:0:0:0:
329,214,33470,1,0,0:0:0:0:
269,211,33815,1,0,0:0:0:0:
218,180,34160,1,0,0:0:0:0:
193,67,34677,1,0,0:0:0:0:
193,67,34849,1,0,0:0:0:0:
224,216,35539,5,0,0:0:0:0:
288,167,35711,2,0,P|312:166|336:173,1,50
381,244,36056,1,0,0:0:0:0:
350,117,36229,2,0,P|318:93|277:87,1,82.5000025177003,0|0,0:0|2:0,0:0:0:0:
215,136,36573,1,0,0:0:0:0:
297,247,36746,1,0,0:0:0:0:
257,240,36832,1,0,0:0:0:0:
224,216,36918,5,0,0:0:0:0:
276,87,37091,1,0,0:0:0:0:
362,196,37263,2,0,P|367:165|359:133,1,64.9999970245363
324,96,37522,1,0,0:0:0:0:
276,87,37608,1,0,0:0:0:0:
297,247,37780,1,0,0:0:0:0:
276,86,37953,2,0,P|242:96|218:120,1,69.9999978637696
288,166,38298,6,0,P|225:203|157:178,1,150.000005722046
137,96,38815,1,0,0:0:0:0:
176,259,38987,1,0,0:0:0:0:
237,253,39073,1,0,0:0:0:0:
297,247,39160,1,0,0:0:0:0:
218,120,39332,1,0,0:0:0:0:
113,177,39504,1,0,0:0:0:0:
175,258,39677,6,0,P|220:259|257:235,1,89.9999972534181
218,120,40022,1,0,0:0:0:0:
338,144,40194,1,0,0:0:0:0:
333,176,40280,1,0,0:0:0:0:
319,205,40367,1,0,0:0:0:0:
220,151,40539,1,0,0:0:0:0:
335,112,40711,1,0,0:0:0:0:
186,113,40883,1,0,0:0:0:0:
198,189,41056,6,0,P|237:220|286:219,1,100
335,112,41401,2,0,P|261:90|187:113,1,157.499995193482,0|0,0:0|2:0,0:0:0:0:
210,265,41746,2,0,P|288:287|365:263,1,165.000005035401,0|0,0:0|2:0,0:0:0:0:
335,112,42091,2,0,P|278:53|199:35,1,165.000005035401,0|0,0:0|2:0,0:0:0:0:
113,177,42436,6,0,L|196:255,1,115.000002193451
335,208,42780,1,0,0:0:0:0:
219,181,42953,2,0,L|334:208,1,119.999996337891
419,78,43297,1,0,0:0:0:0:
299,114,43470,2,0,L|418:77,1,125
390,199,43815,5,0,0:0:0:0:
335,208,43987,1,0,0:0:0:0:
299,114,44160,5,0,0:0:0:0:
233,166,44332,1,0,0:0:0:0:
177,58,44504,5,0,0:0:0:0:
130,175,44676,1,0,0:0:0:0:
19,58,44849,5,0,0:0:0:0:
44,243,45021,1,0,0:0:0:0:
192,129,45194,5,0,0:0:0:0:
352,199,46573,6,0,L|202:212,1,150.000005722046,0|0,0:3|0:3,0:3:0:0:
170,99,46918,1,0,0:0:0:0:
284,128,47091,1,0,0:0:0:0:
202,212,47263,1,0,0:0:0:0:
252,15,47436,1,0,0:0:0:0:
399,262,47608,1,0,0:0:0:0:
449,65,47780,1,0,0:0:0:0:
202,212,47953,6,0,B|138:251|138:251|110:181|110:181|174:143,1,225.000008583069
304,66,48298,2,0,L|360:204,1,150.000005722046
404,313,48642,2,0,B|381:340|381:340|375:304|375:304|352:334|352:334|346:297|346:297|212:343|88:184|164:68,1,525.000020027161
304,66,49332,6,0,B|351:81|351:81|361:130|361:130|409:146,1,150
479,153,49677,2,0,L|502:145,1,25
438,247,49849,2,0,L|461:254,1,25
394,97,50022,2,0,L|417:89,1,25
341,291,50194,2,0,L|364:298,1,25
309,41,50367,2,0,L|332:33,1,25
244,335,50539,2,0,L|267:342,1,25
21,131,50711,5,0,0:0:0:0:
130,265,50884,1,0,0:0:0:0:
115,91,51056,1,0,0:0:0:0:
36,305,51229,1,0,0:0:0:0:
209,51,51401,2,0,L|211:75,1,25
224,225,51573,1,0,0:0:0:0:
224,225,51660,1,0,0:0:0:0:
224,225,51746,2,0,L|226:249,1,25
412,144,51918,2,0,P|397:156|379:161,1,37.5000014305115
187,123,52091,6,0,P|318:167|299:304,1,300.000011444092
150,276,52608,1,0,0:0:0:0:
232,51,52780,1,0,0:0:0:0:
305,69,52866,1,0,0:0:0:0:
362,117,52952,1,0,0:0:0:0:
394,257,53125,1,0,0:0:0:0:
307,373,53298,2,0,L|292:393,1,25
280,230,53470,6,0,B|379:183|379:183|445:156|443:96|419:53|368:49,1,300.000011444092
159,69,53987,1,0,0:0:0:0:
362,117,54160,2,0,B|395:133|395:133|362:152|362:152|397:165|397:165|364:183|364:183|321:247|357:325|357:325|235:373|135:290,1,525.000020027161
81,94,54849,6,0,B|61:20|61:20|135:31|135:31|154:103,1,225.000008583069
170,176,55194,1,0,0:0:0:0:
159,250,55280,1,0,0:0:0:0:
127,317,55366,1,0,0:0:0:0:
76,372,55452,1,0,0:0:0:0:
202,312,55539,2,0,L|196:287,1,25
155,103,55711,2,0,L|149:78,1,25
229,222,55884,2,0,L|216:200,1,25
120,40,56056,2,0,L|107:18,1,25
225,126,56229,5,0,0:0:0:0:
250,131,56573,1,0,0:0:0:0:
275,136,56918,2,0,L|272:160,2,25
275,136,57177,1,0,0:0:0:0:
267,251,57263,2,0,L|260:325,1,75
267,251,57608,6,0,B|281:102|281:102|356:109|356:109|349:183,1,300.000011444092
334,332,58125,1,0,0:0:0:0:
185,318,58298,2,0,L|189:268,1,50
198,168,58470,2,0,L|202:118,1,50
211,18,58642,2,0,B|311:28|311:28|306:81,1,150
287,276,58987,5,0,0:0:0:0:
43,322,59160,2,0,L|35:358,1,37.5000014305115
79,222,59332,2,0,L|66:257,1,37.5000014305115
160,132,59504,2,0,L|134:159,1,37.5000014305115
286,98,59677,2,0,L|249:103,1,37.5000014305115
424,139,59849,2,0,L|389:123,1,37.5000014305115
483,281,60022,2,0,L|470:244,1,37.5000014305115
327,363,60194,2,0,B|366:367|366:367|395:346,1,75.0000028610231
134,317,60367,6,0,B|238:205|238:205|381:238,1,300.000011444092
277,338,60884,1,0,0:0:0:0:
437,189,61056,2,0,B|218:137|218:137|64:301,1,450.000017166138
277,338,61746,5,0,0:0:0:0:
209,311,61918,2,0,L|172:300,1,37.5000014305115
309,275,62091,2,0,L|345:264,1,37.5000014305115
177,248,62263,2,0,L|140:237,1,37.5000014305115
341,212,62436,2,0,L|377:201,1,37.5000014305115
145,185,62608,2,0,L|108:174,1,37.5000014305115
373,149,62780,2,0,L|409:138,1,37.5000014305115
113,122,62953,2,0,L|76:111,1,37.5000014305115
220,361,63125,6,0,B|249:334|250:292|250:292|218:270|204:234|204:234|229:210|228:166,1,225.000008583069
207,95,63470,2,0,P|224:129|228:166,1,75.0000028610231
105,44,63642,1,0,0:0:0:0:
43,151,63815,1,0,0:0:0:0:
51,224,63901,1,0,0:0:0:0:
94,284,63987,1,0,0:0:0:0:
162,315,64073,1,0,0:0:0:0:
20,291,64160,2,0,L|51:269,1,37.5000014305115
185,173,64332,2,0,L|216:151,1,37.5000014305115
350,55,64504,6,0,B|412:13|412:13|417:89|417:89|355:129,1,225.000008583069
322,148,64849,2,0,L|353:128,1,37.5000014305115
236,175,65022,2,0,L|272:167,1,37.5000014305115
140,135,65194,2,0,L|173:152,1,37.5000014305115
118,17,65367,2,0,L|119:54,1,37.5000014305115
126,200,65539,2,0,L|150:227,1,37.5000014305115
298,359,65711,2,0,B|336:372|336:372|368:358,1,75.0000028610231
469,201,65884,6,0,B|457:116|381:89|381:89|375:179|299:201|299:201|284:116|210:88,1,450.000017166138
58,165,66573,1,0,0:0:0:0:
55,238,66659,1,0,0:0:0:0:
93,302,66745,1,0,0:0:0:0:
160,334,66831,1,0,0:0:0:0:
19,302,66918,1,0,0:0:0:0:
233,325,67091,1,0,0:0:0:0:
299,200,67263,6,0,B|315:153|271:109|271:109|224:143|230:194|230:194|236:241|197:274|197:274|168:258|159:230,1,350
149,159,67953,6,0,B|175:49|278:19|278:19|348:52|374:127,1,350
388,201,68642,6,0,P|363:295|279:346,1,200
279,346,69246,1,0,0:0:0:0:
204,333,69332,2,0,P|168:300|148:255,1,100
147,180,69677,2,0,P|165:133|201:99,1,100
272,77,70022,2,0,P|322:77|366:100,1,100
416,156,70367,1,0,0:0:0:0:
426,180,70711,2,0,B|444:235|426:279|426:279|372:294|333:266|333:266|342:212|322:166,1,300
268,115,71401,6,0,P|171:116|116:194,1,200
116,194,72004,1,0,0:0:0:0:
124,269,72091,2,0,P|132:292|147:312,3,50
210,355,72436,2,0,P|233:363|258:364,2,50
210,355,72694,1,0,0:0:0:0:
331,347,72780,2,0,P|399:280|378:186,1,200
356,168,73470,2,0,P|403:251|358:335,1,200
330,347,74160,6,0,P|239:320|214:228,1,200
214,228,74763,1,0,0:0:0:0:
250,167,74849,2,0,P|291:141|340:133,1,100
416,147,75194,2,0,P|454:176|478:219,1,100
477,296,75539,2,0,P|462:342|429:379,1,100
354,384,75884,1,0,0:0:0:0:
328,378,76229,2,0,L|314:228,1,150
307,154,76573,2,0,L|293:4,1,150
223,31,76918,5,0,0:0:0:0:
223,31,77522,1,0,0:0:0:0:
199,102,77608,2,0,L|181:148,3,50
153,219,77953,2,0,L|135:265,2,50
153,219,78211,1,0,0:0:0:0:
185,152,78298,2,0,L|210:81,1,75.0000028610231
284,67,78642,2,0,L|258:137,1,75.0000028610231
111,166,78987,2,0,L|136:95,1,75.0000028610231
358,53,79332,2,0,L|332:123,1,75.0000028610231
304,193,79677,5,0,0:0:0:0:
304,193,80252,1,0,0:0:0:0:
276,263,80367,1,0,0:0:0:0:
276,263,80941,1,0,0:0:0:0:
248,333,81057,1,0,0:0:0:0:
221,326,82436,5,0,0:0:0:0:
221,326,83010,1,0,0:0:0:0:
249,256,83125,1,0,0:0:0:0:
249,256,83700,1,0,0:0:0:0:
277,186,83816,1,0,0:0:0:0:
317,206,84504,1,0,0:0:0:0:
317,206,84677,1,0,0:0:0:0:
317,206,84849,1,0,0:0:0:0:
317,206,85022,1,0,0:0:0:0:
317,206,85194,5,0,0:0:0:0:
307,227,85539,1,0,0:0:0:0:
328,237,85884,1,0,0:0:0:0:
338,216,86229,1,0,0:0:0:0:
359,226,86573,1,0,0:0:0:0:
349,247,86918,1,0,0:0:0:0:
384,270,87263,1,0,0:0:0:0:
384,270,87436,1,0,0:0:0:0:
384,270,87608,1,0,0:0:0:0:
384,270,87780,1,0,0:0:0:0:
384,270,87953,5,0,0:0:0:0:
363,260,88642,1,0,0:0:0:0:
342,250,89332,1,0,0:0:0:0:
321,240,90022,1,0,0:0:0:0:
300,230,90711,5,0,0:0:0:0:
235,188,90826,5,0,0:0:0:0:
303,152,90941,5,0,0:0:0:0:
368,194,91056,5,0,0:0:0:0:
389,208,91401,5,0,0:0:0:0:
386,286,91516,1,0,0:0:0:0:
316,322,91631,1,0,0:0:0:0:
249,280,91746,1,0,0:0:0:0:
253,201,91861,1,0,0:0:0:0:
321,165,91976,1,0,0:0:0:0:
318,243,92091,1,0,0:0:0:0:
317,270,92436,2,0,L|313:369,2,100
318,243,93470,5,0,0:0:0:0:
321,165,93585,1,0,0:0:0:0:
324,87,93700,1,0,0:0:0:0:
327,9,93815,1,0,0:0:0:0:
348,23,94160,1,0,0:0:0:0:
280,59,94275,1,0,0:0:0:0:
212,95,94390,1,0,0:0:0:0:
144,131,94504,1,0,0:0:0:0:
209,171,94618,1,0,0:0:0:0:
274,212,94733,1,0,0:0:0:0:
339,253,94848,1,0,0:0:0:0:
360,267,95194,1,0,0:0:0:0:
381,281,95539,1,0,0:0:0:0:
251,199,95711,1,0,0:0:0:0:
381,281,95884,1,0,0:0:0:0:
251,199,96056,1,0,0:0:0:0:
381,281,96229,5,0,0:0:0:0:
384,203,96344,1,0,0:0:0:0:
316,240,96458,1,0,0:0:0:0:
319,162,96573,1,0,0:0:0:0:
298,148,96918,1,0,0:0:0:0:
295,226,97033,1,0,0:0:0:0:
230,185,97148,1,0,0:0:0:0:
227,263,97263,1,0,0:0:0:0:
162,222,97378,1,0,0:0:0:0:
159,300,97493,1,0,0:0:0:0:
94,259,97608,1,0,0:0:0:0:
73,245,97953,2,0,L|-12:191,2,100
94,259,98987,5,0,0:0:0:0:
97,181,99102,1,0,0:0:0:0:
165,144,99217,1,0,0:0:0:0:
162,222,99332,1,0,0:0:0:0:
183,236,99677,1,0,0:0:0:0:
180,314,99792,1,0,0:0:0:0:
248,277,99907,1,0,0:0:0:0:
251,199,100022,1,0,0:0:0:0:
319,162,100137,1,0,0:0:0:0:
316,240,100252,1,0,0:0:0:0:
384,203,100367,1,0,0:0:0:0:
405,217,100711,1,0,0:0:0:0:
426,231,101056,1,0,0:0:0:0:
447,245,101401,1,0,0:0:0:0:
448,218,101746,5,0,0:0:0:0:
442,195,101832,1,0,0:0:0:0:
422,180,101918,1,0,0:0:0:0:
398,183,102004,1,0,0:0:0:0:
381,201,102090,1,0,0:0:0:0:
400,267,102263,1,0,0:0:0:0:
466,285,102436,2,0,P|505:254|514:206,1,100
504,185,102867,1,0,0:0:0:0:
486,168,102953,1,0,0:0:0:0:
462,161,103039,1,0,0:0:0:0:
437,165,103125,5,0,0:0:0:0:
420,231,103298,1,0,0:0:0:0:
370,182,103470,2,0,L|352:164,3,25
349,126,103815,2,0,L|325:120,3,25
304,88,104160,2,0,L|280:94,3,25
245,78,104504,5,0,0:0:0:0:
224,89,104590,1,0,0:0:0:0:
207,108,104676,1,0,0:0:0:0:
196,130,104762,1,0,0:0:0:0:
194,155,104848,1,0,0:0:0:0:
212,220,105022,1,0,0:0:0:0:
275,234,105194,2,0,P|321:216|348:175,1,100
324,108,105711,1,0,0:0:0:0:
276,161,105884,5,0,0:0:0:0:
276,161,106142,1,0,0:0:0:0:
348,81,106229,2,0,L|364:62,3,25
391,141,106573,2,0,L|414:133,3,25
398,216,106918,2,0,L|422:221,3,25
367,284,107263,5,0,0:0:0:0:
349,301,107349,1,0,0:0:0:0:
327,312,107435,1,0,0:0:0:0:
302,315,107521,1,0,0:0:0:0:
278,310,107607,1,0,0:0:0:0:
307,245,107780,1,0,0:0:0:0:
371,216,107953,2,0,P|415:238|434:287,1,100
405,347,108470,1,0,0:0:0:0:
337,362,108642,5,0,0:0:0:0:
294,306,108815,2,0,P|285:297|274:292,1,25
259,260,108987,2,0,P|242:251|223:248,1,37.5000014305115
213,225,109160,2,0,P|188:226|164:233,1,50
158,208,109332,2,0,P|134:223|116:245,4,50
226,193,109849,1,0,0:0:0:0:
271,212,109935,1,0,0:0:0:0:
294,255,110021,5,0,0:0:0:0:
263,365,110194,1,0,0:0:0:0:
219,388,110280,1,0,0:0:0:0:
169,386,110366,1,0,0:0:0:0:
128,359,110452,1,0,0:0:0:0:
105,315,110538,1,0,0:0:0:0:
107,266,110625,1,0,0:0:0:0:
134,224,110711,2,0,P|153:208|176:200,3,50
223,202,111056,2,0,P|246:210|265:227,2,50
223,202,111315,1,0,0:0:0:0:
134,224,111401,5,0,0:0:0:0:
256,192,111487,12,0,112780,0:0:0:0:
155,208,113125,5,0,0:0:0:0:
197,176,113470,1,0,0:0:0:0:
249,169,113815,1,0,0:0:0:0:
297,189,114159,5,0,0:0:0:0:
335,282,114677,1,0,0:0:0:0:
335,282,114849,1,0,0:0:0:0:
315,330,115194,1,0,0:0:0:0:
274,362,115539,5,0,0:0:0:0:
248,365,116229,1,0,0:0:0:0:
222,369,116918,6,0,L|217:319,3,50
158,281,117263,2,0,L|153:231,3,50
94,193,117608,1,0,0:0:0:0:
91,167,117953,2,0,L|83:91,1,75
74,17,118298,6,0,B|148:23|148:23|191:86|191:86|265:92,1,225.000008583069
340,101,118642,1,0,0:0:0:0:
326,250,118815,1,0,0:0:0:0:
463,188,118987,1,0,0:0:0:0:
204,164,119160,1,0,0:0:0:0:
340,101,119332,1,0,0:0:0:0:
218,15,119504,2,0,L|215:39,1,25
190,313,119677,5,0,0:0:0:0:
326,250,119849,6,0,P|338:249|350:244,1,25
405,203,120022,2,0,P|414:196|422:185,1,25
204,164,120194,6,0,P|191:163|179:158,1,25
123,104,120367,2,0,P|113:94|107:83,1,25
340,101,120538,6,0,P|352:100|364:95,1,25
428,27,120711,2,0,P|434:17|438:4,1,25
218,15,120884,6,0,B|179:19|179:19|149:39,1,75
71,130,121056,6,0,B|25:196|70:272|70:272|126:222|126:222|200:217,1,300.000011444092
326,207,121573,1,0,0:0:0:0:
453,197,121746,2,0,B|527:192|527:192|487:127,2,150.000005722046
326,207,122263,1,0,0:0:0:0:
271,321,122436,5,0,0:0:0:0:
476,318,122608,6,0,P|477:330|475:342,1,25
453,340,122780,2,0,P|451:352|448:364,1,25
349,328,122953,6,0,P|343:339|336:349,1,25
271,321,123125,2,0,P|260:328|249:333,1,25
156,236,123298,6,0,P|143:237|131:235,1,25
90,165,123470,2,0,P|79:157|71:148,1,25
85,24,123642,6,0,P|81:11|80:0,1,25
226,171,123815,6,0,B|193:134|135:130|90:165|90:165|112:130|108:93,1,225.000008583069
85,24,124160,2,0,P|102:57|108:94,1,75.0000028610231
156,236,124332,1,0,0:0:0:0:
157,92,124504,1,0,0:0:0:0:
228,112,124590,1,0,0:0:0:0:
281,164,124676,1,0,0:0:0:0:
304,234,124762,1,0,0:0:0:0:
299,92,124849,1,0,0:0:0:0:
83,106,125022,1,0,0:0:0:0:
88,248,125194,6,0,B|91:322|91:322|166:318,1,150.000005722046
348,299,125539,6,0,L|364:280,1,25
414,225,125711,2,0,L|430:206,1,25
296,329,125884,6,0,L|300:304,1,25
332,123,126056,2,0,L|336:98,1,25
244,359,126229,6,0,L|242:334,1,25
225,44,126401,6,0,B|227:82|227:82|202:110,1,75.0000028610231
104,153,126573,6,0,B|72:180|70:219|70:219|103:244|106:282|106:282|140:297|179:285|179:285|216:298|252:285,1,300.000011444092
225,44,127091,1,0,0:0:0:0:
290,77,127177,1,0,0:0:0:0:
325,142,127263,1,0,0:0:0:0:
315,215,127349,1,0,0:0:0:0:
365,80,127436,1,0,0:0:0:0:
176,180,127608,1,0,0:0:0:0:
276,369,127781,1,0,0:0:0:0:
464,269,127953,6,0,P|488:199|461:130,1,150.000005722046
50,130,128298,2,0,P|23:199|47:269,1,150.000005722046
176,323,128642,1,0,0:0:0:0:
250,316,128728,1,0,0:0:0:0:
209,256,128815,1,0,0:0:0:0:
283,250,128901,1,0,0:0:0:0:
343,206,128987,2,0,B|374:139|374:139|366:63|366:63|335:130,1,225.000008583069
285,242,129332,6,0,B|245:320|162:307|162:307|116:231|172:155,1,300.000011444092
256,100,129849,1,0,0:0:0:0:
343,206,130022,2,0,L|375:244,1,50
366,342,130194,2,0,L|333:303,1,50
348,198,130367,2,0,L|380:243,1,50
360,349,130539,2,0,L|328:304,1,50
355,190,130711,2,0,L|385:242,1,50
353,357,130883,2,0,L|323:305,1,50
363,182,131056,1,0,0:0:0:0:
379,163,131401,6,0,B|355:191|355:191|352:155|352:155|328:184|328:184|324:147|324:147|266:253|133:260|80:162,1,450.000017166138
194,103,132091,6,0,B|229:178|175:243|175:243|256:249|309:191,1,300.000011444092
327,47,132608,1,0,0:0:0:0:
442,134,132780,1,0,0:0:0:0:
433,110,132866,1,0,0:0:0:0:
419,89,132952,1,0,0:0:0:0:
400,73,133038,1,0,0:0:0:0:
428,205,133125,1,0,0:0:0:0:
438,182,133211,1,0,0:0:0:0:
443,157,133297,1,0,0:0:0:0:
442,134,133383,1,0,0:0:0:0:
368,246,133470,6,0,B|296:272|260:346|260:346|225:270|149:254,1,300.000011444092
127,249,134160,1,0,0:0:0:0:
144,99,134332,1,0,0:0:0:0:
135,173,134418,1,0,0:0:0:0:
127,249,134504,1,0,0:0:0:0:
266,189,134677,1,0,0:0:0:0:
405,129,134849,6,0,B|305:242|305:242|299:203|273:176,1,225.000008583069
205,150,135194,2,0,P|242:157|274:177,1,75.0000028610231
301,325,135367,1,0,0:0:0:0:
101,320,135539,2,0,L|136:284,1,50
135,173,135711,2,0,L|100:209,1,50
107,329,135884,2,0,L|141:286,1,50
129,164,136056,2,0,L|95:207,1,50
114,338,136229,2,0,L|147:288,1,50
122,155,136401,2,0,L|89:205,1,50
122,347,136573,5,0,0:0:0:0:
136,367,136918,2,0,B|89:314|106:226|106:226|127:261|169:264,1,225.000008583069
253,257,137263,2,0,B|295:247|306:208|306:208|284:179|290:139|290:139|258:116|217:130,1,225.000008583069
125,223,137608,6,0,B|115:263|122:298|122:298|163:293|190:323|190:323|229:323|256:294|256:294|296:289|321:257,1,300.000011444092
362,160,138125,1,0,0:0:0:0:
299,74,138298,1,0,0:0:0:0:
225,73,138384,1,0,0:0:0:0:
162,113,138470,1,0,0:0:0:0:
133,180,138556,1,0,0:0:0:0:
158,39,138642,2,0,P|97:76|93:148,1,150.000005722046
158,39,138901,1,0,0:0:0:0:
143,252,138987,5,0,0:0:0:0:
432,318,139160,2,0,L|455:310,1,25
374,336,139332,2,0,L|398:334,1,25
301,339,139504,2,0,L|324:346,1,25
217,313,139677,2,0,L|236:329,1,25
147,253,139849,2,0,L|158:275,1,25
92,147,140022,2,0,L|92:171,1,25
88,0,140194,2,0,L|81:24,1,25
360,114,140367,5,0,0:0:0:0:
387,157,140453,1,0,0:0:0:0:
393,206,140539,1,0,0:0:0:0:
378,253,140625,1,0,0:0:0:0:
433,176,140711,1,0,0:0:0:0:
320,89,140884,1,0,0:0:0:0:
189,144,141056,2,0,B|157:178|169:213|169:213|181:250|151:287,1,150
49,315,141401,1,0,0:0:0:0:
36,306,141487,1,0,0:0:0:0:
25,294,141573,1,0,0:0:0:0:
18,278,141659,1,0,0:0:0:0:
16,196,141746,5,0,0:0:0:0:
39,152,141832,1,0,0:0:0:0:
82,127,141918,1,0,0:0:0:0:
131,130,142004,1,0,0:0:0:0:
40,103,142091,1,0,0:0:0:0:
108,224,142263,1,0,0:0:0:0:
228,156,142436,2,0,P|302:150|367:185,1,150
404,262,142780,1,0,0:0:0:0:
408,277,142866,1,0,0:0:0:0:
410,294,142952,1,0,0:0:0:0:
408,311,143038,1,0,0:0:0:0:
341,292,143125,5,0,0:0:0:0:
298,265,143211,1,0,0:0:0:0:
250,255,143297,1,0,0:0:0:0:
201,263,143383,1,0,0:0:0:0:
282,217,143470,1,0,0:0:0:0:
157,286,143642,1,0,0:0:0:0:
158,143,143815,2,0,P|188:75|254:43,1,150
342,52,144160,1,0,0:0:0:0:
356,59,144246,1,0,0:0:0:0:
370,69,144332,1,0,0:0:0:0:
381,82,144418,1,0,0:0:0:0:
339,134,144504,5,0,0:0:0:0:
312,131,144677,1,0,0:0:0:0:
273,162,144763,1,0,0:0:0:0:
261,209,144849,1,0,0:0:0:0:
281,254,144935,1,0,0:0:0:0:
225,175,145022,1,0,0:0:0:0:
360,132,145108,5,0,0:0:0:0:
325,277,145194,5,0,0:0:0:0:
256,37,146229,5,0,0:0:0:0:
210,74,146573,1,0,0:0:0:0:
188,129,146918,1,0,0:0:0:0:
197,187,147263,1,0,0:0:0:0:
288,254,147780,1,0,0:0:0:0:
288,254,147952,1,0,0:0:0:0:
346,245,148297,1,0,0:0:0:0:
392,209,148642,1,0,0:0:0:0:
409,184,149332,1,0,0:0:0:0:
414,154,150022,1,0,0:0:0:0:
0,0,150367,5,0,0:0:0:0:
512,384,150711,5,0,0:0:0:0:
