osu file format v14

[General]
AudioFilename: REANIMATE.mp3
AudioLeadIn: 0
PreviewTime: 57270
Countdown: 0
SampleSet: Soft
StackLeniency: 0.7
Mode: 3
LetterboxInBreaks: 0
SpecialStyle: 0
WidescreenStoryboard: 0

[Editor]
Bookmarks: 13470,83987
DistanceSpacing: 0.5
BeatDivisor: 4
GridSize: 4
TimelineZoom: 1.7

[Metadata]
Title:REANIMATE
TitleUnicode:REANIMATE
Artist:Warak
ArtistUnicode:Warak
Creator:Kuo Kyoka
Version:Dormientis / 4K Beginner
Source:节奏大师
Tags:Rhythm Master Symphonic Drumstep YaHao [_A_v_a_l_o_n_] -[_AmiShici_]- Critical_Star SanadaYukimura Blocko
BeatmapID:1126754
BeatmapSetID:499185

[Difficulty]
HPDrainRate:6
CircleSize:4
OverallDifficulty:6
ApproachRate:5
SliderMultiplier:1.1
SliderTickRate:1

[Events]
//Background and Video events
0,0,"BG.png",0,0
//Break Periods
//Storyboard Layer 0 (Background)
//Storyboard Layer 1 (Fail)
//Storyboard Layer 2 (Pass)
//Storyboard Layer 3 (Foreground)
//Storyboard Sound Samples
Sample,13477,0,"crash.wav",80
Sample,24511,0,"bass.wav",80
Sample,24684,0,"water.wav",40
Sample,25029,0,"water.wav",40
Sample,25374,0,"water.wav",40
Sample,25718,0,"water.wav",40
Sample,27270,0,"water.wav",40
Sample,27443,0,"water.wav",40
Sample,27787,0,"water.wav",40
Sample,28132,0,"water.wav",40
Sample,28305,0,"water.wav",40
Sample,30029,0,"water.wav",40
Sample,30201,0,"water.wav",40
Sample,30546,0,"water.wav",40
Sample,30891,0,"water.wav",40
Sample,31236,0,"water.wav",40
Sample,31753,0,"water.wav",40
Sample,32787,0,"water.wav",40
Sample,34511,0,"water.wav",40
Sample,35718,0,"water.wav",40
Sample,36063,0,"water.wav",40
Sample,36408,0,"water.wav",40
Sample,36753,0,"water.wav",40
Sample,38477,0,"water.wav",40
Sample,38822,0,"water.wav",40
Sample,39167,0,"water.wav",40
Sample,39339,0,"water.wav",40
Sample,41236,0,"water.wav",40
Sample,41580,0,"water.wav",40
Sample,41925,0,"water.wav",40
Sample,42270,0,"water.wav",40
Sample,42615,0,"water.wav",40
Sample,42787,0,"water.wav",40
Sample,42960,0,"water.wav",40
Sample,44167,0,"water.wav",40
Sample,44856,0,"water.wav",40
Sample,46580,0,"boom.wav",80
Sample,46753,0,"hihat.wav",45
Sample,47098,0,"hihat.wav",45
Sample,47443,0,"hihat.wav",45
Sample,48132,0,"hihat.wav",45
Sample,48477,0,"hihat.wav",45
Sample,48822,0,"hihat.wav",45
Sample,48822,0,"bass.wav",80
Sample,48994,0,"bass.wav",80
Sample,48994,0,"snare.wav",80
Sample,49167,0,"hihat.wav",45
Sample,49167,0,"bass.wav",80
Sample,49511,0,"hihat.wav",45
Sample,50201,0,"hihat.wav",45
Sample,50891,0,"hihat.wav",45
Sample,51063,0,"snare.wav",80
Sample,51236,0,"hihat.wav",45
Sample,51580,0,"hihat.wav",45
Sample,51580,0,"bass.wav",80
Sample,51667,0,"bass.wav",80
Sample,51753,0,"snare.wav",80
Sample,51925,0,"bass.wav",80
Sample,52270,0,"hihat.wav",45
Sample,52615,0,"hihat.wav",45
Sample,52960,0,"bass.wav",80
Sample,52960,0,"hihat.wav",45
Sample,53305,0,"hihat.wav",45
Sample,53649,0,"hihat.wav",45
Sample,53994,0,"hihat.wav",45
Sample,54339,0,"hihat.wav",45
Sample,54339,0,"bass.wav",80
Sample,54511,0,"bass.wav",80
Sample,54511,0,"snare.wav",80
Sample,54684,0,"hihat.wav",45
Sample,54684,0,"bass.wav",80
Sample,55029,0,"hihat.wav",45
Sample,55374,0,"hihat.wav",45
Sample,55718,0,"hihat.wav",45
Sample,56063,0,"bass.wav",80
Sample,56408,0,"bass.wav",80
Sample,56580,0,"snare.wav",80
Sample,56753,0,"bass.wav",80
Sample,56925,0,"snare.wav",80
Sample,57011,0,"snare.wav",80
Sample,57011,0,"bass.wav",80
Sample,57098,0,"bass.wav",80
Sample,57184,0,"bass.wav",80
Sample,57270,0,"snare.wav",80
Sample,57615,0,"boom.wav",80
Sample,57787,0,"hihat.wav",45
Sample,57960,0,"snare.wav",80
Sample,58132,0,"hihat.wav",45
Sample,58477,0,"hihat.wav",45
Sample,58477,0,"bass.wav",80
Sample,58649,0,"snare.wav",80
Sample,58822,0,"hihat.wav",45
Sample,59167,0,"hihat.wav",45
Sample,59339,0,"snare.wav",80
Sample,59339,0,"bass.wav",80
Sample,59511,0,"hihat.wav",45
Sample,59856,0,"bass.wav",80
Sample,59856,0,"hihat.wav",45
Sample,60029,0,"bass.wav",80
Sample,60201,0,"bass.wav",80
Sample,60546,0,"hihat.wav",45
Sample,60718,0,"snare.wav",80
Sample,60891,0,"hihat.wav",45
Sample,61236,0,"hihat.wav",45
Sample,61236,0,"bass.wav",80
Sample,61408,0,"snare.wav",80
Sample,61580,0,"hihat.wav",45
Sample,61925,0,"hihat.wav",45
Sample,62098,0,"snare.wav",80
Sample,62098,0,"bass.wav",80
Sample,62270,0,"hihat.wav",45
Sample,62615,0,"bass.wav",80
Sample,62615,0,"hihat.wav",45
Sample,62701,0,"bass.wav",80
Sample,62787,0,"bass.wav",80
Sample,62960,0,"bass.wav",80
Sample,63305,0,"hihat.wav",45
Sample,63477,0,"crash.wav",80
Sample,63477,0,"boom.wav",80
Sample,63649,0,"hihat.wav",45
Sample,63994,0,"hihat.wav",45
Sample,63994,0,"bass.wav",80
Sample,64167,0,"snare.wav",80
Sample,64339,0,"hihat.wav",45
Sample,64684,0,"hihat.wav",45
Sample,64856,0,"snare.wav",80
Sample,64856,0,"bass.wav",80
Sample,65029,0,"hihat.wav",45
Sample,65374,0,"bass.wav",80
Sample,65374,0,"hihat.wav",45
Sample,65546,0,"bass.wav",80
Sample,65718,0,"hihat.wav",45
Sample,65718,0,"bass.wav",80
Sample,65891,0,"bass.wav",80
Sample,66063,0,"hihat.wav",45
Sample,66236,0,"snare.wav",80
Sample,66408,0,"hihat.wav",45
Sample,66580,0,"snare.wav",80
Sample,66667,0,"snare.wav",80
Sample,66667,0,"bass.wav",80
Sample,66753,0,"hihat.wav",45
Sample,66753,0,"bass.wav",80
Sample,66839,0,"bass.wav",80
Sample,66925,0,"snare.wav",80
Sample,67098,0,"bass.wav",80
Sample,68649,0,"boom.wav",80
Sample,70201,0,"bass.wav",80
Sample,70374,0,"bass.wav",80
Sample,70718,0,"snare.wav",80
Sample,70718,0,"bass.wav",80
Sample,72098,0,"drum.wav",55
Sample,72098,0,"bass.wav",80
Sample,72184,0,"drum.wav",55
Sample,72270,0,"drum.wav",55
Sample,72356,0,"drum.wav",55
Sample,72443,0,"drum.wav",55
Sample,72529,0,"drum.wav",55
Sample,72615,0,"drum.wav",55
Sample,72701,0,"drum.wav",55
Sample,72960,0,"bass.wav",80
Sample,73132,0,"bass.wav",80
Sample,73477,0,"snare.wav",80
Sample,73477,0,"bass.wav",80
Sample,74856,0,"bass.wav",80
Sample,75718,0,"bass.wav",80
Sample,75891,0,"bass.wav",80
Sample,76236,0,"snare.wav",80
Sample,77701,0,"drum.wav",55
Sample,77787,0,"drum.wav",55
Sample,77874,0,"drum.wav",55
Sample,77960,0,"drum.wav",55
Sample,78046,0,"drum.wav",55
Sample,78132,0,"drum.wav",55
Sample,78218,0,"drum.wav",55
Sample,81236,0,"drumbass.wav",55
Sample,81408,0,"drumbass.wav",55
Sample,81753,0,"snare.wav",80
Sample,83994,0,"drumbass.wav",55
Sample,84167,0,"drumbass.wav",55
Sample,86753,0,"drumbass.wav",55
Sample,89511,0,"drumbass.wav",55
Sample,89684,0,"drumbass.wav",55
Sample,90718,0,"bass.wav",80
Sample,90718,0,"drum.wav",55
Sample,90833,0,"drum.wav",55
Sample,90948,0,"drum.wav",55
Sample,91063,0,"drum.wav",55
Sample,91408,0,"snare.wav",80
Sample,91408,0,"bass.wav",80
Sample,91523,0,"drum.wav",55
Sample,91638,0,"drum.wav",55
Sample,91753,0,"drum.wav",55
Sample,91868,0,"drum.wav",55
Sample,92270,0,"bass.wav",80
Sample,92443,0,"bass.wav",80
Sample,92787,0,"snare.wav",80
Sample,92787,0,"bass.wav",80
Sample,93592,0,"drum.wav",55
Sample,93707,0,"drum.wav",55
Sample,93822,0,"drum.wav",55
Sample,94167,0,"snare.wav",80
Sample,94167,0,"bass.wav",80
Sample,94282,0,"drum.wav",55
Sample,94397,0,"drum.wav",55
Sample,94511,0,"drum.wav",55
Sample,94626,0,"drum.wav",55
Sample,95029,0,"bass.wav",80
Sample,95201,0,"bass.wav",80
Sample,95546,0,"bass.wav",80
Sample,96351,0,"drum.wav",55
Sample,96465,0,"drum.wav",55
Sample,96580,0,"drum.wav",55
Sample,96925,0,"snare.wav",80
Sample,96925,0,"bass.wav",80
Sample,97040,0,"drum.wav",55
Sample,97155,0,"drum.wav",55
Sample,97270,0,"drum.wav",55
Sample,97385,0,"drum.wav",55
Sample,97787,0,"bass.wav",80
Sample,97960,0,"bass.wav",80
Sample,98305,0,"bass.wav",80
Sample,98305,0,"snare.wav",80
Sample,98994,0,"bass.wav",80
Sample,99109,0,"drum.wav",55
Sample,99224,0,"drum.wav",55
Sample,99339,0,"drum.wav",55
Sample,99799,0,"drum.wav",55
Sample,99914,0,"drum.wav",55
Sample,100029,0,"drum.wav",55
Sample,100144,0,"drum.wav",55
Sample,111408,0,"bass.wav",80
Sample,118305,0,"boom.wav",80
Sample,118477,0,"hihat.wav",45
Sample,118649,0,"snare.wav",80
Sample,118822,0,"hihat.wav",45
Sample,119167,0,"hihat.wav",45
Sample,119167,0,"bass.wav",80
Sample,119339,0,"snare.wav",80
Sample,119511,0,"hihat.wav",45
Sample,119856,0,"hihat.wav",45
Sample,120029,0,"snare.wav",80
Sample,120029,0,"bass.wav",80
Sample,120201,0,"hihat.wav",45
Sample,120546,0,"bass.wav",80
Sample,120546,0,"hihat.wav",45
Sample,120718,0,"bass.wav",80
Sample,120891,0,"bass.wav",80
Sample,121236,0,"hihat.wav",45
Sample,121408,0,"snare.wav",80
Sample,121580,0,"hihat.wav",45
Sample,121925,0,"hihat.wav",45
Sample,121925,0,"bass.wav",80
Sample,122098,0,"snare.wav",80
Sample,122270,0,"hihat.wav",45
Sample,122615,0,"hihat.wav",45
Sample,122787,0,"snare.wav",80
Sample,122787,0,"bass.wav",80
Sample,122960,0,"hihat.wav",45
Sample,123305,0,"hihat.wav",45
Sample,123305,0,"bass.wav",80
Sample,123391,0,"bass.wav",80
Sample,123477,0,"bass.wav",80
Sample,123649,0,"bass.wav",80
Sample,123994,0,"hihat.wav",45
Sample,124167,0,"boom.wav",80
Sample,124167,0,"crash.wav",80
Sample,124339,0,"hihat.wav",45
Sample,124684,0,"hihat.wav",45
Sample,124684,0,"bass.wav",80
Sample,124856,0,"snare.wav",80
Sample,125029,0,"hihat.wav",45
Sample,125374,0,"hihat.wav",45
Sample,125546,0,"snare.wav",80
Sample,125546,0,"bass.wav",80
Sample,125718,0,"hihat.wav",45
Sample,126063,0,"hihat.wav",45
Sample,126063,0,"bass.wav",80
Sample,126236,0,"bass.wav",80
Sample,126408,0,"bass.wav",80
Sample,126408,0,"hihat.wav",45
Sample,126580,0,"bass.wav",80
Sample,126753,0,"hihat.wav",45
Sample,126925,0,"snare.wav",80
Sample,127098,0,"hihat.wav",45
Sample,127098,0,"bass.wav",80
Sample,127184,0,"bass.wav",80
Sample,127356,0,"bass.wav",80
Sample,127443,0,"hihat.wav",45
Sample,127443,0,"bass.wav",80
Sample,127615,0,"snare.wav",80
Sample,127787,0,"bass.wav",80
Sample,127960,0,"snare.wav",80
Sample,128132,0,"bass.wav",80
Sample,128305,0,"bass.wav",80
Sample,128305,0,"snare.wav",80
Sample,128477,0,"bass.wav",80
Sample,128649,0,"snare.wav",80
Sample,128736,0,"bass.wav",80
Sample,128736,0,"snare.wav",80
Sample,128822,0,"bass.wav",80
Sample,128908,0,"bass.wav",80
Sample,128994,0,"bass.wav",80
Sample,128994,0,"snare.wav",80
Sample,129339,0,"crash.wav",80
Sample,129511,0,"hihat.wav",45
Sample,129684,0,"bass.wav",80
Sample,129856,0,"hihat.wav",45
Sample,130201,0,"bass.wav",80
Sample,130201,0,"hihat.wav",45
Sample,130374,0,"bass.wav",80
Sample,130546,0,"hihat.wav",45
Sample,130891,0,"hihat.wav",45
Sample,131063,0,"bass.wav",80
Sample,131063,0,"snare.wav",80
Sample,131236,0,"hihat.wav",45
Sample,131580,0,"hihat.wav",45
Sample,131580,0,"bass.wav",80
Sample,131753,0,"snare.wav",80
Sample,131925,0,"hihat.wav",45
Sample,132270,0,"hihat.wav",45
Sample,132443,0,"bass.wav",80
Sample,132615,0,"hihat.wav",45
Sample,132874,0,"drum.wav",55
Sample,132960,0,"drum.wav",55
Sample,132960,0,"hihat.wav",45
Sample,132960,0,"bass.wav",80
Sample,133046,0,"drum.wav",55
Sample,133132,0,"drum.wav",55
Sample,133132,0,"bass.wav",80
Sample,133218,0,"drum.wav",55
Sample,133305,0,"drum.wav",55
Sample,133305,0,"hihat.wav",45
Sample,133391,0,"drum.wav",55
Sample,133477,0,"drum.wav",55
Sample,133649,0,"hihat.wav",45
Sample,133822,0,"bass.wav",80
Sample,133822,0,"snare.wav",80
Sample,133994,0,"hihat.wav",45
Sample,134339,0,"hihat.wav",45
Sample,134339,0,"bass.wav",80
Sample,134425,0,"bass.wav",80
Sample,134511,0,"snare.wav",80
Sample,134684,0,"hihat.wav",45
Sample,135029,0,"hihat.wav",45
Sample,135201,0,"bass.wav",80
Sample,135201,0,"boom.wav",80
Sample,135374,0,"hihat.wav",45
Sample,135718,0,"bass.wav",80
Sample,135718,0,"hihat.wav",45
Sample,135891,0,"bass.wav",80
Sample,136063,0,"hihat.wav",45
Sample,136408,0,"hihat.wav",45
Sample,136580,0,"bass.wav",80
Sample,136580,0,"snare.wav",80
Sample,136753,0,"hihat.wav",45
Sample,137098,0,"hihat.wav",45
Sample,137098,0,"bass.wav",80
Sample,137270,0,"snare.wav",80
Sample,137443,0,"bass.wav",80
Sample,137443,0,"hihat.wav",45
Sample,137615,0,"crash.wav",80
Sample,137787,0,"hihat.wav",45
Sample,137960,0,"bass.wav",80
Sample,138132,0,"bass.wav",80
Sample,138132,0,"hihat.wav",45
Sample,138305,0,"drum.wav",55
Sample,138305,0,"bass.wav",80
Sample,138391,0,"drum.wav",55
Sample,138391,0,"snare.wav",80
Sample,138391,0,"bass.wav",80
Sample,138477,0,"drum.wav",55
Sample,138477,0,"bass.wav",80
Sample,138477,0,"hihat.wav",45
Sample,138563,0,"bass.wav",80
Sample,138563,0,"drum.wav",55
Sample,138649,0,"bass.wav",80
Sample,138649,0,"drum.wav",55
Sample,138736,0,"drum.wav",55
Sample,138822,0,"hihat.wav",45
Sample,138822,0,"drum.wav",55
Sample,138908,0,"drum.wav",55
Sample,138994,0,"drum.wav",55
Sample,140374,0,"crash.wav",80
Sample,141063,0,"bass.wav",80
Sample,141753,0,"bass.wav",80
Sample,142443,0,"bass.wav",80
Sample,143132,0,"bass.wav",80
Sample,143822,0,"bass.wav",80
Sample,145201,0,"boom.wav",80

[TimingPoints]
2443,344.827586206897,4,2,1,20,1,0
46580,-100,4,2,1,20,0,1
57270,-100,4,2,1,20,0,0
57615,-100,4,2,1,20,0,1
68649,-100,4,2,1,20,0,0
118305,-100,4,2,1,20,0,1
128994,-100,4,2,1,20,0,0
129339,-100,4,2,1,20,0,1
140374,-100,4,2,1,20,0,0

[HitObjects]
64,192,2443,5,0,0:0:0:80:bass.wav
320,192,2443,1,0,0:0:0:80:crash.wav
192,192,2615,1,0,0:0:0:0:
448,192,2787,1,0,0:0:0:0:
320,192,2960,1,0,0:0:0:0:
192,192,3132,128,0,3477:0:0:0:0:
64,192,3477,1,0,0:0:0:0:
192,192,3649,1,0,0:0:0:0:
320,192,3822,1,0,0:0:0:0:
448,192,3994,1,0,0:0:0:0:
448,192,4167,128,0,4856:0:0:0:0:
192,192,5201,1,0,0:0:0:0:
64,192,5374,1,0,0:0:0:0:
448,192,5546,1,0,0:0:0:0:
320,192,5718,1,0,0:0:0:0:
320,192,5891,128,0,6236:0:0:0:0:
448,192,6236,1,0,0:0:0:0:
320,192,6408,1,0,0:0:0:0:
192,192,6580,1,0,0:0:0:0:
192,192,6925,128,0,7270:0:0:0:0:
64,192,7615,128,0,7960:0:0:0:0:
448,192,7960,1,0,0:0:0:0:
320,192,8132,1,0,0:0:0:0:
192,192,8305,1,0,0:0:0:0:
64,192,8477,1,0,0:0:0:0:
448,192,8649,128,0,8994:0:0:0:0:
192,192,8994,1,0,0:0:0:0:
320,192,9167,1,0,0:0:0:0:
448,192,9339,128,0,10029:0:0:0:0:
320,192,9684,128,0,10029:0:0:0:0:
192,192,10029,128,0,10718:0:0:0:0:
64,192,10029,128,0,10718:0:0:0:0:
448,192,10718,1,0,0:0:0:0:
320,192,11063,1,0,0:0:0:0:
192,192,11408,1,0,0:0:0:0:
64,192,11753,1,0,0:0:0:0:
448,192,12098,128,0,12787:0:0:0:0:
320,192,12443,128,0,12787:0:0:0:0:
64,192,12787,128,0,13477:0:0:0:0:
448,192,13132,128,0,13477:0:0:0:0:
192,192,13477,1,0,0:0:0:80:bass.wav
320,192,14167,1,0,0:0:0:80:snare.wav
448,192,14167,1,0,0:0:0:80:bass.wav
64,192,14511,128,0,14856:0:0:0:0:
448,192,15029,1,0,0:0:0:80:bass.wav
192,192,15201,1,0,0:0:0:80:bass.wav
320,192,15546,1,0,0:0:0:80:snare.wav
448,192,15546,1,0,0:0:0:80:bass.wav
320,192,16236,1,0,0:0:0:80:bass.wav
192,192,16925,1,0,0:0:0:80:snare.wav
64,192,16925,1,0,0:0:0:80:bass.wav
448,192,17270,1,0,0:0:0:0:
448,192,17615,1,0,0:0:0:0:
64,192,17787,1,0,0:0:0:80:bass.wav
320,192,17960,1,0,0:0:0:80:bass.wav
192,192,18305,1,0,0:0:0:80:snare.wav
64,192,18305,1,0,0:0:0:80:bass.wav
192,192,18994,1,0,0:0:0:80:bass.wav
320,192,19684,1,0,0:0:0:80:snare.wav
448,192,19684,1,0,0:0:0:80:bass.wav
64,192,20029,1,0,0:0:0:0:
64,192,20374,1,0,0:0:0:0:
448,192,20546,1,0,0:0:0:80:bass.wav
192,192,20718,1,0,0:0:0:80:bass.wav
320,192,21063,1,0,0:0:0:80:bass.wav
448,192,21063,1,0,0:0:0:80:snare.wav
320,192,21753,1,0,0:0:0:80:bass.wav
192,192,22443,1,0,0:0:0:80:bass.wav
64,192,22443,1,0,0:0:0:80:snare.wav
448,192,23132,1,0,0:0:0:0:
64,192,23305,1,0,0:0:0:80:bass.wav
320,192,23477,1,0,0:0:0:80:bass.wav
192,192,23822,128,0,24511:0:0:0:80:bass.wav
64,192,23822,128,0,24511:0:0:0:80:snare.wav
448,192,24511,1,0,0:0:0:40:water.wav
320,192,24856,128,0,25201:0:0:0:40:water.wav
192,192,25201,128,0,25546:0:0:0:40:water.wav
64,192,25546,128,0,25891:0:0:0:40:water.wav
448,192,25891,128,0,26236:0:0:0:40:water.wav
64,192,27615,128,0,28477:0:0:0:40:water.wav
192,192,27960,128,0,28477:0:0:0:40:water.wav
448,192,28477,1,0,0:0:0:40:water.wav
320,192,28649,128,0,28994:0:0:0:40:water.wav
192,192,30374,128,0,30718:0:0:0:40:water.wav
320,192,30718,128,0,31063:0:0:0:40:water.wav
448,192,31063,128,0,31408:0:0:0:40:water.wav
64,192,31408,128,0,32787:0:0:0:40:water.wav
192,192,32098,128,0,32787:0:0:0:40:water.wav
320,192,33132,128,0,33477:0:0:0:0:
192,192,33477,128,0,33822:0:0:0:40:water.wav
64,192,33822,128,0,34167:0:0:0:40:water.wav
448,192,34167,128,0,35546:0:0:0:40:water.wav
320,192,34856,128,0,35546:0:0:0:40:water.wav
64,192,35546,1,0,0:0:0:40:water.wav
320,192,35891,128,0,36236:0:0:0:40:water.wav
192,192,36236,128,0,36580:0:0:0:40:water.wav
64,192,36580,128,0,36925:0:0:0:40:water.wav
448,192,36925,128,0,37270:0:0:0:40:water.wav
448,192,38305,1,0,0:0:0:40:water.wav
64,192,38649,128,0,39511:0:0:0:40:water.wav
192,192,38994,128,0,39511:0:0:0:40:water.wav
448,192,39511,1,0,0:0:0:40:water.wav
320,192,39684,128,0,40029:0:0:0:40:water.wav
448,192,41063,1,0,0:0:0:40:water.wav
192,192,41408,128,0,41753:0:0:0:40:water.wav
320,192,41753,128,0,42098:0:0:0:40:water.wav
448,192,42098,128,0,42443:0:0:0:40:water.wav
64,192,42443,128,0,43822:0:0:0:40:water.wav
192,192,43132,128,0,43822:0:0:0:40:water.wav
448,192,43822,128,0,45201:0:0:0:40:water.wav
64,192,44511,128,0,45201:0:0:0:40:water.wav
192,192,45201,128,0,45546:0:0:0:0:
320,192,45546,128,0,45891:0:0:0:0:
448,192,45891,128,0,46580:0:0:0:0:
192,192,46580,1,0,0:0:0:80:crash.wav
64,192,46580,1,0,0:0:0:80:bass.wav
320,192,46925,1,0,0:0:0:80:snare.wav
448,192,46925,1,0,0:0:0:80:bass.wav
64,192,47270,1,0,0:0:0:0:
192,192,47443,1,0,0:0:0:80:bass.wav
320,192,47615,1,0,0:0:0:80:snare.wav
448,192,47615,1,0,0:0:0:80:bass.wav
192,192,47787,1,0,0:0:0:45:hihat.wav
64,192,47960,128,0,48305:0:0:0:80:bass.wav
320,192,48305,1,0,0:0:0:80:bass.wav
448,192,48305,1,0,0:0:0:80:snare.wav
192,192,48649,128,0,49339:0:0:0:0:
320,192,49339,1,0,0:0:0:80:crash.wav
448,192,49339,1,0,0:0:0:80:bass.wav
448,192,49684,1,0,0:0:0:80:snare.wav
64,192,49684,1,0,0:0:0:80:bass.wav
192,192,49856,1,0,0:0:0:45:hihat.wav
320,192,50029,1,0,0:0:0:0:
448,192,50201,1,0,0:0:0:80:bass.wav
192,192,50374,1,0,0:0:0:80:snare.wav
64,192,50374,1,0,0:0:0:80:bass.wav
320,192,50546,1,0,0:0:0:45:hihat.wav
448,192,50718,128,0,51408:0:0:0:80:bass.wav
320,192,51063,128,0,51408:0:0:0:80:bass.wav
64,192,51408,128,0,51753:0:0:0:0:
192,192,51753,1,0,0:0:0:80:bass.wav
320,192,51925,1,0,0:0:0:45:hihat.wav
64,192,52098,1,0,0:0:0:80:bass.wav
448,192,52098,128,0,52443:0:0:0:80:crash.wav
192,192,52443,1,0,0:0:0:80:snare.wav
64,192,52443,1,0,0:0:0:80:bass.wav
320,192,52787,128,0,53132:0:0:0:0:
192,192,53132,128,0,53477:0:0:0:80:snare.wav
64,192,53132,1,0,0:0:0:80:bass.wav
448,192,53477,128,0,53822:0:0:0:80:bass.wav
192,192,53822,1,0,0:0:0:80:bass.wav
64,192,53822,1,0,0:0:0:80:snare.wav
64,192,54167,128,0,54856:0:0:0:0:
192,192,54856,1,0,0:0:0:80:crash.wav
448,192,54856,1,0,0:0:0:80:bass.wav
320,192,55201,128,0,55546:0:0:0:80:snare.wav
192,192,55201,1,0,0:0:0:80:bass.wav
64,192,55546,1,0,0:0:0:0:
192,192,55718,1,0,0:0:0:80:bass.wav
320,192,55891,1,0,0:0:0:80:snare.wav
448,192,55891,1,0,0:0:0:80:bass.wav
192,192,56063,1,0,0:0:0:45:hihat.wav
64,192,56236,1,0,0:0:0:80:bass.wav
448,192,56236,128,0,56580:0:0:0:80:snare.wav
320,192,56580,128,0,56925:0:0:0:80:bass.wav
192,192,56925,128,0,57270:0:0:0:80:bass.wav
64,192,57270,128,0,57615:0:0:0:80:bass.wav
448,192,57615,128,0,57960:0:0:0:80:crash.wav
320,192,57615,1,0,0:0:0:80:bass.wav
64,192,57960,1,0,0:0:0:80:bass.wav
320,192,58305,128,0,58649:0:0:0:0:
64,192,58649,1,0,0:0:0:80:bass.wav
192,192,58994,128,0,60029:0:0:0:80:bass.wav
448,192,59856,1,0,0:0:0:0:
320,192,60029,1,0,0:0:0:80:snare.wav
192,192,60201,1,0,0:0:0:45:hihat.wav
64,192,60374,128,0,60718:0:0:0:80:bass.wav
448,192,60374,1,0,0:0:0:80:crash.wav
448,192,60718,1,0,0:0:0:80:bass.wav
192,192,61063,128,0,61408:0:0:0:0:
448,192,61408,1,0,0:0:0:80:bass.wav
320,192,61753,128,0,62787:0:0:0:80:bass.wav
64,192,62615,1,0,0:0:0:0:
192,192,62787,1,0,0:0:0:80:snare.wav
320,192,62960,1,0,0:0:0:45:hihat.wav
448,192,63132,128,0,63477:0:0:0:80:bass.wav
64,192,63477,1,0,0:0:0:80:bass.wav
192,192,63477,1,0,0:0:0:80:snare.wav
320,192,63822,128,0,64167:0:0:0:0:
64,192,64167,1,0,0:0:0:80:bass.wav
192,192,64511,128,0,65201:0:0:0:80:bass.wav
320,192,65201,128,0,65546:0:0:0:0:
448,192,65546,128,0,65891:0:0:0:80:snare.wav
64,192,65891,128,0,66236:0:0:0:80:crash.wav
448,192,66236,1,0,0:0:0:80:bass.wav
192,192,66580,128,0,66925:0:0:0:80:bass.wav
448,192,66925,1,0,0:0:0:80:bass.wav
320,192,67098,1,0,0:0:0:45:hihat.wav
320,192,67270,128,0,68649:0:0:0:80:bass.wav
448,192,67960,128,0,68649:0:0:0:0:
192,192,68649,1,0,0:0:0:80:bass.wav
64,192,68649,128,0,70029:0:0:0:80:crash.wav
192,192,69339,128,0,70029:0:0:0:80:snare.wav
448,192,70029,128,0,71408:0:0:0:0:
192,192,71408,128,0,72787:0:0:0:80:bass.wav
64,192,72098,128,0,72787:0:0:0:80:snare.wav
448,192,72787,128,0,74167:0:0:0:55:drum.wav
64,192,74167,128,0,75546:0:0:0:80:bass.wav
192,192,74856,128,0,75546:0:0:0:80:snare.wav
448,192,75546,128,0,76236:0:0:0:0:
320,192,76236,128,0,76580:0:0:0:80:bass.wav
192,192,76580,128,0,76925:0:0:0:0:
64,192,76925,128,0,78305:0:0:0:80:bass.wav
448,192,77615,128,0,78305:0:0:0:55:drum.wav
192,192,78305,128,0,78994:0:0:0:55:drum.wav
320,192,78994,128,0,79684:0:0:0:0:
64,192,79684,1,0,0:0:0:55:drumbass.wav
448,192,79684,1,0,0:0:0:0:
192,192,80259,1,0,0:0:0:0:
320,192,80374,1,0,0:0:0:80:snare.wav
448,192,80948,1,0,0:0:0:0:
64,192,81063,1,0,0:0:0:0:
448,192,82443,1,0,0:0:0:55:drumbass.wav
192,192,82443,1,0,0:0:0:0:
320,192,83017,1,0,0:0:0:0:
64,192,83132,1,0,0:0:0:80:snare.wav
192,192,83707,1,0,0:0:0:0:
448,192,83822,1,0,0:0:0:0:
448,192,84511,128,0,85201:0:0:0:80:snare.wav
64,192,85201,1,0,0:0:0:55:drumbass.wav
192,192,85546,1,0,0:0:0:0:
320,192,85891,1,0,0:0:0:80:snare.wav
448,192,86236,1,0,0:0:0:0:
192,192,86580,1,0,0:0:0:0:
64,192,86925,1,0,0:0:0:55:drumbass.wav
320,192,87270,1,0,0:0:0:80:snare.wav
448,192,87615,1,0,0:0:0:0:
64,192,87960,128,0,89339:0:0:0:55:drumbass.wav
192,192,88649,128,0,89339:0:0:0:80:snare.wav
448,192,89339,128,0,90718:0:0:0:0:
64,192,90029,128,0,90718:0:0:0:80:snare.wav
320,192,90718,1,0,0:0:0:80:boom.wav
192,192,90718,1,0,0:0:0:80:crash.wav
320,192,91293,1,0,0:0:0:0:
64,192,91408,1,0,0:0:0:55:drum.wav
192,192,91983,1,0,0:0:0:55:drum.wav
448,192,92098,1,0,0:0:0:55:drum.wav
192,192,93477,1,0,0:0:0:55:drum.wav
64,192,93477,1,0,0:0:0:80:bass.wav
192,192,94052,1,0,0:0:0:0:
448,192,94167,1,0,0:0:0:55:drum.wav
320,192,94741,1,0,0:0:0:55:drum.wav
64,192,94856,1,0,0:0:0:55:drum.wav
192,192,95546,128,0,96236:0:0:0:80:snare.wav
320,192,96236,1,0,0:0:0:55:drum.wav
448,192,96236,1,0,0:0:0:80:bass.wav
320,192,96810,1,0,0:0:0:0:
64,192,96925,1,0,0:0:0:55:drum.wav
192,192,97500,1,0,0:0:0:55:drum.wav
448,192,97615,1,0,0:0:0:55:drum.wav
64,192,98994,1,0,0:0:0:55:drum.wav
448,192,98994,1,0,0:0:0:80:crash.wav
192,192,99569,1,0,0:0:0:0:
320,192,99684,1,0,0:0:0:55:drum.wav
64,192,100259,1,0,0:0:0:55:drum.wav
448,192,100374,128,0,100718:0:0:0:55:drum.wav
320,192,100718,128,0,101063:0:0:0:0:
192,192,101063,128,0,101408:0:0:0:0:
64,192,101408,128,0,101753:0:0:0:0:
448,192,101753,1,0,0:0:0:65:tick.wav
320,192,102098,1,0,0:0:0:65:tick.wav
192,192,102443,1,0,0:0:0:65:tick.wav
64,192,102787,1,0,0:0:0:65:tick.wav
448,192,103132,1,0,0:0:0:65:tick.wav
192,192,103477,128,0,103822:0:0:0:65:tick.wav
320,192,103822,128,0,104167:0:0:0:65:tick.wav
448,192,104167,128,0,104511:0:0:0:65:tick.wav
64,192,104511,1,0,0:0:0:65:tick.wav
192,192,104856,1,0,0:0:0:65:tick.wav
320,192,105201,1,0,0:0:0:65:tick.wav
448,192,105546,1,0,0:0:0:65:tick.wav
64,192,105891,1,0,0:0:0:65:tick.wav
320,192,106236,128,0,106580:0:0:0:65:tick.wav
192,192,106580,128,0,106925:0:0:0:65:tick.wav
64,192,106925,128,0,107270:0:0:0:65:tick.wav
448,192,107270,1,0,0:0:0:65:tick.wav
320,192,107615,1,0,0:0:0:65:tick.wav
192,192,107960,1,0,0:0:0:65:tick.wav
320,192,108305,1,0,0:0:0:65:tick.wav
448,192,108649,1,0,0:0:0:65:tick.wav
64,192,108994,1,0,0:0:0:65:tick.wav
192,192,109339,1,0,0:0:0:65:tick.wav
320,192,109684,1,0,0:0:0:65:tick.wav
192,192,110029,1,0,0:0:0:65:tick.wav
64,192,110374,1,0,0:0:0:65:tick.wav
448,192,110718,1,0,0:0:0:65:tick.wav
320,192,111063,1,0,0:0:0:65:tick.wav
64,192,111408,128,0,116925:0:0:0:65:tick.wav
192,192,111408,128,0,116925:0:0:0:80:crash.wav
448,192,117960,128,0,118305:0:0:0:0:
64,192,118305,128,0,118649:0:0:0:80:crash.wav
192,192,118305,1,0,0:0:0:80:bass.wav
448,192,118649,1,0,0:0:0:80:bass.wav
192,192,118994,128,0,119339:0:0:0:0:
448,192,119339,1,0,0:0:0:80:bass.wav
320,192,119684,128,0,120718:0:0:0:80:bass.wav
64,192,120546,1,0,0:0:0:0:
192,192,120718,1,0,0:0:0:80:snare.wav
320,192,120891,1,0,0:0:0:45:hihat.wav
448,192,121063,128,0,121408:0:0:0:80:bass.wav
64,192,121063,1,0,0:0:0:80:crash.wav
64,192,121408,1,0,0:0:0:80:bass.wav
320,192,121753,128,0,122098:0:0:0:0:
64,192,122098,1,0,0:0:0:80:bass.wav
192,192,122443,128,0,123477:0:0:0:80:bass.wav
448,192,123305,1,0,0:0:0:0:
320,192,123477,1,0,0:0:0:80:snare.wav
192,192,123649,1,0,0:0:0:45:hihat.wav
64,192,123822,128,0,124167:0:0:0:80:bass.wav
448,192,124167,1,0,0:0:0:80:bass.wav
320,192,124167,1,0,0:0:0:80:snare.wav
192,192,124511,128,0,124856:0:0:0:0:
448,192,124856,1,0,0:0:0:80:bass.wav
320,192,125201,128,0,125891:0:0:0:80:bass.wav
192,192,125891,128,0,126236:0:0:0:0:
64,192,126236,128,0,126580:0:0:0:80:snare.wav
448,192,126580,128,0,126925:0:0:0:80:crash.wav
64,192,126925,1,0,0:0:0:80:bass.wav
320,192,127270,128,0,127615:0:0:0:80:bass.wav
64,192,127615,1,0,0:0:0:80:bass.wav
192,192,127787,1,0,0:0:0:45:hihat.wav
192,192,127960,128,0,129339:0:0:0:80:bass.wav
64,192,128649,128,0,129339:0:0:0:80:bass.wav
448,192,129339,128,0,129684:0:0:0:80:boom.wav
320,192,129339,1,0,0:0:0:80:bass.wav
64,192,129684,1,0,0:0:0:80:snare.wav
320,192,130029,128,0,130374:0:0:0:0:
64,192,130374,1,0,0:0:0:80:snare.wav
192,192,130718,128,0,131753:0:0:0:80:bass.wav
448,192,131580,1,0,0:0:0:0:
320,192,131753,1,0,0:0:0:80:bass.wav
192,192,131925,1,0,0:0:0:80:bass.wav
64,192,132098,128,0,132443:0:0:0:80:crash.wav
448,192,132098,1,0,0:0:0:80:bass.wav
448,192,132443,1,0,0:0:0:80:snare.wav
192,192,132787,128,0,133132:0:0:0:55:drum.wav
448,192,133132,1,0,0:0:0:80:snare.wav
320,192,133477,128,0,134511:0:0:0:80:bass.wav
64,192,134339,1,0,0:0:0:0:
192,192,134511,1,0,0:0:0:80:bass.wav
320,192,134684,1,0,0:0:0:80:bass.wav
448,192,134856,128,0,135201:0:0:0:80:bass.wav
64,192,135201,1,0,0:0:0:80:crash.wav
192,192,135201,1,0,0:0:0:80:snare.wav
320,192,135546,128,0,135891:0:0:0:0:
64,192,135891,1,0,0:0:0:80:snare.wav
192,192,136236,128,0,136925:0:0:0:80:bass.wav
320,192,136925,128,0,137270:0:0:0:0:
448,192,137270,128,0,137615:0:0:0:80:bass.wav
64,192,137615,128,0,137960:0:0:0:80:bass.wav
448,192,137960,1,0,0:0:0:80:snare.wav
192,192,138305,128,0,138649:0:0:0:80:snare.wav
448,192,138649,1,0,0:0:0:80:snare.wav
320,192,138822,1,0,0:0:0:80:bass.wav
320,192,138994,128,0,140374:0:0:0:80:bass.wav
448,192,139684,128,0,140374:0:0:0:0:
64,192,140374,128,0,143132:0:0:0:80:bass.wav
448,192,141063,1,0,0:0:0:80:snare.wav
192,192,141753,128,0,143132:0:0:0:80:crash.wav
448,192,142443,1,0,0:0:0:80:snare.wav
448,192,143132,128,0,144511:0:0:0:80:crash.wav
64,192,143822,128,0,144511:0:0:0:80:crash.wav
192,192,144511,128,0,144856:0:0:0:80:bass.wav
320,192,144856,128,0,145201:0:0:0:80:bass.wav
64,192,145201,1,0,0:0:0:80:bass.wav
448,192,145201,128,0,145891:0:0:0:80:crash.wav
448,192,150374,128,0,151408:0:0:0:0:
64,192,150718,128,0,151408:0:0:0:0:
