osu file format v14

[General]
AudioFilename: REANIMATE.mp3
AudioLeadIn: 0
PreviewTime: 57263
Countdown: 0
SampleSet: Soft
StackLeniency: 0.5
Mode: 2
LetterboxInBreaks: 0
WidescreenStoryboard: 0

[Editor]
DistanceSpacing: 1.4
BeatDivisor: 4
GridSize: 8
TimelineZoom: 1.772001

[Metadata]
Title:REANIMATE
TitleUnicode:REANIMATE
Artist:Warak
ArtistUnicode:Warak
Creator:- Magic Bomb -
Version:Salad
Source:节奏大师
Tags:MBomb rhythm master symphonic drumstep JBHyperion Zirox JBH
BeatmapID:1042703
BeatmapSetID:489190

[Difficulty]
HPDrainRate:4
CircleSize:3
OverallDifficulty:7.3
ApproachRate:7.3
SliderMultiplier:1.4
SliderTickRate:1

[Events]
//Background and Video events
0,0,"REVIVE.png",0,0
//Break Periods
//Storyboard Layer 0 (Background)
//Storyboard Layer 1 (Fail)
//Storyboard Layer 2 (Pass)
//Storyboard Layer 3 (Foreground)
//Storyboard Sound Samples

[TimingPoints]
2436,344.827586206897,4,2,77,100,1,0
2436,-90.9090909090909,4,2,77,100,0,0
13470,-90.9090909090909,4,2,80,100,0,0
13556,-100,4,2,78,85,0,0
24504,-133.333333333333,4,2,78,80,0,0
24677,-133.333333333333,4,2,77,80,0,0
26229,-100,4,2,77,80,0,0
27263,-100,4,2,78,80,0,0
27436,-100,4,2,77,80,0,0
30022,-100,4,2,78,80,0,0
30194,-100,4,2,77,80,0,0
32780,-100,4,2,78,80,0,0
32953,-100,4,2,77,80,0,0
35539,-100,4,2,78,90,0,0
35711,-100,4,2,77,90,0,0
38298,-100,4,2,78,90,0,0
38470,-100,4,2,77,90,0,0
41056,-100,4,2,78,90,0,0
41229,-100,4,2,77,90,0,0
43815,-100,4,2,78,90,0,0
45194,-100,4,2,77,90,0,0
46573,-100,4,2,78,90,0,1
57263,-76.9230769230769,4,2,78,80,0,0
57608,-100,4,2,78,90,0,1
67263,-100,4,2,77,80,0,1
68642,-100,4,2,78,80,0,0
70705,-100,4,2,78,80,0,0
71056,-100,4,2,78,80,0,0
78298,-100,4,2,77,80,0,0
79677,-100,4,2,79,70,0,0
90711,-100,4,2,78,70,0,0
99073,-100,4,2,77,90,0,0
100367,-100,4,2,77,80,0,0
101056,-100,4,2,77,70,0,0
101746,-100,4,2,77,80,0,0
111573,-100,4,2,77,50,0,0
113125,-100,4,2,77,80,0,0
115539,-100,4,2,77,80,0,0
116229,-100,4,2,77,80,0,0
116918,-100,4,2,77,80,0,0
118298,-100,4,2,78,90,0,1
127953,-100,4,2,78,90,0,1
128987,-100,4,2,78,90,0,0
129332,-100,4,2,78,90,0,1
138987,-100,4,2,77,100,0,1
140367,-100,4,2,79,80,0,0
144504,-100,4,2,77,80,0,0
145194,-100,4,2,77,100,0,1
145280,-100,4,2,77,40,0,0

[Colours]
Combo1 : 183,47,49
Combo2 : 223,170,70
Combo3 : 84,114,98
Combo4 : 92,107,131

[HitObjects]
208,192,2436,6,0,L|112:192,1,77.0000023498536,4|0,0:0|0:0,0:0:0:0:
232,192,2780,1,0,0:0:0:0:
152,192,2953,1,0,0:0:0:0:
256,192,3125,2,0,L|424:192,1,154.000004699707,2|0,0:0|0:0,0:0:0:0:
320,192,3642,1,0,0:0:0:0:
232,192,3815,6,0,L|304:144,2,77.0000023498536,2|0|0,0:0|0:0|0:0,0:0:0:0:
400,192,4504,2,0,L|328:144,2,77.0000023498536,2|0|0,0:0|0:0|0:0,0:0:0:0:
216,192,5194,6,0,L|120:192,1,77.0000023498536,4|0,0:0|0:0,0:0:0:0:
64,192,5539,1,0,0:0:0:0:
152,192,5711,1,0,0:0:0:0:
248,192,5884,2,0,L|80:192,1,154.000004699707,2|0,0:0|0:0,0:0:0:0:
192,192,6401,1,0,0:0:0:0:
360,192,6573,6,0,P|440:120|416:80,1,154.000004699707,2|2,0:0|0:0,0:0:0:0:
256,192,7263,2,0,P|176:120|200:80,1,154.000004699707,2|2,0:0|0:0,0:0:0:0:
360,192,7953,6,0,L|256:192,1,77.0000023498536,4|0,0:0|0:0,0:0:0:0:
208,192,8298,1,0,0:0:0:0:
304,192,8470,1,0,0:0:0:0:
208,192,8642,2,0,L|40:192,1,154.000004699707,2|0,0:0|0:0,0:0:0:0:
144,192,9160,1,0,0:0:0:0:
240,192,9332,6,0,L|400:192,1,154.000004699707,2|2,0:0|0:0,0:0:0:0:
96,192,10022,1,2,0:0:0:0:
352,192,10539,1,2,0:0:0:0:
248,192,10711,5,4,0:0:0:0:
432,192,11056,1,2,0:0:0:0:
272,192,11401,2,0,L|432:192,1,154.000004699707,2|2,0:0|0:0,0:0:0:0:
256,192,12091,6,0,L|144:192,2,77.0000023498536,0|0|2,0:0|0:0|0:0,0:0:0:0:
128,192,12780,2,0,L|288:192,1,154.000004699707,2|2,0:0|0:0,0:0:0:0:
16,192,13470,6,0,L|120:192,1,77.0000023498536,4|0,0:0|0:0,0:0:0:0:
200,192,13815,1,2,0:0:0:0:
120,192,13987,1,0,0:0:0:0:
200,192,14160,2,0,L|344:192,1,140,8|2,0:0|0:0,0:0:0:0:
400,192,14677,1,0,0:0:0:0:
304,192,14849,6,0,L|224:192,2,70,2|2|2,0:0|0:0|0:0,0:0:0:0:
136,192,15539,2,0,L|216:192,2,70,8|0|2,0:0|0:0|0:0,0:0:0:0:
312,192,16229,6,0,L|392:192,1,70,2|0,0:0|0:0,0:0:0:0:
296,192,16573,2,0,L|216:192,1,70,2|0,0:0|0:0,0:0:0:0:
320,192,16918,2,0,L|160:192,1,140,8|2,0:0|0:0,0:0:0:0:
272,192,17436,1,0,0:0:0:0:
440,192,17608,6,0,L|288:192,1,140,2|2,0:0|0:0,0:0:0:0:
144,192,18298,2,0,L|296:192,1,140,8|2,0:0|0:0,0:0:0:0:
128,192,18987,6,0,L|48:192,2,70,2|0|2,0:0|0:0|0:0,0:0:0:0:
216,192,19504,1,0,0:0:0:0:
312,192,19677,2,0,P|352:144|296:112,1,140,8|2,0:0|0:0,0:0:0:0:
208,192,20194,1,0,0:0:0:0:
304,192,20367,5,2,0:0:0:0:
392,192,20539,2,0,L|392:112,1,70,2|2,0:0|0:0,0:0:0:0:
96,192,21056,1,8,0:0:0:0:
304,192,21573,1,0,0:0:0:0:
392,192,21746,6,0,L|312:192,2,70,2|0|0,0:0|0:0|0:0,0:0:0:0:
472,192,22263,1,0,0:0:0:0:
376,192,22436,2,0,P|224:192|224:192,1,140,8|0,0:0|0:0,0:0:0:0:
400,192,23125,5,2,0:0:0:0:
312,192,23298,2,0,L|240:192,1,70,2|2,0:0|0:0,0:0:0:0:
80,192,23815,1,8,0:0:0:0:
272,192,24504,5,2,0:0:0:0:
160,192,24849,2,0,L|272:192,2,105.000004005432,0|2|0,0:0|0:0|0:0,0:0:0:0:
288,192,25884,5,2,0:0:0:0:
448,192,26229,2,0,L|304:192,2,140,2|0|2,0:0|0:0|0:0,0:0:0:0:
280,192,27263,5,2,0:0:0:0:
144,192,27608,1,2,0:0:0:0:
304,192,27953,2,0,P|384:112|320:72,1,210,2|0,0:0|0:0,0:0:0:0:
248,192,28642,5,2,0:0:0:0:
96,192,28987,2,0,L|240:192,2,140,2|0|0,0:0|0:0|0:0,0:0:0:0:
272,192,30022,5,2,0:0:0:0:
120,192,30367,2,0,L|264:192,1,140,2|0,0:0|0:0,0:0:0:0:
424,192,31056,1,2,0:0:0:0:
216,192,31401,6,0,P|144:112|216:72,1,210,2|0,0:0|0:0,0:0:0:0:
288,192,32091,2,0,B|432:192|432:192|272:192,1,280,2|2,0:0|0:0,0:0:0:0:
144,192,33125,6,0,L|288:192,2,140,2|0|2,0:0|0:0|0:0,0:0:0:0:
440,192,34160,6,0,P|496:136|400:88,1,210,2|0,0:0|0:0,0:0:0:0:
320,192,34849,2,0,L|464:192,1,140,2|0,0:0|0:0,0:0:0:0:
144,192,35539,5,2,0:0:0:0:
320,192,35884,2,0,L|176:192,2,140,2|0|2,0:0|0:0|0:0,0:0:0:0:
144,192,36918,5,2,0:0:0:0:
296,192,37263,2,0,L|448:192,2,140,0|2|2,0:0|0:0|0:0,0:0:0:0:
472,192,38298,5,2,0:0:0:0:
296,192,38642,1,2,0:0:0:0:
112,192,38987,2,0,L|328:192,1,210,0|0,0:0|0:0,0:0:0:0:
232,192,39677,5,2,0:0:0:0:
400,192,40022,2,0,L|256:192,2,140,0|2|2,0:0|0:0|0:0,0:0:0:0:
232,192,41056,5,2,0:0:0:0:
48,192,41401,2,0,L|200:192,1,140,2|0,0:0|0:0,0:0:0:0:
16,192,42091,1,2,0:0:0:0:
208,192,42436,6,0,L|440:192,1,210,2|0,0:0|0:0,0:0:0:0:
328,192,43125,2,0,L|184:192,1,140,2|2,0:0|0:0,0:0:0:0:
352,192,43815,6,0,L|72:192,2,280,2|2|2,0:0|0:0|0:0,0:0:0:0:
184,192,45539,1,0,0:0:0:0:
496,192,45884,1,2,0:0:0:0:
224,192,46573,5,6,0:0:0:0:
400,192,46918,2,0,L|312:192,1,70,8|0,0:0|0:0,0:0:0:0:
432,192,47263,1,2,0:0:0:0:
432,192,47436,1,2,0:0:0:0:
344,192,47608,2,0,L|264:192,1,70,8|2,0:0|0:0,0:0:0:0:
464,192,47953,6,0,P|464:144|384:120,1,140,2|8,0:0|0:0,0:0:0:0:
296,192,48470,1,0,0:0:0:0:
216,192,48642,2,0,L|440:192,1,210
248,192,49332,5,2,0:0:0:0:
408,192,49677,1,8,0:0:0:0:
320,192,49849,1,2,0:0:0:0:
408,192,50022,1,2,0:0:0:0:
320,192,50194,1,2,0:0:0:0:
248,192,50367,1,8,0:0:0:0:
320,192,50539,1,2,0:0:0:0:
128,192,50711,6,0,P|136:144|176:136,1,70,2|0,0:0|0:0,0:0:0:0:
248,192,51056,2,0,L|176:192,1,70,8|0,0:0|0:0,0:0:0:0:
256,192,51401,2,0,L|400:192,1,140,2|8,0:0|0:0,0:0:0:0:
312,192,51918,1,2,0:0:0:0:
128,192,52091,6,0,P|64:120|80:104,1,140,2|8,0:0|0:0,0:0:0:0:
152,192,52608,1,0,0:0:0:0:
96,192,52780,2,0,L|176:192,2,70,2|2|8,0:0|0:0|0:0,0:0:0:0:
184,192,53298,1,0,0:0:0:0:
368,192,53470,6,0,P|441:158|432:104,1,140,2|8,0:0|0:0,0:0:0:0:
352,192,53987,1,0,0:0:0:0:
264,192,54160,2,0,B|184:192|184:192|320:192,1,210,0|0,0:0|0:0,0:0:0:0:
496,192,54849,5,2,0:0:0:0:
336,192,55194,1,8,0:0:0:0:
248,192,55367,1,2,0:0:0:0:
160,192,55539,2,0,L|240:192,3,70,2|2|8|2,0:0|0:0|0:0|0:0,0:0:0:0:
408,192,56229,5,8,0:0:0:0:
230,192,56573,1,8,0:0:0:0:
496,192,56918,1,8,0:0:0:0:
312,192,57263,1,8,0:0:0:0:
24,192,57608,6,0,L|168:192,1,140,6|8,0:0|0:0,0:0:0:0:
80,192,58125,1,0,0:0:0:0:
168,192,58298,2,0,L|256:192,2,70,2|2|8,0:0|0:0|0:0,0:0:0:0:
256,192,58815,1,0,0:0:0:0:
432,192,58987,5,2,0:0:0:0:
360,192,59160,1,2,0:0:0:0:
292,201,59332,1,8,0:0:0:0:
242,156,59504,1,2,0:0:0:0:
246,88,59677,1,2,0:0:0:0:
300,48,59849,1,2,0:0:0:0:
384,192,60022,2,0,L|304:192,1,70,8|0,0:0|0:0,0:0:0:0:
128,192,60367,6,0,P|80:128|128:112,1,140,2|8,0:0|0:0,0:0:0:0:
192,192,60884,1,0,0:0:0:0:
280,192,61056,2,0,B|384:192|384:192|320:192,1,140,2|8,0:0|0:0,0:0:0:0:
256,192,61573,1,2,0:0:0:0:
160,192,61746,5,2,0:0:0:0:
256,192,61918,1,2,0:0:0:0:
304,192,62091,1,8,0:0:0:0:
248,192,62263,1,2,0:0:0:0:
184,192,62436,1,2,0:0:0:0:
112,192,62608,1,2,0:0:0:0:
200,192,62780,1,8,0:0:0:0:
288,192,62953,1,2,0:0:0:0:
104,192,63125,5,2,0:0:0:0:
272,192,63470,1,8,0:0:0:0:
128,192,63815,1,2,0:0:0:0:
224,192,63987,2,0,L|144:192,1,70,2|8,0:0|0:0,0:0:0:0:
80,192,64332,1,2,0:0:0:0:
264,192,64504,5,2,0:0:0:0:
112,192,64849,2,0,L|200:192,3,70,8|2|2|2,0:0|0:0|0:0|0:0,0:0:0:0:
264,192,65539,1,8,0:0:0:0:
352,192,65711,1,2,0:0:0:0:
160,192,65884,6,0,P|96:120|112:104,1,140,2|8,0:0|0:0,0:0:0:0:
194,192,66401,1,0,0:0:0:0:
282,192,66573,2,0,L|354:192,2,70,8|2|8,0:0|0:0|0:0,0:0:0:0:
200,192,67091,1,2,0:0:0:0:
304,192,67263,6,0,B|448:192|448:192|288:192,1,280,2|2,0:0|0:0,0:0:0:0:
96,192,68642,5,2,0:0:0:0:
256,192,68987,1,2,0:0:0:0:
96,192,69332,1,8,0:0:0:0:
43,153,69504,1,2,0:0:0:0:
62,90,69676,1,2,0:0:0:0:
127,89,69849,1,2,0:0:0:0:
216,192,70022,6,0,L|136:192,2,70,2|2|2,0:0|0:0|0:0,0:0:0:0:
368,192,70711,2,0,L|208:192,1,140,8|0,0:0|0:0,0:0:0:0:
496,192,71401,6,0,L|336:192,1,140,2|2,0:0|0:0,0:0:0:0:
192,192,72091,2,0,L|280:192,2,70,8|2|2,0:0|0:0|0:0,0:0:0:0:
360,192,72780,6,0,B|432:192|432:192|336:192,1,140,2|0,0:0|0:0,0:0:0:0:
192,192,73470,2,0,B|32:192,1,140,8|2,0:0|0:0,0:0:0:0:
360,192,74160,6,0,P|432:104|424:96,1,140,2|2,0:0|0:0,0:0:0:0:
272,192,74849,1,8,0:0:0:0:
352,192,75022,2,0,L|432:192,2,70,2|2|2,0:0|0:0|0:0,0:0:0:0:
264,192,75539,6,0,L|192:192,1,70,2|2,0:0|0:0,0:0:0:0:
288,192,75884,1,2,0:0:0:0:
144,192,76229,1,8,0:0:0:0:
312,192,76573,1,0,0:0:0:0:
24,192,76918,6,0,L|256:192,1,210,2|0,0:0|0:0,0:0:0:0:
152,192,77608,2,0,L|384:192,1,210,8|2,0:0|0:0,0:0:0:0:
280,192,78298,5,2,0:0:0:0:
408,192,78642,1,0,0:0:0:0:
264,192,78987,1,2,0:0:0:0:
424,192,79332,1,0,0:0:0:0:
112,192,79677,6,0,P|72:128|176:104,1,210,4|0,0:0|0:0,0:0:0:0:
256,192,80367,2,0,L|40:192,1,210,8|0,0:0|0:0,0:0:0:0:
136,192,81056,6,0,L|280:192,2,140,2|2|8,0:0|0:0|0:0,0:0:0:0:
416,192,82436,6,0,L|184:192,1,210,4|0,0:0|0:0,0:0:0:0:
288,192,83125,2,0,L|504:192,1,210,8|0,0:0|0:0,0:0:0:0:
416,192,83815,6,0,L|264:192,2,140,2|2|8,0:0|0:0|0:0,0:0:0:0:
344,192,84677,1,0,0:0:0:0:
264,192,84849,1,0,0:0:0:0:
352,192,85022,1,0,0:0:0:0:
168,192,85194,6,0,L|16:192,2,140,4|0|8,0:0|0:0|0:0,0:0:0:0:
328,192,86229,2,0,L|176:192,2,140,0|2|2,0:0|0:0|0:0,0:0:0:0:
160,192,87263,5,8,0:0:0:0:
97,176,87435,1,0,0:0:0:0:
100,112,87607,1,0,0:0:0:0:
163,102,87780,1,0,0:0:0:0:
352,192,87953,5,4,0:0:0:0:
160,192,88642,1,8,0:0:0:0:
416,192,89332,5,2,0:0:0:0:
96,192,90022,1,8,0:0:0:0:
416,192,90711,6,0,P|475:169|456:104,1,140,6|0,0:0|0:0,0:0:0:0:
304,192,91401,2,0,L|448:192,1,140,8|0,0:0|0:0,0:0:0:0:
272,192,92091,5,2,0:0:0:0:
184,192,92263,2,0,L|256:192,1,70,2|2,0:0|0:0,0:0:0:0:
408,192,92780,2,0,P|464:128|424:112,1,140,8|2,0:0|0:0,0:0:0:0:
144,192,93470,6,0,P|58:160|64:120,1,140,2|0,0:0|0:0,0:0:0:0:
224,192,94160,2,0,L|376:192,1,140,8|0,0:0|0:0,0:0:0:0:
192,192,94849,5,2,0:0:0:0:
272,192,95022,2,0,L|352:192,1,70,2|2,0:0|0:0,0:0:0:0:
168,192,95539,2,0,P|88:112|96:96,1,140,8|2,0:0|0:0,0:0:0:0:
400,192,96229,6,0,L|256:192,1,140,2|0,0:0|0:0,0:0:0:0:
440,192,96918,2,0,L|288:192,1,140,8|0,0:0|0:0,0:0:0:0:
16,192,97608,5,2,0:0:0:0:
104,192,97780,2,0,L|32:192,1,70,2|2,0:0|0:0,0:0:0:0:
192,192,98298,2,0,L|352:192,1,140,8|2,0:0|0:0,0:0:0:0:
40,200,98987,6,0,P|56:144|144:128,1,140,6|0,0:0|0:0,0:0:0:0:
288,192,99677,2,0,L|144:192,1,140,2|0,0:0|0:0,0:0:0:0:
464,192,100367,5,4,0:0:0:0:
320,192,100711,1,2,0:0:0:0:
176,192,101056,1,2,0:0:0:0:
32,192,101401,1,2,0:0:0:0:
336,192,101746,6,0,L|424:192,2,70,4|0|0,0:0|0:0|0:0,0:0:0:0:
248,192,102263,1,0,0:0:0:0:
160,192,102436,2,0,L|312:192,1,140,2|0,0:0|0:0,0:0:0:0:
216,192,102953,1,0,0:0:0:0:
128,192,103125,6,0,L|216:192,2,70,2|0|2,0:0|0:0|0:0,0:0:0:0:
280,192,103815,1,2,0:0:0:0:
424,192,104160,1,2,0:0:0:0:
256,192,104504,6,0,L|168:192,2,70,4|0|0,0:0|0:0|0:0,0:0:0:0:
176,192,105022,1,0,0:0:0:0:
264,192,105194,2,0,L|416:192,1,140,2|0,0:0|0:0,0:0:0:0:
320,192,105711,1,0,0:0:0:0:
144,192,105884,5,2,0:0:0:0:
304,192,106229,2,0,L|448:192,2,140,2|2|2,0:0|0:0|0:0,0:0:0:0:
136,192,107263,6,0,L|48:192,2,70,4|0|0,0:0|0:0|0:0,0:0:0:0:
224,192,107780,1,0,0:0:0:0:
312,192,107953,2,0,L|168:192,1,140,2|0,0:0|0:0,0:0:0:0:
256,192,108470,1,0,0:0:0:0:
360,192,108642,5,2,0:0:0:0:
448,192,108815,1,0,0:0:0:0:
414,132,108987,1,2,0:0:0:0:
348,116,109159,1,0,0:0:0:0:
152,192,109332,2,0,P|104:144|152:128,1,140,2|2,0:0|0:0,0:0:0:0:
240,192,109849,1,0,0:0:0:0:
424,192,110022,6,0,L|504:192,2,70,4|0|2,0:0|0:0|0:0,0:0:0:0:
336,192,110539,1,0,0:0:0:0:
248,192,110711,2,0,L|104:192,1,140,2|2,0:0|0:0,0:0:0:0:
424,192,111401,5,4,0:0:0:0:
256,192,111746,12,0,112780,0:0:0:0:
176,192,113125,6,0,L|24:192,1,140,2|0,0:0|0:0,0:0:0:0:
208,192,113815,1,2,0:0:0:0:
352,192,114160,6,0,L|112:192,1,210,2|0,0:0|0:0,0:0:0:0:
232,192,114849,2,0,L|376:192,1,140,2|0,0:0|0:0,0:0:0:0:
208,192,115539,6,0,L|496:192,2,280,2|2|2,0:0|0:0|0:0,0:0:0:0:
360,192,117263,1,2,0:0:0:0:
48,192,117608,1,4,0:0:0:0:
200,192,117953,1,0,0:0:0:0:
496,192,118298,6,0,L|352:192,1,140,4|8,0:0|0:0,0:0:0:0:
288,192,118815,1,0,0:0:0:0:
376,192,118987,2,0,L|376:120,1,70,2|2,0:0|0:0,0:0:0:0:
296,192,119332,2,0,L|208:192,1,70,8|0,0:0|0:0,0:0:0:0:
408,192,119677,5,2,0:0:0:0:
320,192,119849,1,2,0:0:0:0:
253,180,120021,1,8,0:0:0:0:
223,119,120193,1,2,0:0:0:0:
254,59,120366,1,2,0:0:0:0:
321,49,120538,1,2,0:0:0:0:
408,192,120711,2,0,L|328:192,1,70,8|2,0:0|0:0,0:0:0:0:
160,192,121056,6,0,P|104:128|136:104,1,140,2|8,0:0|0:0,0:0:0:0:
208,192,121573,1,0,0:0:0:0:
112,192,121746,2,0,L|280:192,1,140,2|8,0:0|0:0,0:0:0:0:
168,192,122263,1,0,0:0:0:0:
352,192,122436,5,2,0:0:0:0:
416,192,122608,1,0,0:0:0:0:
344,192,122780,1,8,0:0:0:0:
272,192,122953,1,0,0:0:0:0:
352,192,123125,1,2,0:0:0:0:
432,192,123298,1,2,0:0:0:0:
344,192,123470,1,8,0:0:0:0:
256,192,123642,1,2,0:0:0:0:
72,192,123815,5,2,0:0:0:0:
240,192,124160,1,8,0:0:0:0:
80,192,124504,2,0,L|160:192,2,70,2|2|8,0:0|0:0|0:0,0:0:0:0:
168,192,125022,1,2,0:0:0:0:
352,192,125194,6,0,P|416:144|392:112,1,140,2|8,0:0|0:0,0:0:0:0:
332,99,125711,1,2,0:0:0:0:
263,93,125884,1,2,0:0:0:0:
198,117,126056,1,2,0:0:0:0:
288,192,126229,2,0,L|376:192,1,70,8|2,0:0|0:0,0:0:0:0:
176,192,126573,6,0,L|344:192,1,140,2|8,0:0|0:0,0:0:0:0:
232,192,127091,1,2,0:0:0:0:
152,192,127263,2,0,L|72:192,2,70,2|2|8,0:0|0:0|0:0,0:0:0:0:
232,192,127780,1,0,0:0:0:0:
416,192,127953,5,8,0:0:0:0:
256,192,128298,1,8,0:0:0:0:
416,192,128642,2,0,L|488:192,2,70,2|2|8,0:0|0:0|0:0,0:0:0:0:
88,192,129332,5,6,0:0:0:0:
256,192,129677,1,8,0:0:0:0:
88,192,130022,2,0,L|16:192,3,70,2|2|8|0,0:0|0:0|0:0|0:0,0:0:0:0:
104,192,130711,6,0,L|176:192,2,70,2|2|8,0:0|0:0|0:0,0:0:0:0:
296,192,131401,2,0,P|416:152|424:136,1,140,0|8,0:0|0:0,0:0:0:0:
320,192,131918,1,2,0:0:0:0:
136,192,132091,6,0,P|112:128|192:120,1,140,2|8,0:0|0:0,0:0:0:0:
256,192,132608,1,2,0:0:0:0:
344,192,132780,2,0,L|424:192,2,70,2|2|8,0:0|0:0|0:0,0:0:0:0:
440,192,133298,1,2,0:0:0:0:
248,192,133470,6,0,L|80:192,1,140,2|8,0:0|0:0,0:0:0:0:
280,192,134160,2,0,L|120:192,1,140,2|8,0:0|0:0,0:0:0:0:
456,192,134849,6,0,P|480:160|416:104,1,140,2|8,0:0|0:0,0:0:0:0:
336,192,135367,1,2,0:0:0:0:
256,192,135539,1,2,0:0:0:0:
193,178,135711,1,2,0:0:0:0:
202,115,135883,1,8,0:0:0:0:
266,120,136056,1,2,0:0:0:0:
360,192,136229,6,0,L|280:192,2,70,2|0|8,0:0|0:0|0:0,0:0:0:0:
440,192,136746,1,0,0:0:0:0:
336,192,136918,2,0,P|241:162|224:120,1,140,2|8,0:0|0:0,0:0:0:0:
304,192,137436,1,0,0:0:0:0:
488,192,137608,6,0,L|336:192,1,140,2|8,0:0|0:0,0:0:0:0:
432,192,138125,1,0,0:0:0:0:
344,192,138298,2,0,L|272:192,2,70,2|2|8,0:0|0:0|0:0,0:0:0:0:
256,192,138815,1,2,0:0:0:0:
440,192,138987,6,0,L|352:192,1,70,2|0,0:0|0:0,0:0:0:0:
288,192,139332,2,0,L|216:192,1,70
154,192,139677,1,2,0:0:0:0:
234,192,139849,1,0,0:0:0:0:
312,192,140022,1,2,0:0:0:0:
216,192,140194,1,0,0:0:0:0:
400,192,140367,5,2,0:0:0:0:
462,172,140539,1,0,0:0:0:0:
462,107,140711,1,0,0:0:0:0:
400,87,140884,1,0,0:0:0:0:
312,192,141056,2,0,L|456:192,1,140,4|0,0:0|0:0,0:0:0:0:
360,192,141573,1,0,0:0:0:0:
176,192,141746,5,2,0:0:0:0:
113,172,141918,1,0,0:0:0:0:
113,107,142090,1,0,0:0:0:0:
175,87,142263,1,0,0:0:0:0:
264,192,142436,2,0,L|120:192,1,140,4|0,0:0|0:0,0:0:0:0:
216,192,142952,1,0,0:0:0:0:
400,192,143125,5,2,0:0:0:0:
320,192,143298,1,0,0:0:0:0:
240,192,143470,1,2,0:0:0:0:
176,192,143642,1,0,0:0:0:0:
360,192,143815,2,0,P|432:128|408:72,1,140,4|2,0:0|0:0,0:0:0:0:
344,192,144332,1,0,0:0:0:0:
168,192,144504,5,2,0:0:0:0:
328,192,144849,1,2,0:0:0:0:
24,192,145194,1,4,0:0:0:0:
288,192,145884,5,0,0:0:0:0:
136,192,146229,2,0,L|280:192,2,140,2|0|2,0:0|0:0|0:0,0:0:0:0:
304,192,147263,5,2,0:0:0:0:
472,192,147780,2,0,L|400:192,1,70,0|2,0:0|0:0,0:0:0:0:
256,192,148298,1,0,0:0:0:0:
104,192,148642,5,2,0:0:0:0:
360,192,149332,1,2,0:0:0:0:
144,192,150022,1,2,0:0:0:0:
320,192,150367,5,2,0:0:0:0:
24,192,150711,1,4,0:0:0:0:
