osu file format v14

[General]
AudioFilename: REANIMATE.mp3
AudioLeadIn: 0
PreviewTime: 57263
Countdown: 0
SampleSet: Soft
StackLeniency: 0.5
Mode: 2
LetterboxInBreaks: 0
WidescreenStoryboard: 0

[Editor]
Bookmarks: 13470,24504,35539,41056,46573,50711,57608,68642,79677,90711,101746,112780,118298,119677,129246,140367,145884
DistanceSpacing: 0.6
BeatDivisor: 8
GridSize: 8
TimelineZoom: 2.372001

[Metadata]
Title:REANIMATE
TitleUnicode:REANIMATE
Artist:Warak
ArtistUnicode:Warak
Creator:- Magic Bomb -
Version:Imagination
Source:节奏大师
Tags:MBomb rhythm master symphonic drumstep JBHyperion Zirox JBH
BeatmapID:1042702
BeatmapSetID:489190

[Difficulty]
HPDrainRate:6
CircleSize:4
OverallDifficulty:9.4
ApproachRate:9.4
SliderMultiplier:2.1
SliderTickRate:2

[Events]
//Background and Video events
0,0,"REVIVE.png",0,0
//Break Periods
//Storyboard Layer 0 (Background)
//Storyboard Layer 1 (Fail)
//Storyboard Layer 2 (Pass)
//Storyboard Layer 3 (Foreground)
//Storyboard Sound Samples

[TimingPoints]
2436,344.827586206897,4,2,77,100,1,0
13470,-100,4,2,80,100,0,0
13556,-100,4,2,78,85,0,0
24160,-100,4,2,77,80,0,0
24504,-100,4,2,78,80,0,0
24677,-100,4,2,77,80,0,0
27263,-100,4,2,78,80,0,0
27436,-100,4,2,77,80,0,0
30022,-100,4,2,78,80,0,0
30194,-100,4,2,77,80,0,0
32780,-100,4,2,78,80,0,0
32953,-100,4,2,77,80,0,0
35539,-100,4,2,78,90,0,0
35711,-100,4,2,77,90,0,0
38298,-100,4,2,78,90,0,0
38470,-100,4,2,77,90,0,0
41056,-100,4,2,78,90,0,0
41229,-100,4,2,77,90,0,0
43815,-100,4,2,78,90,0,0
45194,-100,4,2,77,90,0,0
46573,-100,4,2,78,90,0,1
46746,-100,4,2,78,90,0,1
48642,-66.6666666666667,4,2,78,90,0,1
48987,-100,4,2,78,90,0,1
49677,-66.6666666666667,4,2,78,90,0,1
49849,-100,4,2,78,90,0,1
56229,-66.6666666666667,4,2,78,90,0,1
57263,-66.6666666666667,4,2,78,80,0,0
57608,-100,4,2,78,90,0,1
57780,-100,4,2,78,90,0,1
63125,-100,4,2,78,90,0,1
63470,-66.6666666666667,4,2,78,90,0,1
63815,-100,4,2,78,90,0,1
64332,-66.6666666666667,4,2,78,90,0,1
64504,-100,4,2,78,90,0,1
65539,-66.6666666666667,4,2,78,90,0,1
65711,-100,4,2,78,90,0,1
65884,-66.6666666666667,4,2,78,90,0,1
66573,-100,4,2,78,90,0,1
66918,-83.3333333333333,4,2,78,90,0,1
67263,-100,4,2,77,80,0,1
68642,-100,4,2,78,80,0,0
78298,-100,4,2,77,80,0,0
79677,-100,4,2,79,70,0,0
90711,-100,4,2,78,70,0,0
99073,-100,4,2,77,90,0,0
100367,-100,4,2,77,80,0,0
101056,-100,4,2,77,70,0,0
101746,-100,4,2,77,80,0,0
111573,-100,4,2,77,50,0,0
113125,-100,4,2,77,80,0,0
118298,-66.6666666666667,4,2,78,90,0,1
118642,-100,4,2,78,90,0,1
120711,-83.3333333333333,4,2,78,90,0,1
121056,-100,4,2,78,90,0,1
124849,-66.6666666666667,4,2,78,90,0,1
125022,-100,4,2,78,90,0,1
125539,-66.6666666666667,4,2,78,90,0,1
125711,-100,4,2,78,90,0,1
125884,-66.6666666666667,4,2,78,90,0,1
126056,-100,4,2,78,90,0,1
126229,-66.6666666666667,4,2,78,90,0,1
126401,-100,4,2,78,90,0,1
128987,-100,4,2,78,90,0,0
129332,-100,4,2,78,90,0,1
130194,-66.6666666666667,4,2,78,90,0,1
130367,-100,4,2,78,90,0,1
130884,-66.6666666666667,4,2,78,90,0,1
131056,-100,4,2,78,90,0,1
133470,-66.6666666666667,4,2,78,90,0,1
133815,-100,4,2,78,90,0,1
134158,-66.6666666666667,4,2,78,90,0,1
134418,-100,4,2,78,90,0,1
138987,-66.6666666666667,4,2,77,100,0,1
139677,-83.3333333333333,4,2,77,100,0,1
140022,-100,4,2,77,100,0,1
140367,-100,4,2,79,80,0,0
144504,-100,4,2,77,80,0,0
145194,-100,4,2,77,100,0,1
145280,-100,4,2,77,40,0,0

[Colours]
Combo1 : 183,47,49
Combo2 : 223,170,70
Combo3 : 84,114,98
Combo4 : 92,107,131

[HitObjects]
192,192,2436,5,4,0:0:0:0:
141,200,2522,1,0,0:0:0:0:
102,168,2608,1,0,0:0:0:0:
101,117,2694,1,0,0:0:0:0:
256,192,2780,1,0,0:0:0:0:
144,192,2953,1,0,0:0:0:0:
392,192,3125,2,0,P|504:112|488:64,1,210,2|0,0:0|0:0,0:0:0:0:
432,48,3556,1,0,0:0:0:0:
376,56,3642,1,0,0:0:0:0:
344,95,3728,1,0,0:0:0:0:
496,192,3815,6,0,L|400:152,2,105,2|0|0,0:0|0:0|0:0,0:0:0:0:
16,192,4504,2,0,L|112:152,2,105,2|0|0,0:0|0:0|0:0,0:0:0:0:
448,192,5194,5,4,0:0:0:0:
422,146,5280,1,0,0:0:0:0:
379,117,5366,1,0,0:0:0:0:
327,110,5452,1,0,0:0:0:0:
224,192,5539,1,0,0:0:0:0:
496,192,5711,1,0,0:0:0:0:
160,192,5884,2,0,P|88:80|120:56,1,210,2|0,0:0|0:0,0:0:0:0:
392,192,6401,1,0,0:0:0:0:
96,192,6573,5,2,0:0:0:0:
96,192,6832,1,0,0:0:0:0:
256,192,6918,2,0,B|184:120|184:120|128:120,1,157.5,2|0,0:0|0:0,0:0:0:0:
416,192,7263,1,2,0:0:0:0:
416,192,7522,1,0,0:0:0:0:
256,192,7608,2,0,B|328:120|328:120|384:120,1,157.5,2|0,0:0|0:0,0:0:0:0:
176,192,7953,5,4,0:0:0:0:
112,192,8039,1,0,0:0:0:0:
112,192,8125,1,0,0:0:0:0:
176,192,8211,1,0,0:0:0:0:
272,192,8298,1,0,0:0:0:0:
16,192,8470,1,0,0:0:0:0:
272,192,8642,2,0,L|496:192,1,210,2|0,0:0|0:0,0:0:0:0:
320,192,9160,1,0,0:0:0:0:
482,192,9332,5,2,0:0:0:0:
308,192,9504,2,0,L|244:192,1,52.5
164,192,9677,2,0,L|220:192,1,52.5,2|0,0:0|0:0,0:0:0:0:
372,192,9849,2,0,L|308:192,1,52.5,2|0,0:0|0:0,0:0:0:0:
116,192,10022,2,0,P|52:88|108:56,1,210,2|0,0:0|0:0,0:0:0:0:
448,192,10539,1,2,0:0:0:0:
256,192,10625,1,0,0:0:0:0:
64,192,10711,5,4,0:0:0:0:
256,192,10970,1,0,0:0:0:0:
448,192,11056,1,2,0:0:0:0:
256,192,11315,1,0,0:0:0:0:
96,192,11401,1,2,0:0:0:0:
256,192,11660,1,0,0:0:0:0:
400,192,11746,1,2,0:0:0:0:
224,192,12004,1,2,0:0:0:0:
224,192,12091,5,0,0:0:0:0:
464,192,12263,2,0,L|411:192,1,52.5
176,192,12436,2,0,P|96:120|160:88,1,210,2|2,0:0|0:0,0:0:0:0:
208,192,12867,2,0,L|272:192,2,52.5
144,192,13125,2,0,P|40:128|40:112,1,157.5,2|0,0:0|0:0,0:0:0:0:
288,192,13470,5,4,0:0:0:0:
235,192,13556,1,0,0:0:0:0:
182,192,13642,1,0,0:0:0:0:
130,192,13728,1,0,0:0:0:0:
288,192,13815,2,0,L|392:192,1,105,2|0,0:0|0:0,0:0:0:0:
120,192,14160,2,0,P|47:144|96:80,1,157.5,8|0,0:0|0:0,0:0:0:0:
256,192,14504,2,0,L|320:192,1,52.5,2|0,0:0|0:0,0:0:0:0:
256,192,14677,2,0,L|192:192,1,52.5
32,192,14849,5,2,0:0:0:0:
176,192,15022,1,2,0:0:0:0:
32,192,15194,2,0,L|192:192,1,157.5,2|0,0:0|0:0,0:0:0:0:
480,192,15539,1,8,0:0:0:0:
368,192,15712,1,0,0:0:0:0:
480,192,15884,2,0,L|320:192,1,157.5,2|0,0:0|0:0,0:0:0:0:
136,192,16229,5,2,0:0:0:0:
186,185,16315,1,0,0:0:0:0:
215,143,16401,1,0,0:0:0:0:
204,93,16487,1,0,0:0:0:0:
128,192,16573,1,2,0:0:0:0:
384,192,16746,1,0,0:0:0:0:
64,192,16918,2,0,P|120:96|216:80,1,210,8|2,0:0|0:0,0:0:0:0:
488,192,17436,1,0,0:0:0:0:
199,192,17608,6,0,L|272:112,1,105,2|2,0:0|0:0,0:0:0:0:
184,192,17867,1,0,0:0:0:0:
16,192,17953,2,0,L|184:192,1,157.5,2|0,0:0|0:0,0:0:0:0:
320,192,18298,1,8,0:0:0:0:
224,192,18557,1,0,0:0:0:0:
392,192,18642,2,0,L|224:192,1,157.5,2|0,0:0|0:0,0:0:0:0:
88,192,18987,5,2,0:0:0:0:
16,192,19073,1,0,0:0:0:0:
16,192,19160,1,0,0:0:0:0:
64,192,19246,1,0,0:0:0:0:
136,192,19332,1,2,0:0:0:0:
408,192,19504,1,0,0:0:0:0:
136,192,19677,2,0,P|224:136|272:184,1,157.5,8|0,0:0|0:0,0:0:0:0:
64,192,20022,2,0,P|32:128|56:120,1,105,2|0,0:0|0:0,0:0:0:0:
320,192,20367,5,2,0:0:0:0:
448,192,20539,2,0,L|392:192,1,52.5,2|0,0:0|0:0,0:0:0:0:
240,192,20711,2,0,L|184:192,1,52.5,2|0,0:0|0:0,0:0:0:0:
344,192,20884,2,0,L|280:192,1,52.5
128,192,21056,2,0,P|48:112|104:64,1,210,8|2,0:0|0:0,0:0:0:0:
416,192,21573,2,0,L|456:152,1,52.5
256,192,21746,6,0,L|144:192,1,105,2|0,0:0|0:0,0:0:0:0:
216,192,22004,1,0,0:0:0:0:
368,192,22091,1,0,0:0:0:0:
417,179,22177,1,0,0:0:0:0:
441,134,22263,1,0,0:0:0:0:
425,86,22349,1,0,0:0:0:0:
160,192,22436,2,0,P|72:112|208:48,1,315,8|0,0:0|0:0,0:0:0:0:
352,192,23039,1,0,0:0:0:0:
496,192,23125,5,2,0:0:0:0:
400,192,23298,2,0,L|512:192,1,105,2|2,0:0|0:0,0:0:0:0:
48,192,23814,1,8,0:0:0:0:
176,192,24160,2,0,L|88:136,1,105,2|0,0:0|0:0,0:0:0:0:
352,192,24504,5,2,0:0:0:0:
192,192,24849,2,0,L|416:192,1,210,0|2,0:0|0:0,0:0:0:0:
64,192,25539,2,0,L|288:192,1,210,0|2,0:0|0:0,0:0:0:0:
496,192,26229,2,0,L|272:192,2,210,2|0|2,0:0|0:0|0:0,0:0:0:0:
32,192,27263,6,0,L|120:136,1,105,2|0,0:0|0:0,0:0:0:0:
304,192,27608,2,0,P|384:120|360:88,1,157.5,2|0,0:0|0:0,0:0:0:0:
176,192,27953,2,0,B|384:168|384:168|272:168,1,315,2|0,0:0|0:0,0:0:0:0:
16,192,28642,1,2,0:0:0:0:
176,192,28987,2,0,L|392:192,2,210,2|0|0,0:0|0:0|0:0,0:0:0:0:
496,192,30022,6,0,L|384:192,1,105,2|0,0:0|0:0,0:0:0:0:
112,192,30367,2,0,P|40:104|80:64,1,157.5,2|0,0:0|0:0,0:0:0:0:
168,192,30711,2,0,L|328:192,1,157.5
168,192,31056,2,0,L|8:192,1,157.5,2|0,0:0|0:0,0:0:0:0:
168,192,31401,2,0,B|464:168|424:72|352:72,1,315,2|0,0:0|0:0,0:0:0:0:
72,72,32091,2,0,B|16:70|-23:166|272:190,1,315,2|0,0:0|0:0,0:0:0:0:
16,192,32780,5,2,0:0:0:0:
256,192,33125,2,0,L|40:192,1,210,2|0,0:0|0:0,0:0:0:0:
352,192,33815,2,0,P|400:112|352:72,1,157.5,2|0,0:0|0:0,0:0:0:0:
176,192,34160,6,0,L|392:192,1,210,2|0,0:0|0:0,0:0:0:0:
256,192,34677,1,0,0:0:0:0:
496,192,34849,2,0,L|280:192,1,210,2|0,0:0|0:0,0:0:0:0:
16,192,35539,6,0,L|128:192,1,105,2|0,0:0|0:0,0:0:0:0:
288,192,35884,2,0,L|184:192,1,105,2|0,0:0|0:0,0:0:0:0:
496,192,36229,2,0,L|384:192,1,105
224,192,36573,2,0,L|112:192,1,105,2|0,0:0|0:0,0:0:0:0:
384,192,36918,6,0,L|272:192,1,105,2|0,0:0|0:0,0:0:0:0:
24,192,37263,2,0,L|240:192,2,210,0|2|2,0:0|0:0|0:0,0:0:0:0:
176,192,38125,1,0,0:0:0:0:
432,192,38298,6,0,L|328:192,1,105,2|0,0:0|0:0,0:0:0:0:
496,192,38642,2,0,L|384:192,1,105,2|0,0:0|0:0,0:0:0:0:
128,192,38987,2,0,L|8:192,1,105
192,192,39332,2,0,L|304:192,1,105,2|0,0:0|0:0,0:0:0:0:
23,192,39677,6,0,L|135:192,1,105,2|0,0:0|0:0,0:0:0:0:
383,192,40022,2,0,L|167:192,2,210,0|2|2,0:0|0:0|0:0,0:0:0:0:
480,192,40884,1,0,0:0:0:0:
176,192,41056,5,2,0:0:0:0:
304,192,41229,1,0,0:0:0:0:
24,192,41401,2,0,L|128:192,1,105,2|0,0:0|0:0,0:0:0:0:
400,192,41746,2,0,L|505:192,1,105
129,192,42091,2,0,L|24:192,1,105,2|0,0:0|0:0,0:0:0:0:
383,192,42436,6,0,L|488:192,2,105,2|0|0,0:0|0:0|0:0,0:0:0:0:
88,192,42953,1,0,0:0:0:0:
344,192,43125,2,0,L|239:192,1,105,2|0,0:0|0:0,0:0:0:0:
496,192,43470,2,0,L|336:192,1,157.5,2|0,0:0|0:0,0:0:0:0:
160,192,43815,6,0,L|48:192,3,105,2|0|2|0,0:0|0:0|0:0|0:0,0:0:0:0:
352,192,44504,2,0,L|464:192,3,105,2|0|2|0,0:0|0:0|0:0|0:0,0:0:0:0:
192,192,45194,5,2,0:0:0:0:
456,192,45539,1,0,0:0:0:0:
32,192,45884,2,0,P|104:96|328:120,1,367.5,2|0,0:0|0:0,0:0:0:0:
184,192,46573,6,0,L|24:192,1,157.5,6|0,0:0|0:0,0:0:0:0:
184,192,46918,1,8,0:0:0:0:
64,192,47091,1,0,0:0:0:0:
344,192,47263,2,0,L|400:192,1,52.5,2|0,0:0|0:0,0:0:0:0:
192,192,47436,2,0,L|136:192,1,52.5,2|0,0:0|0:0,0:0:0:0:
400,192,47608,1,8,0:0:0:0:
128,192,47780,2,0,L|176:168,1,52.5,2|0,0:0|0:0,0:0:0:0:
352,192,47953,6,0,P|404:184|452:160,1,105,2|0,0:0|0:0,0:0:0:0:
180,192,48298,1,8,0:0:0:0:
452,192,48470,2,0,L|396:192,1,52.5
96,192,48642,1,0,0:0:0:0:
110,155,48685,1,0,0:0:0:0:
137,127,48728,1,0,0:0:0:0:
174,113,48771,1,0,0:0:0:0:
213,114,48814,1,0,0:0:0:0:
248,130,48857,1,0,0:0:0:0:
274,159,48900,1,0,0:0:0:0:
287,196,48943,1,0,0:0:0:0:
128,192,48987,2,0,L|24:192,1,105,8|0,0:0|0:0,0:0:0:0:
320,192,49332,6,0,L|496:192,1,157.5,2|0,0:0|0:0,0:0:0:0:
320,192,49677,2,0,L|224:192,1,78.7500030040742,8|0,0:0|0:0,0:0:0:0:
80,192,49849,2,0,L|136:192,1,52.5,2|0,0:0|0:0,0:0:0:0:
288,192,50022,2,0,L|232:192,1,52.5,2|0,0:0|0:0,0:0:0:0:
64,192,50194,2,0,L|120:192,1,52.5,2|0,0:0|0:0,0:0:0:0:
312,192,50367,2,0,L|272:152,1,52.5,8|0,0:0|0:0,0:0:0:0:
120,192,50539,2,0,L|176:192,1,52.5,2|0,0:0|0:0,0:0:0:0:
336,192,50711,6,0,L|224:192,1,105,2|0,0:0|0:0,0:0:0:0:
496,192,51056,2,0,L|384:192,1,105,8|0,0:0|0:0,0:0:0:0:
224,192,51401,2,0,L|352:192,1,105,2|2,0:0|0:0,0:0:0:0:
272,192,51660,1,2,0:0:0:0:
120,192,51746,2,0,L|8:192,1,105,8|2,0:0|0:0,0:0:0:0:
360,192,52091,6,0,L|464:192,1,105,2|0,0:0|0:0,0:0:0:0:
192,192,52436,1,8,0:0:0:0:
464,192,52608,1,0,0:0:0:0:
484,176,52651,1,0,0:0:0:0:
497,153,52694,1,0,0:0:0:0:
497,127,52737,1,0,0:0:0:0:
360,192,52780,1,2,0:0:0:0:
200,192,52867,1,2,0:0:0:0:
40,192,52953,1,2,0:0:0:0:
360,192,53125,1,8,0:0:0:0:
40,192,53298,2,0,L|88:168,1,52.5
240,192,53470,5,2,0:0:0:0:
490,192,53642,2,0,L|418:192,1,52.5
256,192,53815,1,8,0:0:0:0:
112,192,53987,2,0,L|168:192,1,52.5
328,192,54160,5,0,0:0:0:0:
353,196,54203,1,0,0:0:0:0:
378,188,54246,1,0,0:0:0:0:
395,169,54289,1,0,0:0:0:0:
400,144,54332,1,0,0:0:0:0:
393,119,54375,1,0,0:0:0:0:
374,101,54418,1,0,0:0:0:0:
348,95,54461,1,0,0:0:0:0:
216,192,54504,5,8,0:0:0:0:
190,196,54547,1,0,0:0:0:0:
165,188,54590,1,0,0:0:0:0:
148,169,54633,1,0,0:0:0:0:
143,144,54676,1,0,0:0:0:0:
150,119,54719,1,0,0:0:0:0:
169,101,54762,1,0,0:0:0:0:
195,95,54805,1,0,0:0:0:0:
72,192,54849,6,0,P|24:128|80:64,1,157.5,2|0,0:0|0:0,0:0:0:0:
256,192,55194,1,8,0:0:0:0:
448,192,55280,1,2,0:0:0:0:
256,192,55367,1,2,0:0:0:0:
64,192,55453,1,2,0:0:0:0:
256,192,55539,2,0,L|320:192,1,52.5,2|0,0:0|0:0,0:0:0:0:
116,192,55711,2,0,L|60:192,1,52.5,2|0,0:0|0:0,0:0:0:0:
256,192,55884,2,0,L|320:192,1,52.5,8|0,0:0|0:0,0:0:0:0:
116,192,56056,2,0,L|60:192,1,52.5,2|0,0:0|0:0,0:0:0:0:
336,192,56229,6,0,L|496:192,1,157.500006008148,8|0,0:0|0:0,0:0:0:0:
176,192,56573,2,0,L|16:192,1,157.500006008148,8|0,0:0|0:0,0:0:0:0:
336,192,56918,5,8,0:0:0:0:
410,190,57004,1,2,0:0:0:0:
440,122,57090,1,2,0:0:0:0:
390,66,57176,1,2,0:0:0:0:
176,192,57263,2,0,P|96:112|168:48,1,236.250009012223,8|0,0:0|0:0,0:0:0:0:
352,192,57608,6,0,L|456:192,1,105,6|0,0:0|0:0,0:0:0:0:
192,192,57953,1,8,0:0:0:0:
456,192,58125,2,0,L|400:192,1,52.5
192,192,58298,2,0,L|192:136,1,52.5,2|0,0:0|0:0,0:0:0:0:
352,192,58470,2,0,L|328:144,1,52.5,2|0,0:0|0:0,0:0:0:0:
128,192,58642,1,8,0:0:0:0:
72,192,58729,2,0,L|176:192,1,105
328,192,58987,5,2,0:0:0:0:
64,192,59160,2,0,L|8:192,1,52.5,2|0,0:0|0:0,0:0:0:0:
177,192,59332,2,0,L|241:192,1,52.5,8|0,0:0|0:0,0:0:0:0:
64,192,59504,2,0,L|8:192,1,52.5,2|0,0:0|0:0,0:0:0:0:
176,192,59677,2,0,L|232:192,1,52.5,2|0,0:0|0:0,0:0:0:0:
64,192,59849,2,0,L|8:192,1,52.5,2|0,0:0|0:0,0:0:0:0:
192,192,60022,1,8,0:0:0:0:
480,192,60194,2,0,L|432:168,1,52.5
256,192,60367,6,0,L|368:192,1,105,2|0,0:0|0:0,0:0:0:0:
71,192,60711,2,0,L|175:192,1,105,8|0,0:0|0:0,0:0:0:0:
256,192,60970,1,0,0:0:0:0:
441,192,61056,2,0,L|337:192,1,105,2|2,0:0|0:0,0:0:0:0:
48,192,61401,1,8,0:0:0:0:
30,172,61444,1,0,0:0:0:0:
24,147,61487,1,0,0:0:0:0:
30,122,61530,1,0,0:0:0:0:
48,103,61573,1,0,0:0:0:0:
320,192,61746,5,2,0:0:0:0:
456,192,61918,1,2,0:0:0:0:
192,192,62091,1,8,0:0:0:0:
56,192,62263,1,2,0:0:0:0:
320,192,62436,2,0,L|216:192,1,105,2|2,0:0|0:0,0:0:0:0:
288,192,62694,1,2,0:0:0:0:
448,192,62780,1,8,0:0:0:0:
96,192,62953,1,2,0:0:0:0:
384,192,63125,6,0,L|496:192,1,105,2|0,0:0|0:0,0:0:0:0:
424,192,63384,1,0,0:0:0:0:
176,192,63470,2,0,B|32:192|32:192|51:144|96:120,1,236.250009012223,8|0,0:0|0:0,0:0:0:0:
240,192,63815,1,2,0:0:0:0:
384,192,63901,1,2,0:0:0:0:
240,192,63987,1,2,0:0:0:0:
96,192,64073,1,2,0:0:0:0:
288,192,64160,2,0,L|368:192,1,52.5,8|0,0:0|0:0,0:0:0:0:
192,192,64332,2,0,L|96:192,1,78.7500030040742,2|0,0:0|0:0,0:0:0:0:
288,192,64504,6,0,P|384:136|384:88,1,157.5,2|0,0:0|0:0,0:0:0:0:
224,192,64849,2,0,L|160:192,1,52.5,8|0,0:0|0:0,0:0:0:0:
328,192,65022,2,0,L|392:192,1,52.5,2|0,0:0|0:0,0:0:0:0:
224,192,65194,2,0,L|160:192,1,52.5,2|0,0:0|0:0,0:0:0:0:
344,192,65367,2,0,L|408:192,1,52.5,2|0,0:0|0:0,0:0:0:0:
240,192,65539,2,0,L|160:192,1,78.7500030040742,8|0,0:0|0:0,0:0:0:0:
16,192,65711,2,0,L|80:192,1,52.5,2|0,0:0|0:0,0:0:0:0:
256,192,65884,6,0,B|416:192|416:192|384:144|320:120,1,236.250009012223,2|0,0:0|0:0,0:0:0:0:
128,192,66229,1,8,0:0:0:0:
48,192,66315,2,0,L|208:192,1,157.500006008148
376,192,66573,1,8,0:0:0:0:
205,192,66660,1,2,0:0:0:0:
120,192,66746,2,0,L|176:192,1,52.5,2|2,0:0|0:0,0:0:0:0:
336,192,66918,2,0,L|208:192,1,125.999996154785,8|2,0:0|0:0,0:0:0:0:
480,192,67263,6,0,B|488:112|480:48|432:24|336:16|232:48,1,367.5,2|0,0:0|0:0,0:0:0:0:
32,192,67953,2,0,B|24:112|32:48|80:24|176:16|280:48,1,367.5,2|0,0:0|0:0,0:0:0:0:
120,192,68642,6,0,P|48:168|48:88,1,157.5,2|0,0:0|0:0,0:0:0:0:
120,192,68987,2,0,P|248:120|248:96,1,157.5,2|0,0:0|0:0,0:0:0:0:
96,192,69332,1,8,0:0:0:0:
352,192,69504,2,0,L|408:192,1,52.5,2|0,0:0|0:0,0:0:0:0:
248,192,69677,2,0,L|192:192,1,52.5,2|0,0:0|0:0,0:0:0:0:
352,192,69849,2,0,L|408:192,1,52.5,2|0,0:0|0:0,0:0:0:0:
232,192,70022,6,0,L|176:192,1,52.5,2|0,0:0|0:0,0:0:0:0:
128,192,70194,1,2,0:0:0:0:
264,192,70367,1,2,0:0:0:0:
392,192,70539,2,0,L|328:192,1,52.5
168,192,70711,5,8,0:0:0:0:
142,199,70754,1,0,0:0:0:0:
116,199,70797,1,0,0:0:0:0:
91,193,70840,1,0,0:0:0:0:
68,180,70883,1,0,0:0:0:0:
50,162,70926,1,0,0:0:0:0:
36,139,70969,1,0,0:0:0:0:
30,114,71012,1,0,0:0:0:0:
30,87,71055,1,0,0:0:0:0:
37,62,71098,1,0,0:0:0:0:
51,40,71142,1,0,0:0:0:0:
70,22,71185,1,0,0:0:0:0:
93,9,71228,1,0,0:0:0:0:
118,4,71271,1,0,0:0:0:0:
144,5,71314,1,0,0:0:0:0:
169,12,71357,1,0,0:0:0:0:
280,192,71401,6,0,P|392:120|368:72,1,210,2|2,0:0|0:0,0:0:0:0:
160,192,72004,1,0,0:0:0:0:
336,192,72091,1,8,0:0:0:0:
283,192,72177,1,2,0:0:0:0:
230,192,72263,1,2,0:0:0:0:
177,192,72349,1,2,0:0:0:0:
124,192,72435,1,2,0:0:0:0:
88,192,72522,1,2,0:0:0:0:
144,192,72608,1,2,0:0:0:0:
224,192,72694,1,2,0:0:0:0:
400,192,72780,6,0,L|504:192,1,105,2|2,0:0|0:0,0:0:0:0:
416,192,73125,1,0,0:0:0:0:
8,192,73470,2,0,L|120:192,1,105,8|0,0:0|0:0,0:0:0:0:
32,192,73815,2,0,L|192:192,1,157.5,2|0,0:0|0:0,0:0:0:0:
344,192,74160,6,0,L|456:192,1,105,2|0,0:0|0:0,0:0:0:0:
288,192,74504,2,0,L|176:192,1,105,2|0,0:0|0:0,0:0:0:0:
464,192,74849,2,0,L|408:192,1,52.5,8|0,0:0|0:0,0:0:0:0:
256,192,75022,2,0,L|192:192,1,52.5,2|0,0:0|0:0,0:0:0:0:
352,192,75194,2,0,L|296:192,1,52.5,2|0,0:0|0:0,0:0:0:0:
144,192,75367,2,0,L|80:192,1,52.5,2|0,0:0|0:0,0:0:0:0:
240,192,75539,6,0,L|176:192,1,52.5,2|0,0:0|0:0,0:0:0:0:
40,192,75711,1,2,0:0:0:0:
299,192,75884,2,0,L|352:192,1,52.5,2|0,0:0|0:0,0:0:0:0:
496,192,76056,2,0,L|440:192,1,52.5
280,192,76229,1,8,0:0:0:0:
254,186,76272,1,0,0:0:0:0:
235,168,76315,1,0,0:0:0:0:
227,144,76358,1,0,0:0:0:0:
232,118,76401,1,0,0:0:0:0:
249,99,76444,1,0,0:0:0:0:
274,90,76487,1,0,0:0:0:0:
299,95,76530,1,0,0:0:0:0:
408,192,76573,2,0,P|488:112|464:80,1,157.5
288,192,76918,6,0,P|176:112|200:64,1,210,2|2,0:0|0:0,0:0:0:0:
352,192,77522,1,0,0:0:0:0:
208,192,77608,1,8,0:0:0:0:
157,199,77694,1,2,0:0:0:0:
112,173,77780,1,2,0:0:0:0:
95,124,77866,1,2,0:0:0:0:
111,76,77952,1,2,0:0:0:0:
155,48,78039,1,2,0:0:0:0:
240,192,78125,1,2,0:0:0:0:
292,192,78211,1,2,0:0:0:0:
144,192,78298,6,0,L|32:192,3,105,2|0|0|0,0:0|0:0|0:0|0:0,0:0:0:0:
368,192,78987,2,0,L|480:192,3,105,2|0|0|0,0:0|0:0|0:0|0:0,0:0:0:0:
136,192,79677,6,0,P|24:96|152:64,1,341.25,4|0,0:0|0:0,0:0:0:0:
376,192,80367,2,0,P|488:96|360:64,1,341.25,8|0,0:0|0:0,0:0:0:0:
96,192,81056,6,0,L|0:144,2,105,2|2|2,0:0|0:0|0:0,0:0:0:0:
504,192,81746,1,8,0:0:0:0:
336,192,82091,2,0,L|448:192,1,105
160,192,82436,6,0,B|8:192|8:192|56:96|152:80,1,341.25,4|0,0:0|0:0,0:0:0:0:
352,192,83125,2,0,B|504:192|504:192|456:96|360:80,1,341.25,8|0,0:0|0:0,0:0:0:0:
224,192,83815,6,0,L|112:192,2,105,2|2|2,0:0|0:0|0:0,0:0:0:0:
464,192,84504,1,8,0:0:0:0:
336,192,84677,1,0,0:0:0:0:
496,192,84849,1,0,0:0:0:0:
336,192,85022,1,0,0:0:0:0:
48,192,85194,6,0,L|272:192,2,210,4|0|8,0:0|0:0|0:0,0:0:0:0:
464,192,86229,2,0,L|240:192,2,210,0|2|2,0:0|0:0|0:0,0:0:0:0:
248,192,87263,2,0,L|136:192,1,105,8|0,0:0|0:0,0:0:0:0:
264,192,87608,2,0,L|376:192,1,105
104,192,87953,5,4,0:0:0:0:
8,192,88125,2,0,L|64:192,1,52.5
120,192,88298,2,0,L|32:136,1,105
320,192,88642,1,8,0:0:0:0:
424,192,88987,1,0,0:0:0:0:
394,192,89101,1,0,0:0:0:0:
324,192,89216,1,0,0:0:0:0:
112,192,89332,6,0,L|224:192,1,105,2|2,0:0|0:0,0:0:0:0:
384,192,89677,2,0,L|288:192,1,70,2|0,0:0|0:0,0:0:0:0:
224,192,89907,1,0,0:0:0:0:
48,192,90022,2,0,L|128:192,1,70,8|0,0:0|0:0,0:0:0:0:
208,192,90252,1,0,0:0:0:0:
280,192,90367,2,0,L|176:192,1,105,2|0,0:0|0:0,0:0:0:0:
256,192,90625,1,0,0:0:0:0:
416,192,90711,6,0,L|488:192,2,70,6|0|0,0:0|0:0|0:0,0:0:0:0:
208,192,91056,1,0,0:0:0:0:
181,192,91099,1,0,0:0:0:0:
157,184,91142,1,0,0:0:0:0:
136,168,91185,1,0,0:0:0:0:
123,146,91228,1,0,0:0:0:0:
118,120,91271,1,0,0:0:0:0:
122,94,91314,1,0,0:0:0:0:
135,72,91357,1,0,0:0:0:0:
256,192,91401,6,0,L|336:192,2,70,8|0|0,0:0|0:0|0:0,0:0:0:0:
168,192,91746,2,0,L|88:192,2,70
384,192,92091,5,2,0:0:0:0:
410,191,92134,1,0,0:0:0:0:
434,181,92177,1,0,0:0:0:0:
452,163,92220,1,0,0:0:0:0:
424,192,92263,1,2,0:0:0:0:
397,192,92306,1,0,0:0:0:0:
373,182,92349,1,0,0:0:0:0:
355,164,92392,1,0,0:0:0:0:
232,192,92436,2,0,L|152:192,2,70,2|0|0,0:0|0:0|0:0,0:0:0:0:
432,192,92780,6,0,L|504:192,2,70,8|0|0,0:0|0:0|0:0,0:0:0:0:
337,192,93125,2,0,L|225:192,1,105,2|0,0:0|0:0,0:0:0:0:
496,192,93470,6,0,L|408:192,2,70,2|0|0,0:0|0:0|0:0,0:0:0:0:
320,192,93815,1,0,0:0:0:0:
294,196,93858,1,0,0:0:0:0:
268,191,93901,1,0,0:0:0:0:
246,177,93944,1,0,0:0:0:0:
231,156,93987,1,0,0:0:0:0:
224,131,94030,1,0,0:0:0:0:
226,105,94073,1,0,0:0:0:0:
238,82,94116,1,0,0:0:0:0:
352,192,94160,6,0,L|464:192,2,70,8|0|0,0:0|0:0|0:0,0:0:0:0:
160,192,94504,2,0,L|48:192,2,70
352,192,94849,5,2,0:0:0:0:
325,192,94892,1,0,0:0:0:0:
299,192,94935,1,0,0:0:0:0:
288,192,94978,1,0,0:0:0:0:
299,192,95022,1,2,0:0:0:0:
325,192,95065,1,0,0:0:0:0:
351,192,95108,1,0,0:0:0:0:
377,192,95151,1,0,0:0:0:0:
272,192,95194,2,0,L|217:144,2,70,2|0|0,0:0|0:0|0:0,0:0:0:0:
72,192,95539,6,0,L|16:144,2,70,8|0|0,0:0|0:0|0:0,0:0:0:0:
280,192,95884,2,0,L|392:192,1,105,2|0,0:0|0:0,0:0:0:0:
96,192,96229,5,2,0:0:0:0:
288,192,96344,1,0,0:0:0:0:
488,192,96458,1,0,0:0:0:0:
256,192,96573,1,0,0:0:0:0:
229,193,96616,1,0,0:0:0:0:
204,185,96659,1,0,0:0:0:0:
183,170,96702,1,0,0:0:0:0:
168,149,96745,1,0,0:0:0:0:
160,124,96788,1,0,0:0:0:0:
160,98,96831,1,0,0:0:0:0:
169,74,96874,1,0,0:0:0:0:
288,192,96918,5,8,0:0:0:0:
480,192,97033,1,0,0:0:0:0:
288,192,97147,1,0,0:0:0:0:
80,192,97263,1,0,0:0:0:0:
272,192,97378,1,0,0:0:0:0:
464,192,97492,1,0,0:0:0:0:
256,192,97608,5,2,0:0:0:0:
232,183,97651,1,0,0:0:0:0:
217,162,97694,1,0,0:0:0:0:
224,136,97737,1,0,0:0:0:0:
256,192,97780,1,2,0:0:0:0:
281,183,97823,1,0,0:0:0:0:
296,162,97866,1,0,0:0:0:0:
297,136,97909,1,0,0:0:0:0:
160,192,97953,2,0,L|80:192,2,70,2|0|0,0:0|0:0|0:0,0:0:0:0:
352,192,98298,6,0,L|432:192,2,70,8|0|0,0:0|0:0|0:0,0:0:0:0:
160,192,98642,2,0,L|40:192,1,105,2|0,0:0|0:0,0:0:0:0:
296,192,98987,5,6,0:0:0:0:
488,192,99102,1,0,0:0:0:0:
296,192,99217,1,0,0:0:0:0:
72,192,99332,1,0,0:0:0:0:
46,189,99375,1,0,0:0:0:0:
24,175,99418,1,0,0:0:0:0:
10,153,99461,1,0,0:0:0:0:
7,127,99504,1,0,0:0:0:0:
17,103,99547,1,0,0:0:0:0:
32,80,99590,1,0,0:0:0:0:
48,72,99633,1,0,0:0:0:0:
152,192,99677,5,2,0:0:0:0:
328,192,99792,1,0,0:0:0:0:
152,192,99907,1,0,0:0:0:0:
440,192,100022,1,0,0:0:0:0:
264,192,100137,1,0,0:0:0:0:
88,192,100252,1,0,0:0:0:0:
264,192,100367,5,4,0:0:0:0:
296,192,100410,1,0,0:0:0:0:
296,192,100453,1,0,0:0:0:0:
264,192,100496,1,0,0:0:0:0:
232,192,100539,1,0,0:0:0:0:
208,192,100582,1,0,0:0:0:0:
208,192,100625,1,0,0:0:0:0:
232,192,100668,1,0,0:0:0:0:
344,192,100711,1,2,0:0:0:0:
152,192,101056,1,2,0:0:0:0:
408,192,101401,1,2,0:0:0:0:
64,192,101746,5,4,0:0:0:0:
20,168,101832,1,0,0:0:0:0:
24,119,101918,1,0,0:0:0:0:
72,104,102004,1,0,0:0:0:0:
160,192,102091,2,0,L|296:192,1,105
416,192,102436,2,0,L|256:192,1,157.5,2|0,0:0|0:0,0:0:0:0:
336,192,102780,2,0,L|400:192,1,52.5
288,192,102953,2,0,L|224:192,1,52.5
80,192,103125,6,0,L|184:192,1,105,2|0,0:0|0:0,0:0:0:0:
464,192,103470,1,2,0:0:0:0:
436,147,103556,1,0,0:0:0:0:
396,113,103642,1,0,0:0:0:0:
350,89,103728,1,0,0:0:0:0:
300,73,103815,1,2,0:0:0:0:
248,66,103901,1,0,0:0:0:0:
195,67,103987,1,0,0:0:0:0:
145,81,104073,1,0,0:0:0:0:
110,118,104159,1,2,0:0:0:0:
124,167,104245,1,0,0:0:0:0:
158,207,104332,1,0,0:0:0:0:
198,241,104418,1,0,0:0:0:0:
360,192,104504,5,4,0:0:0:0:
407,174,104590,1,0,0:0:0:0:
426,127,104676,1,0,0:0:0:0:
403,82,104762,1,0,0:0:0:0:
208,192,104849,2,0,L|104:192,1,105
384,192,105194,2,0,P|476:146|432:56,1,210,2|0,0:0|0:0,0:0:0:0:
160,192,105711,1,0,0:0:0:0:
456,192,105884,5,2,0:0:0:0:
456,192,106142,1,0,0:0:0:0:
272,192,106229,1,2,0:0:0:0:
220,180,106315,1,0,0:0:0:0:
170,164,106401,1,0,0:0:0:0:
123,141,106487,1,0,0:0:0:0:
91,101,106573,1,2,0:0:0:0:
125,65,106660,1,0,0:0:0:0:
175,51,106746,1,0,0:0:0:0:
227,45,106832,1,0,0:0:0:0:
280,42,106918,1,2,0:0:0:0:
332,42,107004,1,0,0:0:0:0:
385,44,107091,1,0,0:0:0:0:
437,47,107177,1,0,0:0:0:0:
240,192,107263,5,4,0:0:0:0:
168,192,107349,1,0,0:0:0:0:
216,192,107436,1,0,0:0:0:0:
280,192,107522,1,0,0:0:0:0:
440,192,107608,2,0,L|336:192,1,105
32,192,107953,2,0,P|64:112|176:64,1,210,2|0,0:0|0:0,0:0:0:0:
112,192,108470,1,0,0:0:0:0:
384,192,108642,5,2,0:0:0:0:
480,192,108815,2,0,L|424:192,1,52.5
256,192,108987,1,2,0:0:0:0:
200,192,109073,1,0,0:0:0:0:
144,192,109159,1,0,0:0:0:0:
98,192,109245,1,0,0:0:0:0:
256,192,109332,1,2,0:0:0:0:
308,192,109418,1,0,0:0:0:0:
361,192,109504,1,0,0:0:0:0:
413,192,109590,1,0,0:0:0:0:
256,192,109677,1,2,0:0:0:0:
16,192,109849,2,0,L|80:192,1,52.5
256,192,110022,6,0,L|144:192,1,105,4|0,0:0|0:0,0:0:0:0:
100,185,110280,1,0,0:0:0:0:
67,146,110366,1,2,0:0:0:0:
70,95,110452,1,0,0:0:0:0:
107,59,110538,1,0,0:0:0:0:
159,59,110625,1,0,0:0:0:0:
328,192,110711,1,2,0:0:0:0:
373,169,110797,1,0,0:0:0:0:
382,119,110883,1,0,0:0:0:0:
347,82,110969,1,0,0:0:0:0:
256,192,111056,1,2,0:0:0:0:
203,192,111142,1,0,0:0:0:0:
151,192,111228,1,0,0:0:0:0:
304,192,111315,1,0,0:0:0:0:
464,192,111401,5,4,0:0:0:0:
256,192,111573,12,0,112780,0:0:0:0:
224,192,113125,6,0,L|448:192,1,210,2|0,0:0|0:0,0:0:0:0:
16,192,113815,1,2,0:0:0:0:
480,192,114160,6,0,L|152:192,1,315,2|0,0:0|0:0,0:0:0:0:
32,192,114849,2,0,L|256:192,1,210,2|0,0:0|0:0,0:0:0:0:
480,192,115539,2,0,B|360:96|136:104|152:200|112:288|112:288,2,420,2|2|2,0:0|0:0|0:0,0:0:0:0:
400,192,117091,5,0,0:0:0:0:
347,192,117177,1,0,0:0:0:0:
295,192,117263,1,2,0:0:0:0:
224,192,117349,1,0,0:0:0:0:
62,192,117436,2,0,L|126:192,1,52.5
277,192,117608,1,4,0:0:0:0:
96,192,117953,2,0,P|16:120|32:96,1,157.5
256,192,118298,6,0,P|360:80|328:48,1,236.250009012223,4|0,0:0|0:0,0:0:0:0:
176,192,118642,1,8,0:0:0:0:
440,192,118815,2,0,L|496:192,1,52.5
336,192,118987,2,0,L|280:192,1,52.5,2|0,0:0|0:0,0:0:0:0:
440,192,119160,2,0,L|496:192,1,52.5,2|0,0:0|0:0,0:0:0:0:
256,192,119332,1,8,0:0:0:0:
192,192,119418,2,0,L|280:128,1,105
128,192,119677,5,2,0:0:0:0:
416,192,119849,2,0,L|468:192,1,52.5,2|0,0:0|0:0,0:0:0:0:
264,192,120022,2,0,L|320:192,1,52.5,8|0,0:0|0:0,0:0:0:0:
464,192,120194,2,0,L|408:192,1,52.5,2|0,0:0|0:0,0:0:0:0:
264,192,120367,2,0,L|320:192,1,52.5,2|0,0:0|0:0,0:0:0:0:
488,192,120539,2,0,L|432:192,1,52.5,2|0,0:0|0:0,0:0:0:0:
288,192,120711,2,0,L|216:192,1,62.9999980773926,8|0,0:0|0:0,0:0:0:0:
65,192,120884,2,0,L|16:152,1,62.9999980773926,2|0,0:0|0:0,0:0:0:0:
264,192,121056,6,0,P|344:120|336:80,1,157.5,2|0,0:0|0:0,0:0:0:0:
176,192,121401,1,8,0:0:0:0:
56,192,121573,1,0,0:0:0:0:
328,192,121746,2,0,L|448:192,1,105,2|2,0:0|0:0,0:0:0:0:
160,192,122091,1,8,0:0:0:0:
186,192,122134,1,0,0:0:0:0:
212,192,122177,1,0,0:0:0:0:
238,192,122220,1,0,0:0:0:0:
265,192,122263,1,0,0:0:0:0:
16,192,122436,6,0,L|128:192,1,105,2|0,0:0|0:0,0:0:0:0:
384,192,122780,2,0,L|272:192,1,105,8|0,0:0|0:0,0:0:0:0:
16,192,123125,1,2,0:0:0:0:
160,192,123298,1,2,0:0:0:0:
160,192,123384,1,2,0:0:0:0:
16,192,123470,1,8,0:0:0:0:
288,192,123642,1,2,0:0:0:0:
16,192,123815,6,0,L|128:192,1,105,2|0,0:0|0:0,0:0:0:0:
384,192,124160,1,8,0:0:0:0:
240,192,124332,1,0,0:0:0:0:
496,192,124504,1,2,0:0:0:0:
344,192,124591,1,2,0:0:0:0:
192,192,124677,1,2,0:0:0:0:
40,192,124763,1,2,0:0:0:0:
344,192,124849,2,0,L|424:192,1,78.7500030040742,8|0,0:0|0:0,0:0:0:0:
192,192,125022,2,0,L|136:192,1,52.5,2|0,0:0|0:0,0:0:0:0:
336,192,125194,6,0,P|432:152|432:96,1,157.5,2|0,0:0|0:0,0:0:0:0:
280,192,125539,2,0,L|200:192,1,78.7500030040742,8|0,0:0|0:0,0:0:0:0:
56,192,125711,2,0,L|0:192,1,52.5,2|0,0:0|0:0,0:0:0:0:
176,192,125884,2,0,L|257:192,1,78.7500030040742,2|0,0:0|0:0,0:0:0:0:
400,192,126056,2,0,L|456:192,1,52.5,2|0,0:0|0:0,0:0:0:0:
288,192,126229,2,0,L|208:192,1,78.7500030040742,8|0,0:0|0:0,0:0:0:0:
56,192,126401,2,0,L|56:136,1,52.5,2|0,0:0|0:0,0:0:0:0:
256,192,126573,6,0,P|208:136|136:176,1,157.5,2|0,0:0|0:0,0:0:0:0:
288,192,126918,1,8,0:0:0:0:
32,192,127091,2,0,L|32:128,1,52.5,2|0,0:0|0:0,0:0:0:0:
176,192,127263,1,2,0:0:0:0:
320,192,127349,1,2,0:0:0:0:
176,192,127436,1,2,0:0:0:0:
424,192,127608,2,0,L|424:88,1,105,8|0,0:0|0:0,0:0:0:0:
152,192,127953,6,0,L|40:192,1,105,8|2,0:0|0:0,0:0:0:0:
360,192,128298,2,0,L|472:192,1,105,8|2,0:0|0:0,0:0:0:0:
128,192,128642,1,2,0:0:0:0:
280,192,128729,1,2,0:0:0:0:
424,192,128815,1,2,0:0:0:0:
368,192,128901,1,2,0:0:0:0:
192,192,128987,2,0,P|104:112|120:72,1,157.5,8|0,0:0|0:0,0:0:0:0:
320,192,129332,6,0,P|408:112|392:72,1,157.5,6|0,0:0|0:0,0:0:0:0:
216,192,129677,2,0,L|80:192,1,105,8|0,0:0|0:0,0:0:0:0:
400,192,130022,2,0,L|456:192,1,52.5,2|0,0:0|0:0,0:0:0:0:
304,192,130194,2,0,L|224:192,1,78.7500030040742,2|0,0:0|0:0,0:0:0:0:
64,192,130367,2,0,L|112:160,1,52.5,8|0,0:0|0:0,0:0:0:0:
272,192,130539,2,0,L|208:192,1,52.5
64,192,130711,6,0,L|120:192,1,52.5,2|0,0:0|0:0,0:0:0:0:
272,192,130884,2,0,L|352:192,1,78.7500030040742,2|0,0:0|0:0,0:0:0:0:
496,192,131056,2,0,P|453:151|352:144,1,157.5,8|0,0:0|0:0,0:0:0:0:
128,192,131401,1,0,0:0:0:0:
102,192,131444,1,0,0:0:0:0:
79,180,131487,1,0,0:0:0:0:
65,158,131530,1,0,0:0:0:0:
64,132,131573,1,0,0:0:0:0:
77,109,131616,1,0,0:0:0:0:
99,96,131659,1,0,0:0:0:0:
125,95,131702,1,0,0:0:0:0:
232,192,131746,1,8,0:0:0:0:
328,192,131918,1,2,0:0:0:0:
48,192,132091,6,0,P|112:112|176:104,1,157.5,2|0,0:0|0:0,0:0:0:0:
328,192,132436,1,8,0:0:0:0:
64,192,132608,1,2,0:0:0:0:
480,192,132780,1,2,0:0:0:0:
328,192,132867,1,0,0:0:0:0:
176,192,132953,1,2,0:0:0:0:
24,192,133039,1,0,0:0:0:0:
176,192,133125,1,8,0:0:0:0:
328,192,133212,1,0,0:0:0:0:
176,192,133298,1,2,0:0:0:0:
24,192,133384,1,0,0:0:0:0:
256,192,133470,5,0,0:0:0:0:
292,206,133513,1,0,0:0:0:0:
330,200,133556,1,0,0:0:0:0:
361,176,133599,1,0,0:0:0:0:
375,140,133642,1,0,0:0:0:0:
370,101,133685,1,0,0:0:0:0:
346,70,133728,1,0,0:0:0:0:
192,192,133815,2,0,L|88:192,1,105,8|0,0:0|0:0,0:0:0:0:
368,192,134160,1,0,0:0:0:0:
405,183,134203,1,0,0:0:0:0:
434,157,134246,1,0,0:0:0:0:
448,120,134289,1,0,0:0:0:0:
442,82,134332,1,0,0:0:0:0:
288,192,134418,1,0,0:0:0:0:
136,192,134504,2,0,P|144:136|192:112,1,105,8|0,0:0|0:0,0:0:0:0:
448,192,134849,6,0,P|480:120|416:80,1,157.5,2|0,0:0|0:0,0:0:0:0:
208,192,135194,1,8,0:0:0:0:
80,192,135367,1,2,0:0:0:0:
352,192,135539,2,0,L|296:192,1,52.5,2|0,0:0|0:0,0:0:0:0:
155,192,135711,2,0,L|211:192,1,52.5,2|0,0:0|0:0,0:0:0:0:
384,192,135884,2,0,L|328:192,1,52.5,8|0,0:0|0:0,0:0:0:0:
187,192,136056,2,0,L|243:192,1,52.5,2|0,0:0|0:0,0:0:0:0:
384,192,136229,6,0,P|440:136|424:112,1,105,2|0,0:0|0:0,0:0:0:0:
144,192,136573,1,8,0:0:0:0:
48,192,136746,2,0,L|104:192,1,52.5
256,192,136918,2,0,L|296:192,7,26.25,2|0|0|0|0|0|0|0,0:0|0:0|0:0|0:0|0:0|0:0|0:0|0:0,0:0:0:0:
160,192,137263,2,0,L|48:192,1,105,8|0,0:0|0:0,0:0:0:0:
368,192,137608,6,0,P|448:112|432:88,1,157.5,2|0,0:0|0:0,0:0:0:0:
256,192,137953,2,0,L|144:192,1,105,8|0,0:0|0:0,0:0:0:0:
480,192,138298,1,2,0:0:0:0:
328,192,138384,1,2,0:0:0:0:
176,192,138470,1,2,0:0:0:0:
96,192,138556,1,2,0:0:0:0:
256,192,138642,1,8,0:0:0:0:
400,192,138729,1,0,0:0:0:0:
216,192,138815,2,0,L|152:192,1,52.5,2|0,0:0|0:0,0:0:0:0:
352,192,138987,6,0,L|496:120,3,157.500006008148,2|0|0|0,0:0|0:0|0:0|0:0,0:0:0:0:
192,192,139677,2,0,L|56:192,1,125.999996154785,2|0,0:0|0:0,0:0:0:0:
368,192,140022,2,0,L|256:192,1,105,2|0,0:0|0:0,0:0:0:0:
16,192,140367,5,2,0:0:0:0:
48,151,140453,1,0,0:0:0:0:
94,125,140539,1,0,0:0:0:0:
145,118,140625,1,0,0:0:0:0:
304,192,140711,2,0,L|416:192,1,105
120,192,141056,2,0,P|48:112|104:64,1,157.5,4|0,0:0|0:0,0:0:0:0:
160,192,141401,1,0,0:0:0:0:
212,192,141487,1,0,0:0:0:0:
265,192,141573,1,0,0:0:0:0:
317,192,141659,1,0,0:0:0:0:
160,192,141746,5,2,0:0:0:0:
212,192,141832,1,0,0:0:0:0:
265,192,141918,1,0,0:0:0:0:
317,192,142004,1,0,0:0:0:0:
160,192,142091,2,0,L|56:192,1,105
317,192,142436,2,0,P|432:128|432:80,1,157.5,4|0,0:0|0:0,0:0:0:0:
256,192,142780,2,0,L|179:192,1,52.5
152,192,142953,2,0,L|216:192,1,52.5
376,192,143125,5,2,0:0:0:0:
425,182,143211,1,0,0:0:0:0:
448,137,143297,1,0,0:0:0:0:
426,91,143383,1,0,0:0:0:0:
256,192,143470,2,0,L|360:192,1,105,2|0,0:0|0:0,0:0:0:0:
88,192,143815,2,0,P|32:112|72:72,1,157.5,4|0,0:0|0:0,0:0:0:0:
216,192,144160,2,0,L|280:192,1,52.5,2|0,0:0|0:0,0:0:0:0:
112,192,144332,2,0,L|48:192,1,52.5
288,192,144504,5,2,0:0:0:0:
448,192,144677,1,0,0:0:0:0:
471,146,144763,1,0,0:0:0:0:
464,94,144849,1,2,0:0:0:0:
428,57,144935,1,2,0:0:0:0:
377,47,145022,1,2,0:0:0:0:
330,69,145108,1,2,0:0:0:0:
64,192,145194,1,4,0:0:0:0:
296,192,145884,5,0,0:0:0:0:
128,192,146229,1,2,0:0:0:0:
280,192,146573,1,0,0:0:0:0:
56,192,146918,1,2,0:0:0:0:
480,192,147263,5,2,0:0:0:0:
288,192,147780,1,0,0:0:0:0:
432,192,147953,1,2,0:0:0:0:
160,192,148298,1,0,0:0:0:0:
472,192,148642,5,2,0:0:0:0:
128,192,149332,1,2,0:0:0:0:
488,192,150022,1,2,0:0:0:0:
16,192,150367,5,2,0:0:0:0:
488,192,150711,1,4,0:0:0:0:
