osu file format v14

[General]
AudioFilename: REANIMATE.mp3
AudioLeadIn: 0
PreviewTime: 57263
Countdown: 0
SampleSet: Soft
StackLeniency: 0.5
Mode: 2
LetterboxInBreaks: 0
WidescreenStoryboard: 0

[Editor]
Bookmarks: 2436,24504,46573,68642,90711,118298,150711
DistanceSpacing: 1.2
BeatDivisor: 4
GridSize: 4
TimelineZoom: 3.972002

[Metadata]
Title:REANIMATE
TitleUnicode:REANIMATE
Artist:Warak
ArtistUnicode:Warak
Creator:- Magic Bomb -
Version:Collab Cup
Source:节奏大师
Tags:MBomb rhythm master symphonic drumstep JBHyperion Zirox JBH
BeatmapID:1127174
BeatmapSetID:489190

[Difficulty]
HPDrainRate:3
CircleSize:2.5
OverallDifficulty:6
ApproachRate:6
SliderMultiplier:1.3
SliderTickRate:1

[Events]
//Background and Video events
0,0,"REVIVE.png",0,0
//Break Periods
//Storyboard Layer 0 (Background)
//Storyboard Layer 1 (Fail)
//Storyboard Layer 2 (Pass)
//Storyboard Layer 3 (Foreground)
//Storyboard Sound Samples

[TimingPoints]
2436,344.827586206897,4,2,77,100,1,0
13470,-100,4,2,80,100,0,0
13556,-100,4,2,78,85,0,0
24160,-100,4,2,77,80,0,0
24504,-100,4,2,78,80,0,0
24677,-100,4,2,77,80,0,0
27263,-100,4,2,78,80,0,0
27436,-100,4,2,77,80,0,0
30022,-100,4,2,78,80,0,0
30194,-100,4,2,77,80,0,0
32780,-100,4,2,78,80,0,0
32953,-100,4,2,77,80,0,0
35539,-100,4,2,78,90,0,0
35711,-100,4,2,77,90,0,0
38298,-100,4,2,78,90,0,0
38470,-100,4,2,77,90,0,0
41056,-100,4,2,78,90,0,0
41229,-100,4,2,77,90,0,0
43815,-100,4,2,78,90,0,0
45194,-100,4,2,77,90,0,0
46573,-100,4,2,78,90,0,1
48642,-80,4,2,78,90,0,1
48987,-100,4,2,78,90,0,1
57263,-100,4,2,78,80,0,0
57608,-100,4,2,78,90,0,1
67263,-100,4,2,77,80,0,1
68642,-100,4,2,78,80,0,0
78298,-100,4,2,77,80,0,0
79677,-100,4,2,79,70,0,0
90711,-100,4,2,78,70,0,0
99073,-100,4,2,77,90,0,0
100367,-100,4,2,77,80,0,0
101056,-100,4,2,77,70,0,0
101746,-100,4,2,77,80,0,0
111573,-100,4,2,77,50,0,0
113125,-100,4,2,77,60,0,0
113470,-100,4,2,77,60,0,0
114160,-100,4,2,77,60,0,0
114849,-100,4,2,77,60,0,0
115539,-100,4,2,77,70,0,0
116229,-100,4,2,77,80,0,0
116918,-100,4,2,77,90,0,0
117263,-100,4,2,77,90,0,0
117953,-100,4,2,77,90,0,0
118298,-100,4,2,78,90,0,1
138987,-100,4,2,77,100,0,1
140367,-100,4,2,79,80,0,0
144504,-100,4,2,77,80,0,0
145194,-100,4,2,77,100,0,1
145884,-100,4,2,77,40,0,0

[Colours]
Combo1 : 183,47,49
Combo2 : 223,170,70
Combo3 : 84,114,98
Combo4 : 92,107,131

[HitObjects]
152,192,2436,6,0,L|24:120,2,130,4|0|2,0:0|0:0|0:0,0:0:0:0:
324,192,3470,1,0,0:0:0:0:
180,192,3815,6,0,L|164:44,1,130,2|0,0:0|0:0,0:0:0:0:
308,192,4504,2,0,L|324:44,1,130,2|0,0:0|0:0,0:0:0:0:
152,48,5194,6,0,L|32:128,1,130,4|0,0:0|0:0,0:0:0:0:
204,124,5884,2,0,L|348:124,1,130,2|0,0:0|0:0,0:0:0:0:
390,124,6401,1,0,0:0:0:0:
334,124,6573,6,0,L|232:216,1,130,2|0,0:0|0:0,0:0:0:0:
384,216,7263,2,0,L|488:308,1,130,2|0,0:0|0:0,0:0:0:0:
348,312,7953,6,0,L|212:276,1,130,4|0,0:0|0:0,0:0:0:0:
380,280,8642,2,0,P|412:228|380:172,1,130,2|0,0:0|0:0,0:0:0:0:
308,172,9160,1,0,0:0:0:0:
236,172,9332,5,2,0:0:0:0:
92,72,9677,1,2,0:0:0:0:
150,72,9849,1,0,0:0:0:0:
208,72,10022,2,0,L|352:72,1,130,2|0,0:0|0:0,0:0:0:0:
164,192,10711,6,0,L|156:336,1,130,4|2,0:0|0:0,0:0:0:0:
328,196,11401,2,0,L|336:340,1,130,2|2,0:0|0:0,0:0:0:0:
192,340,12091,5,2,0:0:0:0:
264,340,12263,1,0,0:0:0:0:
335,338,12436,2,0,P|384:264|291:146,1,260,2|2,0:0|0:0,0:0:0:0:
136,144,13470,6,0,L|256:192,1,130,4|2,0:0|0:0,0:0:0:0:
412,192,14160,2,0,L|252:192,1,130,8|2,0:0|0:0,0:0:0:0:
152,192,14849,6,0,L|116:254,2,65,2|2|2,0:0|0:0|0:0,0:0:0:0:
284,192,15539,2,0,P|320:148|284:92,1,130,8|2,0:0|0:0,0:0:0:0:
128,92,16229,6,0,L|8:156,2,130,2|2|8,0:0|0:0|0:0,0:0:0:0:
260,92,17263,1,2,0:0:0:0:
128,92,17608,5,2,0:0:0:0:
200,92,17780,1,0,0:0:0:0:
272,92,17952,1,2,0:0:0:0:
436,224,18298,2,0,L|308:192,1,130,8|2,0:0|0:0,0:0:0:0:
180,176,18987,6,0,P|202:117|259:89,1,130,2|2,0:0|0:0,0:0:0:0:
312,88,19504,1,0,0:0:0:0:
259,89,19677,2,0,L|103:89,1,130,8|2,0:0|0:0,0:0:0:0:
12,192,20367,6,0,L|92:192,1,65,2|2,0:0|0:0,0:0:0:0:
156,192,20711,2,0,L|236:192,1,65,2|0,0:0|0:0,0:0:0:0:
300,288,21057,2,0,L|170:288,1,130,8|2,0:0|0:0,0:0:0:0:
12,192,21746,5,2,0:0:0:0:
76,192,21918,1,0,0:0:0:0:
140,192,22091,1,0,0:0:0:0:
272,192,22436,2,0,L|384:260,1,130,8|0,0:0|0:0,0:0:0:0:
252,260,23125,6,0,L|207:305,2,65,2|2|2,0:0|0:0|0:0,0:0:0:0:
408,260,23815,2,0,P|336:240|432:172,1,260,8|2,0:0|0:0,0:0:0:0:
292,256,24849,6,0,L|200:160,2,130,0|2|0,0:0|0:0|0:0,0:0:0:0:
136,256,25884,1,2,0:0:0:0:
292,256,26229,2,0,P|360:157|276:71,1,260,2|2,0:0|0:0,0:0:0:0:
104,64,27263,6,0,L|52:200,1,130,2|2,0:0|0:0,0:0:0:0:
204,188,27953,2,0,P|287:274|219:372,1,260,2|2,0:0|0:0,0:0:0:0:
360,376,28987,2,0,L|460:284,2,130,2|0|2,0:0|0:0|0:0,0:0:0:0:
192,376,30022,6,0,L|152:196,1,130,2|2,0:0|0:0,0:0:0:0:
324,232,30711,2,0,L|284:52,1,130,0|2,0:0|0:0,0:0:0:0:
144,104,31401,5,2,0:0:0:0:
304,104,31746,1,0,0:0:0:0:
152,104,32091,2,0,P|60:196|136:296,1,260,2|2,0:0|0:0,0:0:0:0:
260,292,33125,2,0,L|380:192,2,130,2|0|2,0:0|0:0|0:0,0:0:0:0:
117,290,34160,6,0,L|244:216,1,130,2|0,0:0|0:0,0:0:0:0:
364,228,34849,2,0,L|237:154,1,130,2|0,0:0|0:0,0:0:0:0:
80,160,35539,5,2,0:0:0:0:
236,164,35884,2,0,L|340:84,2,130,2|0|2,0:0|0:0|0:0,0:0:0:0:
80,160,36918,5,2,0:0:0:0:
232,164,37263,2,0,L|348:252,2,130,0|2|0,0:0|0:0|0:0,0:0:0:0:
92,308,38298,6,0,L|324:160,2,260,2|2|2,0:0|0:0|0:0,0:0:0:0:
232,304,40022,6,0,L|336:224,2,130,0|2|2,0:0|0:0|0:0,0:0:0:0:
332,312,41056,6,0,L|356:176,1,130,2|2,0:0|0:0,0:0:0:0:
468,180,41746,2,0,L|444:48,1,130,2|2,0:0|0:0,0:0:0:0:
312,56,42436,6,0,L|112:156,2,195,2|2|2,0:0|0:0|0:0,0:0:0:0:
164,64,43815,6,0,P|72:96|32:256,2,260,2|2|2,0:0|0:0|0:0,0:0:0:0:
304,64,45539,1,2,0:0:0:0:
444,64,45884,1,12,0:0:0:0:
156,192,46573,6,0,L|24:192,1,130,6|8,0:0|0:0,0:0:0:0:
184,284,47263,2,0,L|240:320,2,65,2|2|8,0:0|0:0|0:0,0:0:0:0:
52,284,47953,6,0,L|144:192,1,130,2|8,0:0|0:0,0:0:0:0:
208,192,48470,1,0,0:0:0:0:
272,192,48642,2,0,P|326:144|272:96,1,162.5,2|0,0:0|0:0,0:0:0:0:
88,192,49332,5,2,0:0:0:0:
220,192,49677,2,0,L|332:112,2,130,8|2|8,0:0|0:0|0:0,0:0:0:0:
64,192,50711,5,2,0:0:0:0:
196,192,51056,1,8,0:0:0:0:
92,192,51401,1,2,0:0:0:0:
224,192,51746,2,0,L|296:192,1,65,8|2,0:0|0:0,0:0:0:0:
356,192,52091,6,0,L|492:192,1,130,2|8,0:0|0:0,0:0:0:0:
328,192,52780,1,2,0:0:0:0:
460,84,53125,1,8,0:0:0:0:
396,84,53298,1,0,0:0:0:0:
332,84,53470,6,0,L|192:84,1,130,2|8,0:0|0:0,0:0:0:0:
360,192,54160,2,0,P|404:240|364:280,1,130,0|8,0:0|0:0,0:0:0:0:
212,276,54849,6,0,L|76:276,1,130,2|8,0:0|0:0,0:0:0:0:
148,276,55367,1,2,0:0:0:0:
212,276,55539,2,0,L|288:276,2,65,2|2|8,0:0|0:0|0:0,0:0:0:0:
148,276,56056,1,2,0:0:0:0:
84,276,56229,6,0,L|72:140,1,130,8|8,0:0|0:0,0:0:0:0:
228,148,56918,2,0,L|240:12,1,130,8|8,0:0|0:0,0:0:0:0:
424,16,57608,6,0,L|292:16,1,130,6|8,0:0|0:0,0:0:0:0:
136,64,58298,2,0,L|200:180,1,130,2|8,0:0|0:0,0:0:0:0:
358,191,58987,6,0,L|346:331,1,130,2|8,0:0|0:0,0:0:0:0:
204,320,59677,2,0,L|199:255,1,65,2|0,0:0|0:0,0:0:0:0:
270,256,60022,2,0,L|275:191,1,65,8|0,0:0|0:0,0:0:0:0:
347,321,60367,6,0,L|199:321,1,130,2|8,0:0|0:0,0:0:0:0:
60,240,61056,2,0,L|180:192,1,130,2|8,0:0|0:0,0:0:0:0:
336,192,61746,5,2,0:0:0:0:
204,192,62091,1,8,0:0:0:0:
360,192,62436,1,2,0:0:0:0:
180,192,62780,1,8,0:0:0:0:
116,192,62953,1,2,0:0:0:0:
52,192,63125,6,0,L|20:60,1,130,2|8,0:0|0:0,0:0:0:0:
152,68,63815,2,0,L|200:19,2,65,2|2|8,0:0|0:0|0:0,0:0:0:0:
8,192,64504,6,0,L|160:192,1,130,2|8,0:0|0:0,0:0:0:0:
296,192,65194,2,0,L|360:192,1,65,2|2,0:0|0:0,0:0:0:0:
440,192,65539,2,0,L|376:192,1,65,8|2,0:0|0:0,0:0:0:0:
296,192,65884,6,0,L|160:192,1,130,2|8,0:0|0:0,0:0:0:0:
324,76,66573,2,0,L|392:76,2,65,8|0|8,0:0|0:0|0:0,0:0:0:0:
168,76,67263,6,0,P|100:176|172:280,1,260,2|2,0:0|0:0,0:0:0:0:
388,76,68642,6,0,P|456:176|412:248,1,195,2|0,0:0|0:0,0:0:0:0:
360,248,69332,2,0,L|172:304,1,195,8|2,0:0|0:0,0:0:0:0:
104,304,70022,6,0,L|52:256,1,65,2|2,0:0|0:0,0:0:0:0:
4,216,70367,1,2,0:0:0:0:
192,192,70711,2,0,L|348:192,1,130,8|0,0:0|0:0,0:0:0:0:
140,192,71401,6,0,P|80:280|160:340,1,195,2|0,0:0|0:0,0:0:0:0:
184,336,72091,2,0,L|360:232,1,195,8|2,0:0|0:0,0:0:0:0:
412,208,72780,6,0,L|504:120,1,65,2|0,0:0|0:0,0:0:0:0:
384,128,73125,1,2,0:0:0:0:
224,124,73470,2,0,L|140:176,2,65,8|0|2,0:0|0:0|0:0,0:0:0:0:
396,120,74160,6,0,L|228:240,1,195,2|0,0:0|0:0,0:0:0:0:
168,232,74849,2,0,L|4:96,1,195,8|2,0:0|0:0,0:0:0:0:
84,88,75539,6,0,L|152:60,1,65,2|2,0:0|0:0,0:0:0:0:
208,48,75884,1,2,0:0:0:0:
360,44,76229,2,0,L|392:176,1,130,8|0,0:0|0:0,0:0:0:0:
212,52,76918,6,0,P|152:140|232:200,1,195,2|0,0:0|0:0,0:0:0:0:
264,132,77608,2,0,P|324:220|244:280,1,195,8|2,0:0|0:0,0:0:0:0:
200,212,78298,2,0,P|140:300|220:360,1,195,2|0,0:0|0:0,0:0:0:0:
272,276,78987,2,0,P|321:200|260:133,1,195,2|0,0:0|0:0,0:0:0:0:
140,132,79677,6,0,L|76:320,1,195,4|0,0:0|0:0,0:0:0:0:
172,320,80367,2,0,L|234:135,1,195,8|0,0:0|0:0,0:0:0:0:
312,132,81056,6,0,L|344:76,2,65,2|2|2,0:0|0:0|0:0,0:0:0:0:
184,132,81746,1,8,0:0:0:0:
312,132,82091,1,0,0:0:0:0:
448,132,82436,6,0,L|512:320,1,195,4|0,0:0|0:0,0:0:0:0:
416,320,83126,2,0,L|354:135,1,195,8|0,0:0|0:0,0:0:0:0:
276,132,83815,6,0,L|252:72,2,65,2|2|2,0:0|0:0|0:0,0:0:0:0:
424,76,84504,2,0,L|460:152,1,65,8|0,0:0|0:0,0:0:0:0:
372,148,84849,2,0,L|348:212,1,65,0|0,0:0|0:0,0:0:0:0:
264,212,85194,6,0,L|336:348,1,130,4|0,0:0|0:0,0:0:0:0:
200,320,85884,1,8,0:0:0:0:
72,312,86229,2,0,L|128:188,1,130,0|2,0:0|0:0,0:0:0:0:
264,188,86918,1,2,0:0:0:0:
400,216,87263,2,0,L|436:140,1,65,8|0,0:0|0:0,0:0:0:0:
348,144,87608,2,0,L|324:80,1,65,0|0,0:0|0:0,0:0:0:0:
264,80,87953,5,4,0:0:0:0:
132,80,88642,1,8,0:0:0:0:
368,80,89332,1,2,0:0:0:0:
64,80,90022,1,8,0:0:0:0:
268,192,90711,6,0,P|388:232|428:360,1,260,6|8,0:0|0:0,0:0:0:0:
196,348,92091,6,0,L|116:348,2,65,2|2|2,0:0|0:0|0:0,0:0:0:0:
352,348,92780,2,0,L|468:272,1,130,8|2,0:0|0:0,0:0:0:0:
304,276,93470,6,0,P|204:244|276:152,1,260,2|8,0:0|0:0,0:0:0:0:
508,156,94849,5,2,0:0:0:0:
448,156,95022,1,2,0:0:0:0:
388,156,95194,1,2,0:0:0:0:
232,156,95539,2,0,L|160:156,1,65,8|0,0:0|0:0,0:0:0:0:
100,76,95884,2,0,L|180:76,1,65,2|0,0:0|0:0,0:0:0:0:
232,76,96229,6,0,P|328:88|384:240,1,260,2|8,0:0|0:0,0:0:0:0:
152,192,97608,5,2,0:0:0:0:
216,192,97780,1,0,0:0:0:0:
280,192,97953,1,2,0:0:0:0:
124,296,98298,2,0,L|4:240,1,130,8|2,0:0|0:0,0:0:0:0:
176,244,98987,5,6,0:0:0:0:
364,179,99677,1,2,0:0:0:0:
104,180,100367,6,0,L|8:80,1,130,4|2,0:0|0:0,0:0:0:0:
172,56,101056,2,0,L|203:182,1,130,2|2,0:0|0:0,0:0:0:0:
360,184,101746,6,0,L|500:168,2,130,4|0|2,0:0|0:0|0:0,0:0:0:0:
204,184,102780,1,0,0:0:0:0:
336,284,103125,5,2,0:0:0:0:
388,284,103298,1,0,0:0:0:0:
440,284,103470,2,0,P|492:216|388:112,1,260,2|2,0:0|0:0,0:0:0:0:
244,112,104504,6,0,L|140:192,2,130,4|0|2,0:0|0:0|0:0,0:0:0:0:
112,112,105539,2,0,L|68:64,2,65,0|0|2,0:0|0:0|0:0,0:0:0:0:
244,112,106229,2,0,B|392:168|120:264|300:312,1,260,2|2,0:0|0:0,0:0:0:0:
400,308,107263,6,0,L|488:204,1,130,4|0,0:0|0:0,0:0:0:0:
328,192,107953,2,0,L|184:192,1,130,2|0,0:0|0:0,0:0:0:0:
68,192,108642,5,2,0:0:0:0:
224,192,108987,1,2,0:0:0:0:
40,192,109332,2,0,P|8:132|40:88,1,130,2|2,0:0|0:0,0:0:0:0:
196,92,110022,6,0,L|332:92,1,130,4|2,0:0|0:0,0:0:0:0:
196,176,110711,2,0,P|104:236|196:296,1,260,2|4,0:0|0:0,0:0:0:0:
256,192,113125,12,2,116918,0:0:0:0:
172,192,117263,6,0,L|144:52,1,130,2|4,0:0|0:0,0:0:0:0:
328,192,117953,1,0,0:0:0:0:
136,192,118298,6,0,L|316:192,1,130,4|8,0:0|0:0,0:0:0:0:
408,192,118987,2,0,L|504:192,2,65,2|0|8,0:0|0:0|0:0,0:0:0:0:
252,192,119677,6,0,L|188:152,1,65,2|2,0:0|0:0,0:0:0:0:
136,120,120022,2,0,L|76:96,1,65,8|2,0:0|0:0,0:0:0:0:
4,148,120367,2,0,L|73:176,1,65,2|2,0:0|0:0,0:0:0:0:
120,192,120711,1,8,0:0:0:0:
296,192,121056,6,0,L|436:192,1,130,2|8,0:0|0:0,0:0:0:0:
256,192,121746,2,0,L|180:192,2,65,2|0|8,0:0|0:0|0:0,0:0:0:0:
424,192,122436,6,0,L|360:224,1,65,2|0,0:0|0:0,0:0:0:0:
292,192,122780,2,0,L|224:216,1,65,8|0,0:0|0:0,0:0:0:0:
152,260,123125,2,0,L|220:284,1,65,2|2,0:0|0:0,0:0:0:0:
284,268,123470,2,0,L|352:292,1,65,8|2,0:0|0:0,0:0:0:0:
436,288,123815,6,0,P|488:216|440:148,1,130,2|8,0:0|0:0,0:0:0:0:
324,176,124504,2,0,L|248:176,2,65,2|2|8,0:0|0:0|0:0,0:0:0:0:
480,156,125194,5,2,0:0:0:0:
304,264,125539,2,0,L|252:316,1,65,8|2,0:0|0:0,0:0:0:0:
172,256,125884,2,0,L|120:304,1,65,2|2,0:0|0:0,0:0:0:0:
52,252,126229,2,0,L|4:296,1,65,8|2,0:0|0:0,0:0:0:0:
104,308,126573,6,0,L|196:200,1,130,2|8,0:0|0:0,0:0:0:0:
264,184,127091,1,2,0:0:0:0:
352,176,127263,2,0,P|384:128|348:72,1,130,2|8,0:0|0:0,0:0:0:0:
264,64,127780,1,0,0:0:0:0:
180,64,127953,6,0,P|112:116|192:228,1,195,8|2,0:0|0:0,0:0:0:0:
224,252,128642,1,8,0:0:0:0:
280,284,128814,1,2,0:0:0:0:
337,316,128986,1,8,0:0:0:0:
136,312,129332,6,0,P|68:284|40:216,1,130,6|8,0:0|0:0,0:0:0:0:
196,228,130022,2,0,L|232:172,2,65,2|0|8,0:0|0:0|0:0,0:0:0:0:
352,148,130711,6,0,L|212:148,1,130,2|8,0:0|0:0,0:0:0:0:
380,148,131401,2,0,L|448:148,2,65,2|0|8,0:0|0:0|0:0,0:0:0:0:
176,72,132091,6,0,P|144:120|180:176,1,130,2|8,0:0|0:0,0:0:0:0:
264,200,132609,1,2,0:0:0:0:
352,208,132781,2,0,P|384:256|348:312,1,130,2|8,0:0|0:0,0:0:0:0:
264,312,133298,1,2,0:0:0:0:
172,312,133470,6,0,P|80:280|64:244,1,130,2|0,0:0|0:0,0:0:0:0:
148,171,133987,1,0,0:0:0:0:
236,168,134160,2,0,L|280:108,2,65,2|2|8,0:0|0:0|0:0,0:0:0:0:
412,72,134849,6,0,P|480:100|508:168,1,130,2|8,0:0|0:0,0:0:0:0:
352,156,135539,1,2,0:0:0:0:
287,156,135711,1,0,0:0:0:0:
222,156,135883,1,8,0:0:0:0:
44,236,136228,6,0,L|184:236,1,130,2|8,0:0|0:0,0:0:0:0:
332,236,136918,2,0,L|400:236,2,65,2|0|8,0:0|0:0|0:0,0:0:0:0:
164,312,137608,6,0,P|132:264|168:208,1,130,2|8,0:0|0:0,0:0:0:0:
252,184,138126,1,0,0:0:0:0:
340,176,138298,2,0,P|372:128|336:72,1,130,2|8,0:0|0:0,0:0:0:0:
252,72,138815,1,2,0:0:0:0:
160,72,138987,6,0,L|104:128,1,65,2|0,0:0|0:0,0:0:0:0:
196,152,139332,2,0,L|252:208,1,65,0|0,0:0|0:0,0:0:0:0:
328,248,139677,2,0,L|384:304,1,65,2|0,0:0|0:0,0:0:0:0:
272,328,140022,2,0,L|216:384,1,65,0|0,0:0|0:0,0:0:0:0:
120,368,140367,6,0,L|-8:296,2,130,2|0|4,0:0|0:0|0:0,0:0:0:0:
292,376,141401,1,0,0:0:0:0:
144,288,141746,6,0,L|272:216,2,130,2|0|4,0:0|0:0|0:0,0:0:0:0:
268,292,142780,1,0,0:0:0:0:
412,288,143125,6,0,L|284:216,2,130,2|2|4,0:0|0:0|0:0,0:0:0:0:
284,284,144160,1,2,0:0:0:0:
219,284,144332,1,0,0:0:0:0:
154,284,144504,5,2,0:0:0:0:
324,288,144849,1,2,0:0:0:0:
108,284,145194,1,4,0:0:0:0:
324,288,145884,5,0,0:0:0:0:
440,256,146229,2,0,P|472:188|428:136,1,130,2|0,0:0|0:0,0:0:0:0:
348,136,146918,1,2,0:0:0:0:
252,144,147263,6,0,P|174:175|116:268,1,195,2|0,0:0|0:0,0:0:0:0:
136,348,147953,1,2,0:0:0:0:
264,352,148298,1,0,0:0:0:0:
96,348,148642,5,2,0:0:0:0:
336,348,149332,1,2,0:0:0:0:
92,344,150022,5,2,0:0:0:0:
256,344,150367,1,2,0:0:0:0:
56,240,150711,1,4,0:0:0:0:
