osu file format v14

[General]
AudioFilename: Once Upon A Time.mp3
AudioLeadIn: 0
PreviewTime: 66215
Countdown: 0
SampleSet: Soft
StackLeniency: 0.3
Mode: 0
LetterboxInBreaks: 0
WidescreenStoryboard: 1

[Editor]
Bookmarks: 23501,80168,112110,123499,145166
DistanceSpacing: 1.5
BeatDivisor: 4
GridSize: 32
TimelineZoom: 1.4

[Metadata]
Title:Once Upon A Time
TitleUnicode:Once Upon A Time
Artist:Warak
ArtistUnicode:Warak
Creator:Xilver
Version:UC's Insane
Source:HIGH5
Tags:rhythm mobile game story telling undeadcapulet -pc
BeatmapID:1246405
BeatmapSetID:519154

[Difficulty]
HPDrainRate:6
CircleSize:4
OverallDifficulty:7
ApproachRate:8.8
SliderMultiplier:1.7
SliderTickRate:1

[Events]
//Background and Video events
0,0,"once upon a time.jpg",0,0
//Break Periods
2,56936,65482
2,91735,94439
2,108600,111734
//Storyboard Layer 0 (Background)
//Storyboard Layer 1 (Fail)
//Storyboard Layer 2 (Pass)
//Storyboard Layer 3 (Foreground)
//Storyboard Sound Samples

[TimingPoints]
70,416.666666666667,4,2,0,60,1,0
7986,-100,4,2,0,30,0,0
8195,-100,4,2,0,40,0,0
8403,-100,4,2,0,60,0,0
9028,-100,4,2,0,40,0,0
9445,-100,4,2,0,50,0,0
10070,-125,4,1,0,60,0,0
22361,-100,4,1,0,60,0,0
23403,-125,4,1,0,60,0,0
28403,-100,4,1,0,60,0,0
30070,-100,4,2,0,60,0,0
36736,-100,4,1,0,60,0,0
44653,-100,4,2,0,60,0,0
46736,-100,4,1,0,60,0,0
56320,-100,4,2,0,60,0,0
56458,-100,4,2,0,5,0,0
56528,-100,4,2,0,60,0,0
56667,-100,4,2,0,5,0,0
56736,-100,4,2,0,60,0,0
56945,-100,4,2,0,40,0,0
65486,-100,4,2,0,60,0,0
66320,-200,4,2,0,60,0,0
66736,-71.4285714285714,4,2,0,60,0,0
81111,-100,4,2,0,60,0,0
85278,-125,4,2,0,50,0,0
88820,-125,4,2,0,60,0,0
89236,416.666666666667,4,2,0,60,1,0
89236,-71.4285714285714,4,2,0,60,0,0
89861,-83.3333333333333,4,2,0,60,0,0
90694,-100,4,2,0,60,0,0
90902,416.666666666667,5,2,0,60,1,0
95068,416.666666666667,4,2,0,40,1,0
95068,-166.666666666667,4,2,0,40,0,0
107776,-166.666666666667,4,2,0,40,0,0
107845,-166.666666666667,4,2,0,40,0,0
108054,-166.666666666667,4,2,0,40,0,0
108123,-200,4,2,0,40,0,0
108331,-200,4,2,0,40,0,0
108401,-200,4,2,0,40,0,0
118401,-200,4,2,0,60,0,1
118505,-200,4,2,0,60,0,0
120068,-166.666666666667,4,2,0,45,0,0
120484,-166.666666666667,4,2,0,40,0,0
120901,-166.666666666667,4,2,0,35,0,0
121318,-166.666666666667,4,2,0,30,0,0
121943,-166.666666666667,4,2,0,35,0,0
122151,-166.666666666667,4,2,0,48,0,0
122359,-166.666666666667,4,2,0,60,0,0
122568,-100,4,2,0,70,0,0
123401,-62.5,4,2,0,70,0,1
126526,-62.5,4,2,0,60,0,1
136318,-62.5,4,2,0,60,0,0
136526,-62.5,4,2,0,20,0,0
136734,-62.5,4,2,0,40,0,0
136943,-166.666666666667,4,2,0,40,0,0
138818,-166.666666666667,4,2,0,50,0,0
140276,-166.666666666667,4,2,0,60,0,0
141734,-166.666666666667,4,2,0,40,0,0
142706,-166.666666666667,4,2,0,60,0,0
144234,-83.3333333333333,4,2,0,60,0,0
145484,-55.5555555555556,4,2,0,60,0,1
145901,-71.4285714285714,4,2,0,60,0,0
151943,-83.3333333333333,4,2,0,60,0,0
155068,-125,4,2,0,60,0,0
155693,-125,4,2,0,50,0,0
155901,-200,4,2,0,50,0,0
160484,-333.333333333333,4,2,0,50,0,0
167984,-333.333333333333,4,2,0,60,0,0
168401,-100,4,1,0,60,0,0

[Colours]
Combo1 : 175,204,220
Combo2 : 160,211,175
Combo3 : 237,206,150

[HitObjects]
382,46,70,6,0,P|431:79|388:73,1,170,6|0,1:0|0:0,0:0:0:0:
236,112,695,5,2,0:0:0:0:
231,91,799,1,2,0:0:0:0:
226,70,903,1,0,0:0:0:0:
177,225,1111,1,2,0:0:0:0:
196,301,1320,1,2,0:0:0:0:
139,355,1528,1,0,0:0:0:0:
350,358,1736,1,10,1:0:0:0:
368,330,2049,5,0,0:0:0:0:
412,341,2153,2,0,P|435:346|397:302,1,170,6|0,1:0|0:0,0:0:0:0:
368,330,2986,5,0,0:0:0:0:
373,309,3090,1,2,0:0:0:0:
378,288,3194,1,0,0:0:0:0:
383,267,3299,1,2,0:0:0:0:
388,246,3403,1,6,1:0:0:0:
266,184,3611,1,8,1:3:0:0:
476,193,3820,1,4,1:3:0:0:
437,114,4028,5,0,0:0:0:0:
442,93,4132,1,0,0:0:0:0:
447,72,4236,1,0,1:0:0:0:
289,130,4445,1,0,1:0:0:0:
308,206,4654,1,4,1:3:0:0:
251,260,4862,1,0,0:0:0:0:
130,125,5070,1,10,1:1:0:0:
251,260,5382,5,0,0:0:0:0:
292,275,5486,2,0,P|311:282|252:224,1,425,6|2,1:0|0:0,0:0:0:0:
137,295,6736,5,2,0:0:0:0:
210,289,6945,1,0,0:0:0:0:
58,211,7153,1,2,0:0:0:0:
131,217,7362,1,2,0:0:0:0:
58,211,7778,5,0,0:0:0:0:
131,217,7987,1,2,0:0:0:0:
199,241,8195,1,2,0:0:0:0:
137,295,8403,1,2,0:0:0:0:
339,384,9028,2,0,L|342:326,2,42.5,4|0|4,0:3|0:0|3:0,0:0:0:0:
434,351,10070,5,4,1:0:0:0:
418,243,10278,5,2,0:3:0:0:
406,244,10382,1,0,0:0:0:0:
395,245,10486,1,8,0:0:0:0:
384,245,10590,1,0,0:0:0:0:
373,243,10694,1,0,0:0:0:0:
362,241,10798,1,8,0:0:0:0:
351,237,10902,1,0,0:0:0:0:
393,153,11111,5,0,0:0:0:0:
202,159,11320,1,8,0:0:0:0:
88,205,11528,5,0,0:0:0:0:
279,199,11737,1,0,1:0:0:0:
88,205,11945,5,2,0:3:0:0:
99,203,12049,1,0,0:0:0:0:
110,202,12153,1,8,0:0:0:0:
121,202,12257,1,0,0:0:0:0:
132,204,12361,1,0,0:0:0:0:
143,206,12465,1,8,0:0:0:0:
154,210,12569,1,0,0:0:0:0:
116,288,12778,5,0,0:0:0:0:
307,282,12987,1,8,0:0:0:0:
421,236,13195,5,0,0:0:0:0:
230,242,13404,1,0,0:0:0:0:
421,236,13611,5,2,0:3:0:0:
425,225,13715,1,0,0:0:0:0:
427,214,13819,1,8,0:0:0:0:
429,203,13923,1,0,0:0:0:0:
429,192,14027,1,0,0:0:0:0:
428,181,14131,1,8,0:0:0:0:
426,170,14235,1,0,0:0:0:0:
344,191,14445,5,0,0:0:0:0:
153,197,14654,1,8,0:0:0:0:
39,243,14862,5,0,0:0:0:0:
153,197,15070,1,0,0:0:0:0:
213,104,15278,5,8,0:0:0:0:
211,87,15382,1,0,2:0:0:0:
209,70,15486,1,8,0:0:0:0:
316,63,15695,5,0,0:0:0:0:
317,46,15799,1,0,0:0:0:0:
319,29,15903,1,8,0:3:0:0:
196,90,16111,5,4,0:3:0:0:
194,73,16215,1,0,0:0:0:0:
192,56,16319,1,4,0:3:0:0:
333,49,16528,5,4,0:3:0:0:
335,32,16632,1,4,0:3:0:0:
337,15,16736,1,4,1:0:0:0:
460,208,16945,5,2,0:3:0:0:
380,261,17153,2,0,P|346:259|305:272,1,68,8|0,0:0|0:0,0:0:0:0:
100,204,17570,2,0,P|158:202|258:193,1,136,0|8,0:0|0:0,0:0:0:0:
305,123,18195,5,0,0:0:0:0:
246,194,18403,2,0,P|184:206|90:212,1,136,0|8,0:0|0:0,0:0:0:0:
15,187,19028,5,0,0:0:0:0:
103,211,19236,2,0,P|155:220|240:227,1,136,0|8,0:0|0:0,0:0:0:0:
48,114,19861,5,0,0:0:0:0:
93,208,20070,2,0,P|146:238|228:271,1,136,0|8,0:0|0:0,0:0:0:0:
300,291,20695,5,0,0:0:0:0:
372,300,20903,2,0,P|326:301|208:314,1,136,0|8,0:0|0:0,0:0:0:0:
41,340,21528,6,0,P|92:335|123:328,1,68,0|0,0:0|0:0,0:0:0:0:
119,318,21840,1,0,0:0:0:0:
125,302,21945,1,0,0:0:0:0:
114,288,22049,1,0,0:0:0:0:
97,288,22153,1,8,0:0:0:0:
88,79,22361,6,0,P|85:54|80:32,1,42.5,4|0,0:2|2:0,0:0:0:0:
35,157,22570,2,0,L|159:161,1,85,8|0,0:0|0:0,0:0:0:0:
321,180,22986,5,8,0:0:0:0:
342,179,23090,1,8,0:3:0:0:
363,178,23194,1,4,0:3:0:0:
384,177,23298,1,4,0:3:0:0:
405,177,23402,1,4,0:0:0:0:
478,112,23611,5,2,0:3:0:0:
404,68,23820,1,8,0:0:0:0:
319,76,24028,1,0,0:0:0:0:
310,80,24132,2,0,L|260:72,1,34,8|0,0:0|0:0,0:0:0:0:
103,94,24340,2,0,L|70:100,1,34,0|0,0:0|0:0,0:0:0:0:
183,112,24549,1,0,0:0:0:0:
192,114,24653,1,8,0:0:0:0:
130,314,24861,1,0,0:0:0:0:
173,233,25070,6,0,B|105:229|105:229|36:275,1,136,0|8,0:0|0:0,0:0:0:0:
130,314,25695,1,0,0:0:0:0:
139,318,25799,2,0,L|189:310,1,34,8|0,0:0|0:0,0:0:0:0:
345,332,26007,2,0,L|379:338,1,34,0|2,0:0|0:2,0:0:0:0:
253,333,26215,1,0,0:0:0:0:
260,340,26320,2,0,L|268:252,1,68,8|0,0:0|0:0,0:0:0:0:
251,166,26736,6,0,B|354:178|354:178|301:195,1,136,0|8,0:0|0:0,0:0:0:0:
161,186,27361,2,0,L|117:188,1,34,0|8,0:0|0:0,0:0:0:0:
157,101,27570,1,0,0:0:0:0:
176,102,27674,1,0,0:0:0:0:
197,103,27778,1,0,0:0:0:0:
354,109,27986,1,8,0:0:0:0:
323,187,28195,1,0,0:0:0:0:
246,36,28403,6,0,L|331:32,1,85,4|8,0:2|1:3,0:0:0:0:
211,52,28820,1,4,0:3:0:0:
169,34,28924,1,0,0:0:0:0:
133,55,29028,1,0,0:0:0:0:
119,84,29132,1,0,0:0:0:0:
123,105,29236,1,8,0:0:0:0:
126,119,29340,1,8,0:0:0:0:
128,133,29444,1,4,0:3:0:0:
129,147,29548,1,4,0:3:0:0:
128,161,29653,2,0,L|71:165,1,42.5,4|2,0:3|1:2,0:0:0:0:
85,163,30070,5,4,1:0:0:0:
373,181,30278,5,0,0:0:0:0:
394,182,30382,1,0,0:0:0:0:
415,184,30486,1,8,1:0:0:0:
357,104,30695,2,0,P|317:117|278:134,1,85,0|0,1:0|0:0,0:0:0:0:
373,181,31111,5,8,1:0:0:0:
394,182,31215,1,0,0:0:0:0:
415,184,31320,2,0,B|457:171|457:171|438:124|388:93|325:108,1,170,0|8,1:0|3:0,0:0:0:0:
344,312,31945,1,0,3:0:0:0:
288,246,32153,6,0,P|280:205|279:163,1,85,0|0,1:0|1:0,0:0:0:0:
282,150,32465,1,0,0:0:0:0:
279,137,32570,1,12,1:0:0:0:
91,146,32778,5,4,1:3:0:0:
272,128,32986,1,8,1:3:0:0:
168,170,33195,1,8,1:3:0:0:
174,352,33403,1,4,1:0:0:0:
115,286,33611,5,8,1:0:0:0:
113,275,33715,1,0,0:0:0:0:
112,264,33819,1,0,3:0:0:0:
174,352,34028,2,0,P|194:300|201:267,1,85,0|8,1:0|1:0,0:0:0:0:
185,237,34549,6,0,P|183:215|182:194,1,42.5,0|0,3:0|1:0,0:0:0:0:
252,77,34861,1,8,1:0:0:0:
252,77,35070,1,0,1:0:0:0:
462,71,35278,5,8,1:0:0:0:
459,113,35382,1,8,1:3:0:0:
457,155,35486,1,8,1:3:0:0:
474,264,35695,1,4,1:3:0:0:
339,235,35903,5,0,1:0:0:0:
399,312,36112,1,4,1:3:0:0:
260,269,36320,5,4,1:3:0:0:
281,293,36424,1,4,0:3:0:0:
302,316,36528,1,4,0:3:0:0:
323,340,36632,1,4,0:3:0:0:
342,363,36736,1,4,1:0:0:0:
224,366,36945,5,0,0:0:0:0:
94,351,37153,1,8,0:0:0:0:
207,202,37361,1,0,0:0:0:0:
117,224,37570,2,0,P|77:237|40:257,2,85,0|0|8,0:0|0:0|0:0,0:0:0:0:
107,95,38195,5,0,0:0:0:0:
117,113,38299,1,8,2:3:0:0:
127,132,38403,2,0,L|316:136,1,170,0|8,0:0|0:0,0:0:0:0:
244,22,39028,1,0,0:0:0:0:
327,37,39236,2,0,P|367:49|404:69,2,85,0|0|8,0:0|0:0|0:0,0:0:0:0:
487,118,39861,5,0,0:0:0:0:
397,85,40070,2,0,P|392:161|392:272,1,170,0|8,0:0|0:0,0:0:0:0:
484,348,40695,1,0,0:0:0:0:
354,284,40903,2,0,P|365:324|385:362,1,85,0|0,0:0|0:0,0:0:0:0:
334,294,41320,2,0,P|354:329|384:361,1,85,8|0,0:0|0:0,0:0:0:0:
385,362,41736,5,4,0:2:0:0:
56,282,42049,1,8,0:0:0:0:
54,261,42153,1,8,0:0:0:0:
143,284,42361,5,4,0:0:0:0:
53,178,42778,1,8,0:3:0:0:
151,258,42986,1,4,0:3:0:0:
276,245,43195,1,8,0:3:0:0:
196,188,43403,6,0,L|184:87,1,85,4|8,0:2|0:0,0:0:0:0:
151,258,43820,1,8,0:0:0:0:
108,154,44028,1,4,0:2:0:0:
49,304,44445,5,4,0:3:0:0:
148,281,44653,2,0,P|216:267|350:294,1,170,4|0,1:0|0:0,0:0:0:0:
190,211,45278,2,0,P|252:220|297:209,1,85,0|0,0:0|3:0,0:0:0:0:
288,208,45590,1,0,3:0:0:0:
296,193,45695,1,4,3:0:0:0:
301,176,45799,1,4,3:0:0:0:
301,159,45903,1,4,3:0:0:0:
324,177,46007,1,0,3:0:0:0:
407,201,46320,5,2,1:3:0:0:
412,171,46424,1,0,3:0:0:0:
406,141,46528,1,0,3:0:0:0:
387,117,46632,1,0,3:0:0:0:
363,99,46736,2,0,P|363:45|342:10,1,85,4|0,1:2|2:0,0:0:0:0:
224,24,47049,5,8,1:0:0:0:
236,52,47153,2,0,P|236:106|215:141,2,85,8|4|8,1:0|1:2|0:0,0:0:0:0:
136,188,47778,5,4,0:3:0:0:
79,134,47986,2,0,B|37:169|42:255|120:279|144:265|144:265|181:296,1,212.5,4|0,1:0|0:0,0:0:0:0:
197,339,48611,6,0,P|251:347|307:361,1,85,0|4,0:0|0:3,0:0:0:0:
294,339,48924,2,0,P|264:296|230:225,1,127.5,4|8,0:3|0:0,0:0:0:0:
261,227,49340,1,8,0:0:0:0:
290,225,49445,1,0,0:0:0:0:
319,224,49549,1,0,0:0:0:0:
348,223,49653,1,0,0:0:0:0:
354,207,49757,1,0,0:0:0:0:
356,190,49861,1,0,0:0:0:0:
355,173,49965,1,0,0:0:0:0:
351,156,50070,1,4,0:2:0:0:
351,156,50695,5,4,0:0:0:0:
68,153,51320,1,4,0:2:0:0:
68,153,51945,5,4,0:0:0:0:
246,201,52570,1,4,0:2:0:0:
246,201,53403,5,4,0:0:0:0:
464,206,55070,1,2,2:0:0:0:
464,206,56736,5,0,3:0:0:0:
131,115,66111,5,0,0:0:0:0:
131,115,66215,1,0,0:0:0:0:
131,115,66320,2,0,P|131:87|122:46,1,63.75,2|0,1:2|0:0,0:0:0:0:
54,126,66736,6,0,P|117:144|214:151,1,118.999996368408,4|2,1:0|1:2,0:0:0:0:
337,27,67153,2,0,P|402:25|498:44,1,118.999996368408,0|2,1:0|1:2,0:0:0:0:
261,238,67570,2,0,P|276:301|319:389,1,118.999996368408,0|0,1:0|0:0,0:0:0:0:
465,221,67986,5,0,1:0:0:0:
435,222,68090,1,0,0:0:0:0:
405,222,68194,1,2,1:2:0:0:
375,219,68298,1,0,0:0:0:0:
346,214,68402,1,0,1:0:0:0:
428,66,68611,2,0,P|319:97|266:105,1,118.999996368408,2|0,1:2|1:0,0:0:0:0:
274,341,69028,2,0,P|192:262|159:220,1,118.999996368408,2|0,1:2|1:0,0:0:0:0:
168,56,69445,2,0,P|108:53|49:57,1,118.999996368408,2|0,1:2|1:0,0:0:0:0:
37,272,69861,5,2,1:2:0:0:
64,261,69965,1,0,0:0:0:0:
90,247,70069,1,0,1:0:0:0:
35,138,70278,1,2,1:2:0:0:
189,213,70486,2,0,P|177:284|171:340,1,118.999996368408,0|2,1:0|1:2,0:0:0:0:
323,171,70903,2,0,P|335:100|341:44,1,118.999996368408,0|0,1:0|0:0,0:0:0:0:
294,273,71320,5,0,1:0:0:0:
327,293,71424,1,0,0:0:0:0:
366,297,71528,1,2,1:2:0:0:
403,284,71632,1,0,0:0:0:0:
432,256,71736,1,0,1:0:0:0:
249,189,71945,5,2,1:2:0:0:
354,207,72153,1,0,1:0:0:0:
241,19,72361,6,0,P|215:17|183:11,3,39.6666654561361,2|2|2|0,1:2|0:0|0:0|1:0,0:0:0:0:
173,232,72778,2,0,P|153:233|134:236,3,39.6666654561361,0|0|0|4,1:0|0:0|0:0|1:3,0:0:0:0:
160,98,73195,5,0,1:0:0:0:
144,116,73299,1,0,1:0:0:0:
137,140,73403,2,0,P|179:83|163:-5,1,118.999996368408,4|0,1:0|0:0,0:0:0:0:
67,81,73715,1,2,0:0:0:0:
56,113,73820,1,0,1:0:0:0:
271,44,74028,1,2,1:2:0:0:
236,255,74236,6,0,P|247:178|241:115,1,118.999996368408,0|0,1:0|0:0,0:0:0:0:
181,36,74549,1,2,0:0:0:0:
197,63,74653,1,0,1:0:0:0:
271,44,74861,1,2,1:2:0:0:
350,150,75070,6,0,P|362:243|367:308,1,118.999996368408,0|2,1:0|1:2,0:0:0:0:
302,323,75382,1,0,1:0:0:0:
309,355,75486,2,0,P|321:262|326:197,1,118.999996368408,0|2,1:0|1:2,0:0:0:0:
453,102,75903,6,0,P|398:82|370:32,1,118.999996368408,0|2,1:0|1:2,0:0:0:0:
164,222,76320,2,0,P|219:202|248:152,1,118.999996368408,0|2,1:0|1:2,0:0:0:0:
34,213,76736,5,0,1:0:0:0:
60,136,76945,1,0,0:0:0:0:
60,136,77049,1,2,0:0:0:0:
60,136,77153,1,0,1:0:0:0:
8,245,77361,6,0,L|16:388,1,118.999996368408,2|0,1:2|1:0,0:0:0:0:
123,356,77778,1,0,0:0:0:0:
123,356,77882,1,2,0:0:0:0:
123,356,77986,1,0,1:0:0:0:
175,247,78195,6,0,L|183:104,1,118.999996368408,2|4,1:2|1:3,0:0:0:0:
213,33,78507,1,0,1:0:0:0:
239,46,78611,1,8,1:3:0:0:
268,51,78715,1,0,1:0:0:0:
297,48,78820,1,8,1:3:0:0:
263,129,79028,1,4,1:3:0:0:
175,247,79236,1,4,1:2:0:0:
465,277,79653,5,2,0:1:0:0:
175,247,80070,1,6,1:0:0:0:
390,263,80486,5,2,1:3:0:0:
245,278,80695,1,8,1:3:0:0:
448,352,81111,6,0,P|376:336|353:334,1,85,8|6,1:3|1:3,0:0:0:0:
211,367,81528,2,0,P|281:344|302:335,1,85,4|4,1:3|1:2,0:0:0:0:
465,277,82153,5,4,1:3:0:0:
444,270,82257,1,0,1:0:0:0:
423,266,82361,1,4,1:3:0:0:
172,257,82570,2,0,P|256:252|336:222,1,170,4|4,1:3|0:3,0:0:0:0:
352,209,83090,1,4,0:3:0:0:
364,191,83195,1,4,0:3:0:0:
364,191,83611,5,0,1:0:0:0:
364,169,83715,1,0,1:0:0:0:
364,147,83820,1,0,1:0:0:0:
138,32,84028,2,0,L|146:127,1,85,4|4,0:3|1:2,0:0:0:0:
145,116,84514,6,0,L|132:153,2,28.3333333333333,0|8|4,0:0|0:3|1:3,0:0:0:0:
219,75,84757,2,0,L|218:32,1,42.5,4|4,1:3|1:2,0:0:0:0:
418,301,85278,6,0,L|410:335,2,34,0|0|2,0:0|0:0|0:0,0:0:0:0:
464,216,85695,1,2,0:0:0:0:
427,306,85903,2,0,P|357:320|298:314,1,102,0|2,0:0|0:0,0:0:0:0:
271,249,86320,2,0,P|201:235|142:241,1,102,0|2,0:0|0:0,0:0:0:0:
115,306,86736,2,0,P|45:320|-14:314,1,102,0|2,0:0|0:0,0:0:0:0:
54,231,87153,5,0,0:0:0:0:
30,194,87292,2,0,P|28:158|35:123,1,45.3333333333333,2|0,0:0|0:0,0:0:0:0:
101,60,87570,2,0,P|104:83|103:106,1,45.3333333333333,2|0,0:0|0:0,0:0:0:0:
169,163,87847,2,0,P|181:144|191:124,1,45.3333333333333,2|0,0:0|0:0,0:0:0:0:
199,233,88125,1,2,0:0:0:0:
237,218,88264,1,0,0:0:0:0:
262,182,88403,2,0,P|281:139|258:55,1,136,2|4,0:0|1:2,0:0:0:0:
259,57,89236,6,0,P|331:79|263:117,1,178.499994552612,4|0,1:0|0:0,0:0:0:0:
189,124,89652,1,2,1:3:0:0:
287,244,89861,2,0,P|358:251|502:300,1,203.999993774414,8|8,1:3|1:3,0:0:0:0:
157,384,90486,1,4,1:3:0:0:
226,333,90694,2,0,P|280:328|315:333,1,85,4|4,1:3|1:2,0:0:0:0:
179,92,95068,5,0,0:0:0:0:
264,98,95345,6,0,P|274:73|297:47,1,33.9999989624024,2|0,0:0|0:0,0:0:0:0:
358,49,95623,1,2,0:0:0:0:
375,234,95762,2,0,P|364:248|352:260,1,33.9999989624024,0|0,0:0|0:0,0:0:0:0:
201,275,96040,1,0,0:0:0:0:
224,295,96179,2,0,P|253:303|298:309,2,67.9999979248048,2|2|0,0:0|0:0|0:0,0:0:0:0:
201,275,97012,6,0,L|110:293,1,67.9999979248048,2|2,0:0|0:0,0:0:0:0:
45,269,97568,1,0,0:0:0:0:
107,199,98401,5,0,0:0:0:0:
314,322,98679,6,0,P|310:277|306:267,1,33.9999989624024,2|0,0:0|0:0,0:0:0:0:
227,64,98956,1,2,0:0:0:0:
195,145,99095,2,0,L|220:201,1,33.9999989624024,0|0,0:0|0:0,0:0:0:0:
264,233,99373,1,0,0:0:0:0:
380,102,99512,2,0,P|387:60|388:28,2,67.9999979248048,2|2|0,0:0|0:0|0:0,0:0:0:0:
275,326,100345,6,0,L|191:320,1,67.9999979248048,2|2,0:0|0:0,0:0:0:0:
337,382,100901,1,0,0:0:0:0:
402,327,101734,5,0,0:0:0:0:
465,90,102012,5,2,0:0:0:0:
495,19,102151,1,0,0:0:0:0:
419,29,102290,1,2,0:0:0:0:
278,110,102429,2,0,P|230:106|219:104,1,33.9999989624024,0|0,0:0|0:0,0:0:0:0:
76,33,102706,1,0,0:0:0:0:
96,63,102845,2,0,P|108:98|111:131,2,67.9999979248048,2|2|2,0:0|0:0|0:0,0:0:0:0:
177,184,103540,6,0,P|217:221|225:223,1,33.9999989624024,0|2,0:0|0:0,0:0:0:0:
314,272,103818,1,0,0:0:0:0:
345,347,103956,1,2,0:0:0:0:
264,336,105068,5,0,0:0:0:0:
199,283,105345,5,2,0:0:0:0:
169,212,105484,1,0,0:0:0:0:
245,222,105623,1,2,0:0:0:0:
70,340,105762,2,0,P|40:328|24:321,1,33.9999989624024,0|0,0:0|0:0,0:0:0:0:
39,241,106040,1,0,0:0:0:0:
215,144,106179,2,0,P|253:128|289:99,2,67.9999979248048,2|2|0,0:0|0:0|0:0,0:0:0:0:
429,187,107012,6,0,L|497:184,1,67.9999979248048,0|2,0:0|0:0,0:0:0:0:
421,273,107568,1,0,0:0:0:0:
318,295,107845,1,0,0:0:0:0:
432,283,108123,2,0,P|454:245|460:224,1,56.6666666666667,0|0,0:0|0:0,0:0:0:0:
256,192,113401,12,2,117151,0:0:0:0:
485,19,118401,5,4,1:2:0:0:
366,148,120068,6,0,L|332:143,1,25.4999992218018,2|0,0:0|0:0,0:0:0:0:
277,190,120276,2,0,L|251:193,1,25.4999992218018,2|0,0:0|0:0,0:0:0:0:
434,241,120484,6,0,L|478:257,3,25.4999992218018,2|0|2|0,0:0|0:0|0:0|0:0,0:0:0:0:
354,127,120901,6,0,L|327:105,1,25.4999992218018,2|0,0:0|0:0,0:0:0:0:
255,118,121109,2,0,L|231:108,1,25.4999992218018,2|0,0:0|0:0,0:0:0:0:
148,156,121317,6,0,L|117:191,3,25.4999992218018,2|0|2|0,0:0|0:0|0:0|0:0,0:0:0:0:
195,238,121734,5,0,1:0:0:0:
210,237,121838,1,0,1:0:0:0:
226,234,121942,1,0,1:0:0:0:
242,231,122046,1,0,1:0:0:0:
257,225,122150,1,0,1:0:0:0:
271,219,122254,1,0,1:0:0:0:
285,211,122359,1,0,1:0:0:0:
298,202,122463,1,0,1:0:0:0:
312,194,122568,6,0,P|328:163|332:147,1,42.5,4|0,0:3|0:0,0:0:0:0:
232,59,122776,2,0,P|216:90|212:106,1,42.5,4|0,0:3|0:0,0:0:0:0:
309,208,122984,6,0,P|333:182|341:168,1,42.5,4|0,0:3|0:0,0:0:0:0:
267,57,123192,2,0,P|243:83|235:97,1,42.5,0|0,1:0|0:0,0:0:0:0:
331,338,123401,5,6,1:2:0:0:
350,310,123505,1,0,0:0:0:0:
364,279,123609,1,0,1:0:0:0:
370,245,123713,1,0,0:0:0:0:
363,211,123818,6,0,P|348:148|347:117,3,68,2|0|0|0,1:2|0:0|0:0|0:0,0:0:0:0:
243,72,124234,5,2,1:2:0:0:
245,88,124338,1,0,0:0:0:0:
246,105,124443,2,0,P|241:162|231:189,1,68,0|0,1:2|0:0,0:0:0:0:
90,76,124651,5,2,1:2:0:0:
77,107,124755,1,0,0:0:0:0:
72,141,124859,1,0,0:0:0:0:
75,175,124963,1,0,0:0:0:0:
85,206,125068,5,2,1:2:0:0:
98,237,125172,1,0,0:0:0:0:
103,271,125276,1,0,1:0:0:0:
100,305,125380,1,0,0:0:0:0:
90,336,125484,6,0,P|40:329|5:336,1,68,2|0,1:2|0:0,0:0:0:0:
177,312,125693,2,0,P|208:272|219:238,1,68,0|0,0:0|0:0,0:0:0:0:
26,234,125901,2,0,P|30:164|59:91,1,136,2|0,1:2|1:0,0:0:0:0:
78,83,126179,2,0,P|92:63|99:43,2,45.3333333333333,0|0|2,0:0|0:0|1:2,0:0:0:0:
78,83,126526,1,4,0:3:0:0:
100,275,126734,5,6,1:2:0:0:
133,282,126838,1,0,0:0:0:0:
166,286,126942,1,0,1:0:0:0:
200,285,127046,1,0,0:0:0:0:
234,280,127151,6,0,P|262:262|294:249,3,68,2|0|0|0,1:2|0:0|0:0|0:0,0:0:0:0:
480,327,127568,5,2,1:2:0:0:
463,329,127672,1,0,0:0:0:0:
447,330,127777,2,0,P|390:325|363:315,1,68,0|0,1:2|0:0,0:0:0:0:
402,224,127984,5,2,1:2:0:0:
421,197,128088,1,0,0:0:0:0:
420,163,128192,1,0,0:0:0:0:
399,137,128296,1,0,0:0:0:0:
367,130,128401,5,2,1:2:0:0:
334,122,128505,1,0,0:0:0:0:
313,96,128609,1,0,1:2:0:0:
312,63,128713,1,0,0:0:0:0:
332,36,128818,6,0,P|378:61|386:81,3,68,2|0|0|0,1:2|0:0|0:0|0:0,0:0:0:0:
146,26,129234,6,0,L|60:30,1,68,6|0,1:2|0:0,0:0:0:0:
27,90,129443,1,0,1:0:0:0:
32,123,129547,1,0,1:0:0:0:
38,157,129651,1,0,1:0:0:0:
43,190,129755,1,0,1:0:0:0:
49,224,129859,1,0,1:0:0:0:
54,257,129963,1,0,1:0:0:0:
60,291,130068,6,0,P|93:315|120:354,3,68,4|0|2|0,1:2|0:0|1:2|0:0,0:0:0:0:
222,308,130484,5,0,0:0:0:0:
207,277,130588,1,0,1:0:0:0:
187,249,130692,1,2,1:2:0:0:
162,227,130796,1,0,0:0:0:0:
133,209,130901,6,0,P|112:169|83:146,1,68,0|0,1:0|0:0,0:0:0:0:
71,78,131109,2,0,P|104:78|136:90,1,68,2|0,1:2|0:0,0:0:0:0:
234,166,131318,6,0,P|235:120|222:86,1,68,0|0,0:0|1:0,0:0:0:0:
245,21,131526,2,0,P|273:37|295:63,1,68,2|0,1:2|0:0,0:0:0:0:
370,105,131734,5,0,1:0:0:0:
372,138,131838,1,0,0:0:0:0:
383,171,131942,1,2,1:2:0:0:
401,199,132046,1,0,0:0:0:0:
425,223,132151,5,0,0:0:0:0:
449,246,132255,1,0,1:0:0:0:
467,275,132359,1,2,1:2:0:0:
477,307,132463,1,0,0:0:0:0:
480,341,132568,6,0,P|403:353|297:326,1,136,0|2,1:0|1:2,0:0:0:0:
321,327,132845,2,0,P|280:322|253:323,2,45.3333333333333,0|0|2,0:0|1:0|0:0,0:0:0:0:
204,292,133088,5,0,1:0:0:0:
165,298,133193,1,4,1:2:0:0:
365,240,133401,5,0,1:0:0:0:
398,229,133505,1,0,0:0:0:0:
431,223,133609,1,2,1:2:0:0:
465,220,133713,1,0,0:0:0:0:
499,222,133818,2,0,P|511:293|505:318,3,68,0|0|2|0,0:0|1:0|1:2|0:0,0:0:0:0:
372,129,134234,5,0,1:0:0:0:
388,127,134338,1,0,0:0:0:0:
405,126,134443,2,0,P|462:131|489:141,1,68,2|0,1:2|0:0,0:0:0:0:
311,75,134651,5,0,0:0:0:0:
280,90,134755,1,0,1:0:0:0:
248,102,134859,1,2,1:2:0:0:
215,110,134963,1,0,0:0:0:0:
182,113,135068,5,0,1:0:0:0:
148,116,135172,1,0,0:0:0:0:
115,124,135276,1,2,1:2:0:0:
83,136,135380,1,0,0:0:0:0:
53,151,135484,6,0,P|36:115|42:73,1,68,0|0,0:0|1:0,0:0:0:0:
136,205,135692,2,0,P|119:241|125:283,1,68,2|0,1:2|0:0,0:0:0:0:
280,288,135901,5,0,1:0:0:0:
303,266,136005,1,0,0:0:0:0:
298,317,136109,1,2,1:2:0:0:
321,295,136213,1,2,1:2:0:0:
343,343,136318,6,0,P|426:351|492:368,2,136,4|4|4,0:3|0:3|0:3,0:0:0:0:
216,349,136943,5,2,0:3:0:0:
216,349,137047,1,0,0:0:0:0:
216,349,137151,1,12,0:3:0:0:
138,301,137359,5,2,0:3:0:0:
138,301,137463,1,0,0:0:0:0:
138,301,137567,1,4,0:3:0:0:
218,257,137776,5,10,0:3:0:0:
218,257,137880,1,0,0:0:0:0:
218,257,137984,1,4,1:3:0:0:
262,178,138193,2,0,L|253:105,1,50.9999984436036,0|4,1:3|0:3,0:0:0:0:
80,81,138609,5,10,0:3:0:0:
84,58,138713,1,0,0:0:0:0:
88,35,138818,1,4,0:3:0:0:
149,147,139026,5,2,0:3:0:0:
128,154,139130,1,0,0:0:0:0:
106,162,139234,1,4,0:3:0:0:
172,54,139443,5,2,0:3:0:0:
189,68,139547,1,8,0:3:0:0:
207,83,139652,1,4,0:3:0:0:
220,206,139859,2,0,L|229:279,1,50.9999984436036,2|4,0:3|0:3,0:0:0:0:
315,38,140276,5,10,0:3:0:0:
312,71,140380,1,0,0:0:0:0:
310,105,140484,1,4,0:3:0:0:
306,258,140693,5,2,0:3:0:0:
303,224,140797,1,0,0:0:0:0:
301,190,140901,1,4,0:3:0:0:
297,38,141109,5,2,0:3:0:0:
294,72,141213,1,0,1:0:0:0:
292,106,141317,1,2,1:2:0:0:
269,100,141422,1,2,1:2:0:0:
246,102,141526,1,2,1:3:0:0:
225,111,141630,1,0,1:0:0:0:
207,125,141734,6,0,L|199:155,23,16.9999994812012,2|0|0|0|0|0|0|0|0|0|0|0|0|0|0|0|0|0|0|0|0|0|0|0,1:2|0:0|0:0|0:0|0:0|0:0|0:0|0:0|0:0|0:0|0:0|0:0|0:0|0:0|0:0|0:0|0:0|0:0|0:0|0:0|0:0|0:0|0:0|0:0,0:0:0:0:
136,190,143401,6,0,L|116:170,2,16.9999994812012,4|0|0,1:2|0:0|0:0,0:0:0:0:
144,221,143609,2,0,L|117:213,2,16.9999994812012,0|0|0,0:0|0:0|0:0,0:0:0:0:
167,244,143818,2,0,L|140:251,2,16.9999994812012,0|0|0,0:0|0:0|0:0,0:0:0:0:
197,251,144026,2,0,L|177:270,2,16.9999994812012,0|0|0,0:0|0:0|0:0,0:0:0:0:
270,208,144234,6,0,L|280:247,2,33.9999989624024,2|0|0,1:2|0:0|0:0,0:0:0:0:
341,177,144443,2,0,L|351:137,2,33.9999989624024,8|4|4,1:3|1:3|0:3,0:0:0:0:
412,208,144651,2,0,L|422:248,2,33.9999989624024,4|4|4,1:3|0:3|0:3,0:0:0:0:
483,177,144859,6,0,L|493:137,3,33.9999989624024,4|0|0|4,0:3|0:0|0:0|0:3,0:0:0:0:
418,116,145276,5,0,0:0:0:0:
200,272,145484,2,0,P|151:176|163:90,1,152.999995330811,4|0,1:2|0:0,0:0:0:0:
483,69,145901,5,0,1:0:0:0:
488,177,146109,2,0,P|418:206|346:216,1,118.999996368408,0|2,0:0|2:0,0:0:0:0:
223,50,146526,2,0,P|153:21|81:11,2,118.999996368408,0|0|0,0:0|1:0|0:0,0:0:0:0:
307,270,147151,1,2,2:0:0:0:
286,176,147359,2,0,P|306:109|306:38,2,118.999996368408,0|0|0,0:0|1:0|0:0,0:0:0:0:
52,346,147984,2,0,P|60:239|68:197,1,118.999996368408,2|0,1:2|0:0,0:0:0:0:
348,332,148401,5,0,1:0:0:0:
425,355,148609,1,0,0:0:0:0:
354,290,148818,2,0,P|287:298|207:333,1,118.999996368408,2|0,2:0|0:0,0:0:0:0:
191,384,149234,1,0,1:0:0:0:
119,317,149443,1,0,0:0:0:0:
114,302,149547,1,0,0:0:0:0:
110,288,149651,1,6,2:0:0:0:
149,103,149859,1,8,0:3:0:0:
125,174,150068,1,0,0:0:0:0:
229,84,150276,5,2,1:2:0:0:
223,54,150380,1,0,0:0:0:0:
217,25,150484,1,4,1:2:0:0:
314,43,150693,2,0,L|302:182,1,118.999996368408,4|4,0:3|0:2,0:0:0:0:
396,24,151109,1,2,0:0:0:0:
374,215,151318,1,4,0:3:0:0:
377,229,151422,1,0,0:0:0:0:
381,243,151526,1,2,0:0:0:0:
385,258,151630,1,0,0:0:0:0:
388,272,151734,1,0,1:0:0:0:
480,281,151943,5,0,0:0:0:0:
498,185,152151,2,0,P|493:109|480:62,1,101.999996887207,8|2,1:1|0:0,0:0:0:0:
303,275,152568,2,0,P|298:351|285:398,2,101.999996887207,0|0|8,1:0|0:0|1:1,0:0:0:0:
379,117,153193,2,0,P|304:129|275:105,1,101.999996887207,2|0,0:0|1:0,0:0:0:0:
282,12,153609,1,0,0:0:0:0:
244,187,153818,1,8,1:0:0:0:
202,111,154026,2,0,P|131:115|81:134,1,101.999996887207,0|0,0:0|1:0,0:0:0:0:
9,315,154443,5,8,1:0:0:0:
93,286,154651,1,8,1:0:0:0:
177,257,154859,1,4,1:3:0:0:
133,357,155068,6,0,B|168:369|217:361|235:355|261:332|261:332|288:342|321:352|355:333|333:290|302:319,1,238,4|0,1:0|0:0,0:0:0:0:
402,353,155901,2,0,B|420:295|392:235|328:227|292:241|292:241|319:221|363:197|363:197|317:190|274:164|262:97|300:40|349:47,1,510,4|0,1:2|0:0,0:0:0:0:
502,241,159026,2,0,B|464:251|404:236|401:232|398:228|329:215|276:248,1,212.5,2|0,0:0|0:0,0:0:0:0:
108,256,160380,5,0,0:0:0:0:
71,250,160484,2,0,B|64:232|63:147|70:134|87:145|96:182,1,140.24999571991,2|0,0:0|0:0,0:0:0:0:
108,256,161734,6,0,L|103:311,1,50.9999984436036,0|0,0:0|0:0,0:0:0:0:
182,237,162568,2,0,L|187:182,1,50.9999984436036,2|0,0:0|0:0,0:0:0:0:
265,256,163401,6,0,L|260:311,1,50.9999984436036,0|0,0:0|0:0,0:0:0:0:
339,237,164235,2,0,L|344:182,1,50.9999984436036,2|0,0:0|0:0,0:0:0:0:
430,170,165068,6,0,L|428:186,2,16.9999994812012,2|0|0,0:0|0:0|0:0,0:0:0:0:
499,123,165484,2,0,L|500:106,2,16.9999994812012,2|0|0,0:0|0:0|0:0,0:0:0:0:
426,71,165901,1,2,0:0:0:0:
410,67,166040,1,0,0:0:0:0:
394,68,166179,1,0,0:0:0:0:
379,73,166318,1,2,0:0:0:0:
365,79,166456,1,0,0:0:0:0:
349,80,166595,1,0,0:0:0:0:
333,77,166734,1,2,0:0:0:0:
318,72,166873,1,0,0:0:0:0:
302,72,167012,1,0,0:0:0:0:
286,74,167151,1,2,0:0:0:0:
271,79,167290,1,0,0:0:0:0:
257,86,167429,1,0,0:0:0:0:
242,90,167568,5,2,0:0:0:0:
168,69,167984,1,0,0:0:0:0:
113,14,168401,5,6,0:0:0:0:
206,268,168679,1,0,0:0:0:0:
316,232,168818,2,0,P|327:199|327:170,1,56.6666666666667,2|0,0:0|0:0,0:0:0:0:
250,188,169095,1,2,0:0:0:0:
408,329,169234,5,6,0:0:0:0:
222,333,169512,1,2,0:0:0:0:
338,374,169790,1,2,0:0:0:0:
415,98,170068,5,6,0:0:0:0:
324,243,170346,1,0,0:0:0:0:
284,323,170485,2,0,P|257:299|243:274,1,56.6666666666667,2|0,0:0|0:0,0:0:0:0:
178,45,170762,1,2,0:0:0:0:
168,133,170901,5,6,0:0:0:0:
147,213,171179,1,2,1:0:0:0:
126,293,171456,1,2,0:0:0:0:
39,45,171734,5,6,1:0:0:0:
31,326,172012,1,8,1:3:0:0:
150,219,172151,1,8,1:3:0:0:
206,160,172290,1,4,1:3:0:0:
229,237,172429,1,4,1:3:0:0:
349,318,172568,2,0,L|495:334,1,113.333333333333,4|4,1:3|1:3,0:0:0:0:
277,250,173123,1,4,1:3:0:0:
356,232,173401,1,8,1:0:0:0:
2,376,173818,5,4,0:3:0:0:
2,376,173922,1,4,0:3:0:0:
2,376,174026,1,4,0:3:0:0:
2,376,174130,1,4,0:3:0:0:
2,376,174234,1,4,0:3:0:0:
