osu file format v14

[General]
AudioFilename: Once Upon A Time.mp3
AudioLeadIn: 0
PreviewTime: 66215
Countdown: 0
SampleSet: Soft
StackLeniency: 0.6
Mode: 0
LetterboxInBreaks: 0
WidescreenStoryboard: 1

[Editor]
Bookmarks: 23501,80168,112110,123499,145166
DistanceSpacing: 1.1
BeatDivisor: 12
GridSize: 32
TimelineZoom: 4.387996

[Metadata]
Title:Once Upon A Time
TitleUnicode:Once Upon A Time
Artist:Warak
ArtistUnicode:Warak
Creator:Xilver
Version:PRO
Source:HIGH5
Tags:rhythm mobile game story telling undeadcapulet -pc
BeatmapID:1102951
BeatmapSetID:519154

[Difficulty]
HPDrainRate:6
CircleSize:4
OverallDifficulty:8
ApproachRate:9.3
SliderMultiplier:2
SliderTickRate:1

[Events]
//Background and Video events
0,0,"once upon a time.jpg",0,0
//Break Periods
2,91936,94515
//Storyboard Layer 0 (Background)
//Storyboard Layer 1 (Fail)
//Storyboard Layer 2 (Pass)
//Storyboard Layer 3 (Foreground)
//Storyboard Sound Samples

[TimingPoints]
70,416.666666666667,4,2,0,60,1,0
70,-83.3333333333333,4,2,0,60,0,0
1736,-71.4285714285714,4,2,0,60,0,0
2153,-83.3333333333333,4,2,0,60,0,0
2778,-125,4,2,0,60,0,0
2986,-100,4,2,0,60,0,0
3403,-100,4,2,0,60,0,0
5070,-83.3333333333333,4,2,0,60,0,0
5486,-125,4,2,0,60,0,0
7361,-125,4,2,0,60,0,0
7986,-125,4,2,0,30,0,0
8195,-125,4,2,0,40,0,0
8403,-125,4,2,0,60,0,0
9028,-125,4,2,0,40,0,0
9236,-100,4,2,0,40,0,0
9445,-100,4,2,0,50,0,0
10070,-100,4,1,0,60,0,0
16736,-100,4,1,0,60,0,0
22153,-90.9090909090909,4,1,0,60,0,0
22361,-100,4,1,0,60,0,0
22570,-62.5,4,1,0,60,0,0
23611,-100,4,1,0,60,0,0
28611,-83.3333333333333,4,1,0,60,0,0
28924,-100,4,1,0,60,0,0
29236,-76.9230769230769,4,1,0,60,0,0
30070,-76.9230769230769,4,2,0,60,0,0
30486,-83.3333333333333,4,2,0,60,0,0
31320,-200,4,2,0,60,0,0
32153,-100,4,2,0,60,0,0
32570,-200,4,2,0,60,0,0
32986,-100,4,2,0,60,0,0
33820,-83.3333333333333,4,2,0,60,0,0
34236,-200,4,2,0,60,0,0
34653,-100,4,2,0,60,0,0
35278,-76.9230769230769,4,2,0,60,0,0
35486,-58.8235294117647,4,2,0,60,0,0
35903,-66.6666666666667,4,2,0,60,0,0
36111,-76.9230769230769,4,2,0,60,0,0
36320,-90.9090909090909,4,2,0,60,0,0
36528,-111.111111111111,4,2,0,60,0,0
36736,-111.111111111111,4,1,0,60,0,0
36945,-100,4,1,0,60,0,0
41736,-66.6666666666667,4,1,0,60,0,0
42361,-125,4,1,0,60,0,0
43403,-83.3333333333333,4,1,0,60,0,0
44653,-142.857142857143,4,2,0,60,0,0
45695,-100,4,2,0,60,0,0
46111,-83.3333333333333,4,2,0,60,0,0
46736,-83.3333333333333,4,1,0,60,0,0
47986,-100,4,1,0,60,0,0
49028,-83.3333333333333,4,1,0,60,0,0
49445,-125,4,1,0,60,0,0
49653,-100,4,1,0,60,0,0
50695,-76.9230769230769,4,1,0,60,0,0
53403,-166.666666666667,4,1,0,60,0,0
56320,-125,4,2,0,60,0,0
56458,-125,4,2,0,5,0,0
56528,-125,4,2,0,60,0,0
56667,-125,4,2,0,5,0,0
56736,-125,4,2,0,60,0,0
56945,-125,4,2,0,40,0,0
61736,-111.111111111111,4,2,0,40,0,0
63820,-71.4285714285714,4,2,0,40,0,0
64653,-111.111111111111,4,2,0,40,0,0
65486,-71.4285714285714,4,2,0,60,0,0
66320,-200,4,2,0,60,0,0
66736,-83.3333333333333,4,2,0,60,0,1
79236,-200,4,2,0,60,0,0
79653,-58.8235294117647,4,2,0,60,0,0
80070,-125,4,2,0,60,0,0
80486,-83.3333333333333,4,2,0,60,0,0
80695,-66.6666666666667,4,2,0,60,0,0
81111,-83.3333333333333,4,2,0,60,0,0
84236,-83.3333333333333,4,2,0,60,0,0
85070,-111.111111111111,4,2,0,60,0,0
85278,-111.111111111111,4,2,0,50,0,0
85903,-142.857142857143,4,2,0,50,0,0
86320,-166.666666666666,4,2,0,50,0,0
86736,-200,4,2,0,50,0,0
88820,-66.6666666666667,4,2,0,60,0,0
89236,416.666666666667,4,2,0,60,1,0
89236,-76.9230769230769,4,2,0,60,0,0
90902,416.666666666667,5,2,0,60,1,0
91527,-125,5,2,0,60,0,0
95068,416.666666666667,4,2,0,60,1,0
95068,-142.857142857143,4,2,0,40,0,0
95484,-200,4,2,0,40,0,0
98401,-142.857142857143,4,2,0,40,0,0
99234,-200,4,2,0,40,0,0
101734,-142.857142857143,4,2,0,40,0,0
102568,-200,4,2,0,40,0,0
105068,-142.857142857143,4,2,0,40,0,0
105901,-200,4,2,0,40,0,0
107776,-200,4,2,0,40,0,0
107845,-200,4,2,0,40,0,0
108054,-200,4,2,0,40,0,0
108123,-200,4,2,0,40,0,0
108331,-200,4,2,0,40,0,0
108401,-200,4,2,0,40,0,0
111734,-250,4,2,0,40,0,0
113401,-250,4,2,0,40,0,0
118401,-25,4,2,0,60,0,0
120068,-100,4,2,0,45,0,0
120484,-100,4,2,0,40,0,0
120901,-100,4,2,0,35,0,0
121318,-100,4,2,0,30,0,0
121943,-100,4,2,0,35,0,0
122151,-100,4,2,0,48,0,0
122359,-100,4,2,0,60,0,0
122568,-83.3333333333333,4,2,0,70,0,0
122776,-71.4285714285714,4,2,0,70,0,0
122984,-62.5,4,2,0,70,0,0
123193,-125,4,2,0,70,0,0
123401,-83.3333333333333,4,2,0,70,0,1
124130,-166.666666666667,4,2,0,70,0,1
124234,-166.666666666667,4,2,0,70,0,1
125484,-76.9230769230769,4,2,0,70,0,1
125797,-166.666666666667,4,2,0,70,0,1
125901,-71.4285714285714,4,2,0,70,0,1
126526,-71.4285714285714,4,2,0,60,0,1
126734,-83.3333333333333,4,2,0,60,0,1
127463,-166.666666666667,4,2,0,60,0,1
127568,-76.9230769230769,4,2,0,60,0,1
128297,-166.666666666667,4,2,0,60,0,1
129234,-58.8235294117647,4,2,0,60,0,1
132984,-71.4285714285714,4,2,0,60,0,1
133401,-66.6666666666667,4,2,0,60,0,1
136318,-100,4,2,0,60,0,1
136526,-66.6666666666667,4,2,0,20,0,1
136734,-66.6666666666667,4,2,0,40,0,0
137151,-142.857142857143,4,2,0,40,0,0
138818,-111.111111111111,4,2,0,50,0,0
140276,-90.9090909090909,4,2,0,60,0,0
141734,-100,4,2,0,40,0,0
142568,-52.6315789473684,4,2,0,40,0,0
142706,-58.8235294117647,4,2,0,60,0,0
142845,-66.6666666666667,4,2,0,60,0,0
142984,-76.9230769230769,4,2,0,60,0,0
143123,-90.9090909090909,4,2,0,60,0,0
143262,-111.111111111111,4,2,0,60,0,0
143401,-100,4,2,0,60,0,0
143818,-100,4,2,0,60,0,0
143956,-76.9230769230769,4,2,0,60,0,0
144095,-62.5,4,2,0,60,0,0
144234,-52.6315789473684,4,2,0,60,0,0
144651,-66.6666666666667,4,2,0,60,0,0
145068,-100,4,2,0,60,0,0
145484,-45.4545454545455,4,2,0,60,0,1
145901,-71.4285714285714,4,2,0,60,0,0
146318,-66.6666666666667,4,2,0,60,0,0
148401,-71.4285714285714,4,2,0,60,0,0
149859,-142.857142857143,4,2,0,60,0,0
150484,-83.3333333333333,4,2,0,60,0,0
150901,-111.111111111111,4,2,0,60,0,0
151109,-125,4,2,0,60,0,0
151318,-142.857142857143,4,2,0,60,0,0
151526,-166.666666666667,4,2,0,60,0,0
152568,-66.6666666666667,4,2,0,60,0,0
154443,-166.666666666667,4,2,0,60,0,0
155068,-142.857142857143,4,2,0,60,0,0
155693,-142.857142857143,4,2,0,50,0,0
157151,-200,4,2,0,50,0,0
159026,-100,4,2,0,50,0,0
160068,-142.857142857143,4,2,0,50,0,0
160484,-200,4,2,0,50,0,0
160584,-142.857142857143,4,2,0,50,0,0
163401,-200,4,2,0,50,0,0
165068,-200,4,2,0,50,0,0
166734,-125,4,2,0,50,0,0
167984,-100,4,2,0,60,0,0
168401,-83.3333333333333,4,1,0,60,0,0
172845,-100,4,1,0,60,0,0
173123,-125,4,1,0,60,0,0

[Colours]
Combo1 : 175,204,220
Combo2 : 160,211,175
Combo3 : 237,206,150

[HitObjects]
62,46,70,5,6,1:0:0:0:
363,20,696,1,2,0:0:0:0:
363,20,799,1,2,0:0:0:0:
363,20,903,1,0,0:0:0:0:
317,98,1111,1,2,0:0:0:0:
313,197,1320,1,2,0:0:0:0:
356,291,1528,1,0,0:0:0:0:
436,362,1736,6,0,P|404:301|512:242,1,209.999993591309,10|0,1:0|0:0,0:0:0:0:
158,382,2154,2,0,P|215:299|109:227,1,239.999992675781,6|0,1:0|0:0,0:0:0:0:
135,89,2640,1,0,0:0:0:0:
135,89,2709,1,0,0:0:0:0:
135,89,2779,2,0,L|131:120,2,26.6666666666667,0|0|0,0:0|0:0|0:0,0:0:0:0:
67,32,2987,1,0,0:0:0:0:
67,32,3091,1,2,0:0:0:0:
67,32,3196,1,0,0:0:0:0:
67,32,3300,1,2,0:0:0:0:
67,32,3404,5,6,1:0:0:0:
280,4,3612,1,8,1:3:0:0:
282,27,3681,1,8,1:3:0:0:
284,50,3750,1,8,1:3:0:0:
285,73,3821,2,0,P|317:77|349:68,1,66.6666666666667,4|4,1:3|0:3,0:0:0:0:
495,133,4098,2,0,P|464:121|431:117,1,66.6666666666667,4|0,1:3|1:0,0:0:0:0:
280,195,4376,1,0,0:0:0:0:
280,195,4445,1,0,1:0:0:0:
280,195,4515,1,0,1:0:0:0:
314,292,4654,2,0,P|332:320|372:328,1,66.6666666666667,4|4,1:3|1:3,0:0:0:0:
416,322,4965,1,0,0:0:0:0:
191,316,5071,6,0,P|145:374|61:331,1,179.999994506836,10|0,1:1|0:0,0:0:0:0:
52,72,5487,2,0,P|41:176|119:110,1,240,6|2,1:0|0:0,0:0:0:0:
209,102,6320,1,0,0:0:0:0:
309,124,6529,1,2,0:0:0:0:
400,82,6736,6,0,P|408:58|380:8,2,80,2|0|2,0:0|0:0|0:0,0:0:0:0:
435,177,7362,2,0,P|428:251|497:281,1,160,2|0,0:0|0:0,0:0:0:0:
445,356,7987,1,2,0:0:0:0:
356,280,8196,1,2,0:0:0:0:
293,343,8404,2,0,B|232:309|233:376|136:393|116:304|156:255|207:276,1,240,2|4,0:0|0:3,0:0:0:0:
240,226,9098,1,0,0:0:0:0:
240,226,9168,1,4,0:3:0:0:
240,226,9237,2,0,P|233:211|220:199,11,33.3333333333333,4|0|0|0|0|0|0|0|0|0|0|0,3:0|0:0|0:0|0:0|0:0|0:0|0:0|0:0|0:0|0:0|0:0|0:0,0:0:0:0:
222,147,10071,5,4,1:0:0:0:
97,38,10279,1,2,0:3:0:0:
98,62,10383,1,0,0:0:0:0:
100,87,10487,1,8,0:0:0:0:
102,112,10591,1,0,0:0:0:0:
104,137,10695,1,0,0:0:0:0:
106,162,10799,1,8,0:0:0:0:
108,187,10903,1,0,0:0:0:0:
105,347,11112,1,0,0:0:0:0:
217,304,11321,1,8,0:0:0:0:
180,172,11528,1,0,0:0:0:0:
281,72,11736,5,0,1:0:0:0:
452,131,11946,1,2,0:3:0:0:
415,123,12050,1,0,0:0:0:0:
380,133,12154,1,8,0:0:0:0:
353,159,12258,1,0,0:0:0:0:
342,195,12362,1,0,0:0:0:0:
349,231,12466,1,8,0:0:0:0:
372,260,12570,1,0,0:0:0:0:
222,226,12779,1,0,0:0:0:0:
173,329,12987,1,8,0:0:0:0:
301,331,13196,1,0,0:0:0:0:
281,159,13404,5,0,0:0:0:0:
185,240,13612,1,2,0:3:0:0:
161,239,13716,1,0,0:0:0:0:
136,237,13820,1,8,0:0:0:0:
111,235,13924,1,0,0:0:0:0:
87,233,14028,1,0,0:0:0:0:
61,231,14132,1,8,0:0:0:0:
36,229,14237,1,0,0:0:0:0:
29,83,14446,1,0,0:0:0:0:
120,129,14653,1,8,0:0:0:0:
219,94,14862,1,0,0:0:0:0:
320,118,15071,5,0,0:0:0:0:
150,284,15279,1,8,0:0:0:0:
154,304,15383,1,0,2:0:0:0:
158,324,15487,2,0,P|186:336|233:332,1,50,8|0,0:0|0:0,0:0:0:0:
434,332,15696,1,0,0:0:0:0:
435,302,15800,1,0,0:0:0:0:
419,276,15904,2,0,P|397:263|373:258,1,50,8|0,0:3|0:0,0:0:0:0:
112,108,16112,1,4,0:3:0:0:
110,143,16216,1,0,0:0:0:0:
120,173,16320,2,0,P|148:185|195:181,1,50,4|4,0:3|0:3,0:0:0:0:
508,106,16529,1,4,0:3:0:0:
453,55,16633,1,4,0:3:0:0:
383,33,16737,1,4,1:0:0:0:
319,237,16946,5,2,0:3:0:0:
303,273,17050,1,0,0:0:0:0:
278,301,17154,1,8,0:0:0:0:
245,318,17258,1,0,0:0:0:0:
208,321,17362,1,0,0:0:0:0:
173,310,17466,1,8,0:0:0:0:
144,287,17570,1,0,0:0:0:0:
212,196,17779,1,0,0:0:0:0:
180,85,17987,1,8,0:0:0:0:
290,44,18196,1,0,0:0:0:0:
463,82,18404,6,0,P|413:70|373:92,1,100,0|2,0:0|0:3,0:0:0:0:
347,136,18716,1,0,0:0:0:0:
343,173,18820,1,8,0:0:0:0:
351,209,18924,1,0,0:0:0:0:
373,239,19028,1,0,0:0:0:0:
404,259,19132,1,8,0:0:0:0:
441,265,19236,1,0,0:0:0:0:
170,351,19446,1,2,0:2:0:0:
240,270,19654,1,8,0:0:0:0:
164,174,19862,1,0,0:0:0:0:
241,27,20071,6,0,B|248:126,1,100,0|2,0:0|0:3,0:0:0:0:
256,163,20383,1,0,0:0:0:0:
284,139,20487,1,8,0:0:0:0:
319,125,20591,1,0,0:0:0:0:
356,124,20695,1,0,0:0:0:0:
392,134,20799,1,8,0:0:0:0:
422,156,20904,1,0,0:0:0:0:
328,217,21112,1,0,0:0:0:0:
413,298,21321,1,8,0:0:0:0:
342,364,21528,1,0,0:0:0:0:
217,320,21737,5,0,0:0:0:0:
218,111,21946,1,0,0:0:0:0:
218,111,22050,1,0,0:0:0:0:
218,111,22154,2,0,L|208:48,1,55.0000016784668,8|0,0:0|0:0,0:0:0:0:
107,169,22361,2,0,L|158:161,1,50,4|0,0:2|2:0,0:0:0:0:
407,57,22571,2,0,P|401:96|370:119,1,80,8|0,0:0|0:0,0:0:0:0:
389,154,22779,2,0,P|354:171|314:171,1,80,0|0,0:0|0:0,0:0:0:0:
246,243,22987,2,0,P|253:281|286:302,1,80,8|8,0:0|0:3,0:0:0:0:
294,328,23196,2,0,P|332:336|367:318,1,80,4|4,0:3|0:3,0:0:0:0:
406,309,23404,5,4,0:0:0:0:
388,88,23612,1,2,0:3:0:0:
423,77,23716,1,0,0:0:0:0:
459,87,23820,1,8,0:0:0:0:
485,113,23924,1,0,0:0:0:0:
495,149,24028,1,0,0:0:0:0:
485,184,24132,1,8,0:0:0:0:
459,210,24237,1,0,0:0:0:0:
325,196,24446,1,0,0:0:0:0:
279,309,24654,1,8,0:0:0:0:
151,299,24862,1,0,0:0:0:0:
72,204,25071,5,0,0:0:0:0:
147,64,25279,1,2,0:3:0:0:
174,91,25383,1,0,0:0:0:0:
209,102,25487,1,8,0:0:0:0:
245,95,25591,1,0,0:0:0:0:
274,71,25695,1,0,0:0:0:0:
288,37,25799,1,8,0:0:0:0:
284,0,25904,1,0,0:0:0:0:
400,56,26112,1,2,0:2:0:0:
308,187,26321,1,8,0:0:0:0:
461,234,26529,1,0,0:0:0:0:
404,340,26737,5,0,0:0:0:0:
278,371,26946,1,2,0:3:0:0:
275,346,27050,1,0,0:0:0:0:
272,321,27154,1,8,0:0:0:0:
270,296,27258,1,0,0:0:0:0:
267,271,27362,1,0,0:0:0:0:
265,246,27466,1,8,0:0:0:0:
263,221,27571,1,0,0:0:0:0:
338,145,27779,1,0,0:0:0:0:
177,139,27987,1,8,0:0:0:0:
209,22,28195,1,0,0:0:0:0:
392,38,28404,6,0,P|369:47|345:47,1,50,4|0,0:2|0:0,0:0:0:0:
466,249,28612,2,0,P|442:196|474:149,1,119.999996337891,8|4,1:3|0:3,0:0:0:0:
454,130,28925,1,0,0:0:0:0:
416,128,29029,1,0,0:0:0:0:
379,125,29133,1,0,0:0:0:0:
344,96,29237,1,8,0:0:0:0:
313,133,29341,1,8,0:0:0:0:
308,181,29445,1,4,0:3:0:0:
332,223,29549,1,4,0:3:0:0:
348,276,29654,1,4,0:3:0:0:
305,329,29758,2,0,P|317:258|269:242,1,129.999994049073,2|0,1:2|2:0,0:0:0:0:
244,377,30071,1,4,1:0:0:0:
54,90,30279,5,0,0:0:0:0:
54,90,30383,1,0,0:0:0:0:
54,90,30487,2,0,L|59:149,1,59.9999981689454,8|0,1:0|0:0,0:0:0:0:
175,226,30696,2,0,L|170:167,1,59.9999981689454,0|0,1:0|0:0,0:0:0:0:
285,43,30904,2,0,P|246:85|248:144,1,119.999996337891,0|8,0:0|1:0,0:0:0:0:
329,228,31182,1,0,0:0:0:0:
329,228,31251,1,0,0:0:0:0:
329,228,31321,2,0,P|302:201|267:191,1,75,0|0,1:0|1:0,0:0:0:0:
40,267,31737,6,0,P|77:271|113:262,1,75,8|0,3:0|0:0,0:0:0:0:
190,275,32154,2,0,P|171:289|145:287,1,50,0|0,1:0|0:0,0:0:0:0:
251,224,32362,1,0,1:0:0:0:
251,224,32432,1,0,0:0:0:0:
251,224,32501,1,0,0:0:0:0:
250,224,32571,2,0,P|268:190|267:153,1,75,12|0,1:0|0:0,0:0:0:0:
264,264,32987,2,0,P|270:287|283:309,1,50,8|0,1:3|0:0,0:0:0:0:
366,341,33196,2,0,P|386:354|410:350,1,50,8|0,1:3|0:0,0:0:0:0:
494,335,33404,1,4,1:0:0:0:
161,133,33612,5,8,1:0:0:0:
161,133,33716,1,0,0:0:0:0:
161,133,33821,2,0,P|173:160|171:189,1,59.9999981689454,0|0,3:0|3:0,0:0:0:0:
31,245,34029,2,0,P|18:217|20:188,1,59.9999981689454,0|0,1:0|0:0,0:0:0:0:
237,275,34237,2,0,P|203:262|182:232,1,75,8|0,1:0|3:0,0:0:0:0:
102,372,34654,2,0,P|127:373|148:360,1,50,0|0,1:0|0:0,0:0:0:0:
131,306,34862,1,8,1:0:0:0:
131,306,34966,1,0,3:0:0:0:
131,306,35071,1,0,1:0:0:0:
390,124,35279,6,0,P|384:148|391:188,1,64.9999970245363,8|8,1:0|1:3,0:0:0:0:
405,357,35487,2,0,P|472:329|425:273,1,170.000003242493,8|4,1:3|1:3,0:0:0:0:
288,270,35800,1,0,0:0:0:0:
206,374,35904,2,0,P|176:351|166:315,1,75.0000028610231,0|0,1:0|0:0,0:0:0:0:
117,295,36112,2,0,P|119:263|138:237,1,64.9999970245363,4|4,1:3|0:3,0:0:0:0:
52,192,36321,2,0,P|76:177|89:153,1,55.0000016784668,4|4,1:3|0:3,0:0:0:0:
170,122,36529,2,0,P|171:99|162:78,1,44.999998626709,4|4,0:3|0:3,0:0:0:0:
86,47,36737,1,4,1:0:0:0:
480,32,36946,6,0,P|461:45|429:50,1,50,0|0,0:0|0:0,0:0:0:0:
497,125,37154,2,0,P|451:138|398:124,1,100,8|0,0:0|0:0,0:0:0:0:
365,128,37466,1,8,0:0:0:0:
378,163,37570,1,0,0:0:0:0:
374,200,37674,1,8,0:0:0:0:
355,232,37778,1,0,0:0:0:0:
215,196,37987,1,8,0:0:0:0:
118,311,38196,1,0,0:0:0:0:
118,311,38299,1,8,2:3:0:0:
118,311,38404,6,0,L|61:316,1,50,0|0,0:0|0:0,0:0:0:0:
278,328,38612,2,0,L|335:323,1,50,0|0,0:0|0:0,0:0:0:0:
104,283,38820,2,0,L|4:291,1,100,8|0,0:0|0:0,0:0:0:0:
7,149,39133,2,0,P|60:171|100:136,1,100,8|8,0:0|0:0,0:0:0:0:
248,120,39446,2,0,P|225:120|201:112,1,50,0|0,0:0|2:0,0:1:0:0:
160,64,39654,1,8,0:0:0:0:
337,15,39862,2,0,P|331:41|321:62,1,50
454,130,40071,6,0,L|405:121,1,50,0|0,0:0|0:0,0:0:0:0:
322,234,40279,2,0,L|371:224,1,50,0|0,0:0|0:0,0:0:0:0:
463,349,40487,2,0,B|403:338|403:338|362:355,1,100,8|0,0:0|0:0,0:0:0:0:
324,356,40800,1,8,0:0:0:0:
293,378,40904,1,0,0:0:0:0:
257,384,41008,1,8,0:0:0:0:
222,371,41112,1,0,0:0:0:0:
119,349,41321,1,8,0:0:0:0:
128,73,41529,2,0,L|134:135,1,50,0|0,0:0|0:0,0:0:0:0:
241,193,41737,6,0,L|81:222,1,150.000005722046,4|0,0:2|2:0,0:0:0:0:
76,198,42050,1,8,0:0:0:0:
76,198,42154,1,8,0:0:0:0:
468,163,42362,2,0,B|368:192|396:125|302:152,1,160,4|8,0:0|0:3,0:0:0:0:
417,85,42987,1,4,0:3:0:0:
417,85,43196,1,8,0:3:0:0:
422,271,43404,5,4,0:2:0:0:
110,275,43612,1,8,0:0:0:0:
385,83,43821,1,8,0:0:0:0:
108,90,44029,1,4,0:2:0:0:
97,102,44446,1,4,0:3:0:0:
345,178,44654,2,0,B|308:226|256:213|256:213|226:154|170:161,1,209.999993591309,4|0,1:0|0:0,0:0:0:0:
476,366,45487,1,0,3:0:0:0:
456,373,45591,1,0,3:0:0:0:
436,364,45696,2,0,P|423:344|421:319,1,50,4|4,3:0|3:0,0:0:0:0:
269,265,45904,1,4,3:0:0:0:
274,243,46008,1,0,3:0:0:0:
291,229,46111,2,0,P|320:228|347:241,1,59.9999981689454,0|0,3:0|3:0,0:0:0:0:
50,92,46321,5,2,1:3:0:0:
19,118,46425,1,0,3:0:0:0:
11,157,46529,1,0,3:0:0:0:
29,192,46633,1,0,3:0:0:0:
64,206,46737,2,0,P|119:187|174:209,1,119.999996337891,4|0,1:2|2:0,0:0:0:0:
219,230,47050,1,8,1:0:0:0:
219,230,47154,1,8,1:0:0:0:
285,125,47362,1,4,1:2:0:0:
478,343,47571,2,0,L|449:346,1,29.9999990844727,8|0,0:0|0:0,0:0:0:0:
505,270,47779,1,4,0:3:0:0:
82,179,47986,6,0,B|120:228|231:244|253:192|253:192|240:161|187:161|163:183,1,300,4|0,1:0|0:0,0:0:0:0:
60,302,48821,1,4,0:3:0:0:
102,309,48925,1,4,0:3:0:0:
144,316,49029,2,0,L|209:323,1,59.9999981689454,0|0,0:0|0:0,0:0:0:0:
320,384,49237,2,0,L|260:378,1,59.9999981689454,8|8,0:0|0:0,0:0:0:0:
367,60,49446,2,0,L|364:90,10,20,0|0|0|0|0|0|0|0|0|0|0,0:0|0:0|0:0|0:0|0:0|0:0|0:0|0:0|0:0|0:0|0:0,0:0:0:0:
405,38,50071,5,4,0:2:0:0:
392,24,50487,1,0,0:0:0:0:
0,52,50696,2,0,B|61:105|115:64|120:59|125:55|174:10|244:56,1,259.999988098145,4|0,0:0|0:0,0:0:0:0:
506,248,51321,2,0,P|415:296|442:196,1,259.999988098145,4|0,0:2|0:0,0:0:0:0:
77,240,51946,2,0,B|154:209|154:209|158:326|58:360,1,259.999988098145,4|0,0:0|0:0,0:0:0:0:
407,85,52571,2,0,B|338:177|425:187|332:218|332:218|313:175|347:130,1,259.999988098145,4|0,0:2|0:0,2:0:0:0:
344,87,53196,1,0,0:0:0:0:
96,0,53404,2,0,B|67:35|90:98|90:98|166:199|9:312|-116:48|142:61|180:104|177:163,1,479.999985351563,4|2,0:0|2:0,0:0:0:0:
236,349,56321,6,0,L|288:341,1,53.3333333333333,0|0,0:0|0:0,0:0:0:0:
331,302,56529,2,0,L|278:308,1,53.3333333333333,0|0,0:0|0:0,0:0:0:0:
233,306,56737,1,0,3:0:0:0:
163,89,56946,6,0,P|147:124|167:156,2,80,2|0|2,0:0|0:0|0:0,0:0:0:0:
256,155,57571,2,0,P|298:94|245:43,1,160,2|0,0:0|0:0,0:0:0:0:
242,15,58091,2,0,P|261:16|280:9,3,40,2|0|2|2,0:0|0:0|0:0|0:0,0:0:0:0:
117,72,58612,1,2,0:0:0:0:
176,144,58821,2,0,B|164:25,1,120,0|2,0:0|0:0,0:0:0:0:
233,243,59237,2,0,P|156:229|85:263,1,160,0|2,0:0|0:0,0:0:0:0:
248,376,59862,1,0,0:0:0:0:
248,376,59966,1,0,0:0:0:0:
248,376,60071,6,0,P|306:385|360:362,1,120,2|0,0:0|0:0,0:0:0:0:
400,354,60417,2,0,L|409:380,15,26.6666666666667
442,327,61529,1,0,0:0:0:0:
442,327,61633,1,0,0:0:0:0:
442,327,61737,1,0,0:0:0:0:
324,288,61946,5,2,0:0:0:0:
247,309,62154,1,2,0:0:0:0:
177,267,62362,1,2,0:0:0:0:
156,189,62571,1,2,0:0:0:0:
366,218,62779,1,0,0:0:0:0:
198,119,62987,1,0,0:0:0:0:
345,140,63196,1,0,0:0:0:0:
276,99,63404,1,2,0:0:0:0:
15,173,64654,5,0,0:0:0:0:
57,277,64965,2,0,L|52:248,2,29.9999990844727,0|2|2,0:0|0:0|0:0,0:0:0:0:
0,42,66321,6,0,L|75:38,1,75,2|0,1:2|0:0,0:0:0:0:
103,61,66736,1,4,1:0:0:0:
226,64,66945,1,2,1:2:0:0:
406,107,67153,2,0,L|286:119,1,119.999996337891,0|2,1:0|1:2,0:0:0:0:
115,254,67571,2,0,B|231:228|231:330|346:275,1,239.999992675781,0|0,1:0|1:0,0:0:0:0:
395,267,68091,1,0,0:0:0:0:
373,221,68195,1,2,1:2:0:0:
374,170,68299,1,0,0:0:0:0:
398,127,68404,5,0,1:0:0:0:
241,55,68612,1,2,1:2:0:0:
475,16,68821,2,0,L|462:135,1,119.999996337891,0|2,1:0|1:2,0:0:0:0:
491,293,69133,1,0,0:0:0:0:
491,293,69237,2,0,L|477:170,1,119.999996337891,0|2,1:0|1:2,0:0:0:0:
101,287,69654,2,0,P|156:272|211:297,1,119.999996337891,0|2,1:0|1:2,0:0:0:0:
244,334,69966,1,0,0:0:0:0:
244,334,70070,5,0,1:0:0:0:
412,245,70278,1,2,1:2:0:0:
223,166,70487,2,0,P|206:111|245:68,1,119.999996337891,0|2,1:0|1:2,0:0:0:0:
275,346,70904,2,0,L|532:311,1,239.999992675781,0|0,1:0|1:0,0:0:0:0:
511,251,71425,1,0,0:0:0:0:
462,256,71529,1,2,1:2:0:0:
416,264,71633,1,0,0:0:0:0:
370,272,71737,5,0,1:0:0:0:
108,308,71946,1,2,1:2:0:0:
255,345,72154,2,0,L|265:222,1,119.999996337891,0|2,1:0|1:2,0:0:0:0:
192,176,72432,1,2,0:0:0:0:
192,176,72501,1,2,0:0:0:0:
192,176,72571,2,0,P|135:150|76:168,1,119.999996337891,0|0,1:0|1:0,0:0:0:0:
29,145,72848,1,0,0:0:0:0:
29,145,72918,1,0,0:0:0:0:
29,145,72987,2,0,L|41:86,1,59.9999981689454,4|0,1:3|0:0,0:0:0:0:
330,10,73196,2,0,L|321:58,3,29.9999990844727,0|0|0|0,1:0|0:0|1:0|0:0,0:0:0:0:
279,25,73404,6,0,B|264:99|264:99|294:137,1,119.999996337891,4|0,1:0|0:0,0:0:0:0:
270,183,73716,1,2,0:0:0:0:
270,183,73821,2,0,L|281:241,1,59.9999981689454,0|0,1:0|0:0,0:0:0:0:
435,98,74028,2,0,L|424:157,1,59.9999981689454,2|0,1:2|0:0,0:0:0:0:
482,277,74237,2,0,P|422:261|367:291,1,119.999996337891,0|0,1:0|0:0,0:0:0:0:
350,314,74550,1,2,0:0:0:0:
350,314,74654,2,0,B|317:324|291:313,1,59.9999981689454,0|0,1:0|0:0,0:0:0:0:
224,218,74862,2,0,B|191:208|165:218,1,59.9999981689454,2|0,1:2|0:0,0:0:0:0:
70,354,75071,6,0,P|93:299|83:241,1,119.999996337891,0|2,1:0|1:2,0:0:0:0:
49,211,75383,1,0,1:0:0:0:
49,211,75487,2,0,P|37:183|37:152,1,59.9999981689454,0|0,1:0|0:0,0:0:0:0:
140,112,75696,2,0,P|157:137|163:167,1,59.9999981689454,2|0,1:2|0:0,0:0:0:0:
41,58,75904,2,0,P|89:21|149:21,1,119.999996337891,0|2,1:0|1:2,0:0:0:0:
194,30,76182,1,2,0:0:0:0:
199,50,76251,1,2,0:0:0:0:
204,67,76321,5,0,1:0:0:0:
265,104,76425,1,2,0:0:0:0:
336,102,76529,1,2,1:2:0:0:
398,66,76633,1,0,1:0:0:0:
458,26,76737,6,0,P|498:58|501:122,1,119.999996337891,0|0,1:0|0:0,0:0:0:0:
463,164,77050,1,2,0:0:0:0:
463,164,77154,2,0,P|451:199|457:223,1,59.9999981689454,0|0,1:0|0:0,0:0:0:0:
275,197,77362,2,0,P|280:225|304:242,1,59.9999981689454,2|0,1:2|0:0,0:0:0:0:
434,330,77571,2,0,P|381:354|329:328,1,119.999996337891,0|0,1:0|0:0,0:0:0:0:
230,352,77883,1,2,0:0:0:0:
230,352,77987,2,0,L|218:293,1,59.9999981689454,0|0,1:0|0:0,0:0:0:0:
67,199,78196,2,0,L|55:257,1,59.9999981689454,2|0,1:2|0:0,0:0:0:0:
327,139,78404,5,4,1:3:0:0:
291,141,78508,1,0,1:0:0:0:
255,144,78612,1,8,1:3:0:0:
219,146,78716,1,0,1:0:0:0:
183,149,78821,1,8,1:3:0:0:
367,73,79029,2,0,L|363:138,1,59.9999981689454,4|0,1:3|0:0,0:0:0:0:
367,346,79237,1,4,1:2:0:0:
386,345,79654,6,0,B|436:302|428:223|376:196|376:196|337:215|336:275,1,255.000004863739,2|0,0:1|0:0,0:0:0:0:
147,345,80070,1,6,1:0:0:0:
125,331,80487,2,0,L|182:348,1,59.9999981689454,2|0,1:3|0:0,0:0:0:0:
302,114,80696,6,0,B|281:102|240:120|215:156|231:183|227:187|224:191|235:227|214:254|187:270|167:259,1,225.000008583069,8|0,1:3|0:0,0:0:0:0:
359,166,81112,2,0,P|335:147|325:120,1,59.9999981689454,8|0,1:3|0:0,0:0:0:0:
209,80,81321,2,0,P|183:93|154:89,1,59.9999981689454,6|0,1:3|0:0,0:0:0:0:
412,88,81529,2,0,P|386:72|375:45,1,59.9999981689454,4|0,1:3|0:0,0:0:0:0:
274,7,81737,5,4,1:2:0:0:
133,320,82154,5,4,1:3:0:0:
183,314,82258,1,0,1:0:0:0:
233,308,82362,1,4,1:3:0:0:
97,106,82571,1,4,1:3:0:0:
458,160,82987,5,4,0:3:0:0:
398,153,83091,1,4,0:3:0:0:
338,145,83195,1,4,0:3:0:0:
503,167,83612,5,0,1:0:0:0:
431,158,83716,1,0,1:0:0:0:
359,149,83820,1,0,1:0:0:0:
151,68,84029,1,4,0:3:0:0:
52,269,84237,2,0,B|130:285|103:215|199:226,1,159.999995117188,4|0,1:2|0:0,0:0:0:0:
255,242,84584,1,8,0:3:0:0:
255,242,84654,2,0,L|257:183,1,59.9999981689454,4|4,1:3|1:3,0:0:0:0:
414,47,84862,1,4,1:2:0:0:
463,278,85279,5,0,0:0:0:0:
463,278,85383,1,0,0:0:0:0:
463,278,85487,1,2,0:0:0:0:
387,349,85696,1,2,0:0:0:0:
277,348,85904,2,0,P|287:298|329:268,1,104.999996795654,0|2,0:0|0:0,0:0:0:0:
256,224,86321,2,0,P|240:182|203:158,1,89.9999972534181,0|2,0:0|0:0,0:0:0:0:
256,96,86737,2,0,P|275:64|307:46,1,75,0|2,0:0|0:0,0:0:0:0:
129,24,87154,5,0,0:0:0:0:
113,81,87292,1,2,0:0:0:0:
132,136,87431,1,0,0:0:0:0:
173,165,87570,1,2,0:0:0:0:
224,137,87708,1,0,0:0:0:0:
236,79,87847,1,2,0:0:0:0:
283,51,87986,1,0,0:0:0:0:
338,65,88125,1,2,0:0:0:0:
386,85,88264,1,0,0:0:0:0:
433,73,88403,1,2,0:0:0:0:
488,116,88682,1,4,1:3:0:0:
488,116,88751,1,4,1:3:0:0:
488,116,88821,6,0,P|400:137|436:42,1,225.000008583069,4|0,1:2|0:0,0:0:0:0:
303,308,89237,1,4,1:0:0:0:
291,316,89653,6,0,P|258:315|227:325,1,64.9999970245363,2|0,1:3|0:0,0:0:0:0:
56,221,89862,2,0,P|59:301|124:254,1,194.999991073609,8|0,1:3|0:0,0:0:0:0:
27,194,90278,2,0,P|46:170|114:182,1,64.9999970245363,8|0,1:3|0:0,0:0:0:0:
164,44,90487,2,0,P|175:74|170:106,1,64.9999970245363,4|0,1:3|0:0,0:0:0:0:
311,140,90695,2,0,P|337:159|369:165,1,64.9999970245363,4|0,1:3|0:0,0:0:0:0:
454,95,90903,1,4,1:2:0:0:
21,18,91528,6,0,L|23:38,4,20,0|0|0|0|0,0:0|0:0|0:0|0:0|0:0,0:0:0:0:
64,248,95069,6,0,P|110:246|152:226,1,93.3333304850261,0|2,0:0|0:0,0:0:0:0:
235,222,95485,1,0,0:0:0:0:
250,241,95624,2,0,L|247:274,1,33.3333333333333,2|0,0:0|0:0,0:0:0:0:
274,100,95902,2,0,P|283:114|296:125,1,33.3333333333333,0|0,0:0|0:0,0:0:0:0:
394,186,96180,2,0,P|406:175|416:161,1,33.3333333333333,2|0,0:0|0:0,0:0:0:0:
365,25,96457,2,0,L|372:73,1,33.3333333333333,2|0,0:0|0:0,0:0:0:0:
472,67,96735,1,0,0:0:0:0:
428,247,97013,2,0,L|483:234,1,33.3333333333333,2|0,0:0|0:0,0:0:0:0:
362,265,97291,2,0,L|417:252,1,33.3333333333333,2|0,0:0|0:0,0:0:0:0:
9,154,98402,6,0,L|102:145,1,93.3333304850261,0|2,0:0|0:0,0:0:0:0:
190,53,98819,1,0,0:0:0:0:
175,71,98957,2,0,P|171:94|179:116,1,46.6666652425131,2|0,0:0|0:0,0:0:0:0:
279,219,99235,2,0,L|297:191,1,33.3333333333333,0|0,0:0|0:0,0:0:0:0:
387,123,99513,2,0,L|368:95,1,33.3333333333333,2|0,0:0|0:0,0:0:0:0:
281,39,99791,2,0,P|296:30|305:16,1,33.3333333333333,2|0,0:0|0:0,0:0:0:0:
406,18,100069,1,0,0:0:0:0:
110,93,100346,2,0,L|55:80,1,33.3333333333333,2|0,0:0|0:0,0:0:0:0:
176,111,100624,2,0,L|121:98,1,33.3333333333333,2|0,0:0|0:0,0:0:0:0:
350,338,101735,6,0,P|307:313|290:267,1,93.3333304850261,0|2,0:0|0:0,0:0:0:0:
389,182,102152,1,0,0:0:0:0:
403,200,102291,2,0,P|406:222|398:244,1,46.6666652425131,2|0,0:0|0:0,0:0:0:0:
229,201,102569,2,0,P|213:194|201:182,1,33.3333333333333,0|0,0:0|0:0,0:0:0:0:
313,91,102846,2,0,P|328:84|340:72,1,33.3333333333333,2|0,0:0|0:0,0:0:0:0:
153,75,103124,2,0,L|141:44,1,33.3333333333333,2|0,0:0|0:0,0:0:0:0:
253,9,103402,1,2,0:0:0:0:
454,90,103680,2,0,L|509:77,1,33.3333333333333,2|0,0:0|0:0,0:0:0:0:
388,108,103956,2,0,L|443:95,1,33.3333333333333,2|0,0:0|0:0,0:0:0:0:
55,204,105069,6,0,P|104:210|147:190,1,93.3333304850261,0|2,0:0|0:0,0:0:0:0:
240,266,105485,1,0,0:0:0:0:
226,248,105624,2,0,P|222:225|230:203,1,46.6666652425131,2|0,0:0|0:0,0:0:0:0:
136,110,105902,2,0,L|177:131,1,33.3333333333333,0|0,0:0|0:0,0:0:0:0:
345,113,106180,2,0,L|303:134,1,33.3333333333333,2|0,0:0|0:0,0:0:0:0:
198,51,106457,2,0,P|191:35|188:19,1,33.3333333333333,2|0,0:0|0:0,0:0:0:0:
279,13,106735,1,0,0:0:0:0:
86,112,107013,2,0,L|31:99,1,33.3333333333333,0|0,0:0|0:0,0:0:0:0:
153,147,107291,2,0,L|98:134,1,33.3333333333333,2|0,0:0|0:0,0:0:0:0:
257,196,107569,2,0,P|236:170|236:137,2,66.6666666666667,0|0|0,0:0|0:0|0:0,0:0:0:0:
286,323,108402,6,0,B|382:269|381:374|529:395|560:264|495:193|424:226,1,375,0|0,0:0|0:0,0:0:0:0:
227,219,110069,6,0,B|163:166|100:314|91:223|8:233|8:233|68:155|125:164,1,375,0|0,0:0|0:0,0:0:0:0:
279,126,111735,6,0,P|319:124|346:96,1,80,2|0,0:0|0:0,0:0:0:0:
512,191,112291,2,0,P|473:185|443:160,1,80,2|0,0:0|0:0,0:0:0:0:
454,62,112846,2,0,P|484:37|497:0,1,80,2|0,0:0|0:0,0:0:0:0:
314,88,113402,6,0,B|275:110|216:181|131:239|49:152|108:11|188:35|226:-38|284:219|358:265|427:227|454:203,1,613.333333333333,2|0,0:0|0:0,0:0:0:0:
469,86,117152,2,0,L|471:77,1,10,0|0,0:0|0:0,0:0:0:0:
500,47,118402,6,0,B|302:20,1,200,4|0,1:2|0:0,0:0:0:0:
241,135,120069,5,2,0:0:0:0:
205,100,120173,1,0,0:0:0:0:
159,85,120277,1,2,0:0:0:0:
110,96,120381,1,0,0:0:0:0:
65,139,120485,1,2,0:0:0:0:
93,167,120589,1,0,0:0:0:0:
131,178,120693,1,2,0:0:0:0:
169,167,120797,1,0,0:0:0:0:
178,252,120902,5,2,0:0:0:0:
155,229,121006,1,0,0:0:0:0:
125,220,121110,1,2,0:0:0:0:
94,229,121214,1,0,0:0:0:0:
61,274,121319,1,2,0:0:0:0:
79,293,121423,1,0,0:0:0:0:
103,300,121527,1,2,0:0:0:0:
128,293,121631,1,0,0:0:0:0:
218,310,121735,5,0,1:0:0:0:
236,329,121839,1,0,1:0:0:0:
265,335,121944,1,0,1:0:0:0:
289,320,122048,1,0,1:0:0:0:
304,282,122152,1,0,1:0:0:0:
295,232,122256,1,0,1:0:0:0:
337,189,122360,1,0,1:0:0:0:
396,194,122464,1,0,1:0:0:0:
427,259,122569,2,0,P|454:268|481:245,1,59.9999981689454,4|0,0:3|0:0,0:0:0:0:
479,112,122777,2,0,P|473:146|488:177,1,69.9999978637696,4|0,0:3|0:0,0:0:0:0:
327,74,122985,2,0,P|365:76|391:105,1,80,4|0,0:3|0:0,0:0:0:0:
44,94,123194,6,0,L|40:65,2,20,0|0|0,1:0|1:0|1:0,0:0:0:0:
53,141,123402,5,6,1:2:0:0:
99,72,123506,1,0,0:0:0:0:
167,23,123610,1,0,1:0:0:0:
251,13,123714,1,0,0:0:0:0:
322,48,123819,5,2,1:2:0:0:
272,84,123923,1,0,0:0:0:0:
220,119,124027,1,0,0:0:0:0:
168,154,124130,1,0,0:0:0:0:
97,214,124235,5,2,1:2:0:0:
168,236,124339,1,0,0:0:0:0:
237,207,124443,1,0,1:2:0:0:
289,153,124547,1,0,0:0:0:0:
376,94,124652,5,2,1:2:0:0:
404,129,124756,1,0,0:0:0:0:
404,178,124860,1,0,0:0:0:0:
380,215,124963,1,0,0:0:0:0:
316,253,125069,5,2,1:2:0:0:
264,184,125173,1,0,0:0:0:0:
178,167,125277,1,0,1:0:0:0:
111,224,125381,1,0,0:0:0:0:
51,277,125485,5,2,1:2:0:0:
13,216,125589,1,0,0:0:0:0:
19,144,125693,1,0,0:0:0:0:
62,88,125797,1,0,0:0:0:0:
42,19,125902,5,2,1:2:0:0:
197,123,126110,1,0,1:0:0:0:
197,123,126180,1,0,0:0:0:0:
197,123,126249,1,0,0:0:0:0:
197,123,126319,2,0,P|233:130|262:149,1,69.9999978637696,2|0,1:2|0:0,0:0:0:0:
389,59,126527,2,0,P|354:66|325:85,1,69.9999978637696,4|0,0:3|0:0,0:0:0:0:
38,96,126735,5,6,1:2:0:0:
0,177,126839,1,0,0:0:0:0:
39,258,126943,1,0,1:0:0:0:
122,292,127047,1,0,0:0:0:0:
187,249,127152,5,2,1:2:0:0:
165,205,127256,1,0,0:0:0:0:
144,161,127360,1,0,0:0:0:0:
123,117,127463,1,0,0:0:0:0:
109,71,127569,5,2,1:2:0:0:
197,59,127673,1,0,0:0:0:0:
265,123,127777,1,0,1:2:0:0:
276,215,127881,1,0,0:0:0:0:
330,213,127985,5,2,1:2:0:0:
300,195,128089,1,0,0:0:0:0:
285,163,128193,1,0,0:0:0:0:
286,122,128297,1,0,0:0:0:0:
359,86,128402,5,2,1:2:0:0:
409,136,128506,1,0,0:0:0:0:
433,210,128610,1,0,1:2:0:0:
413,282,128714,1,0,0:0:0:0:
356,328,128819,1,2,1:2:0:0:
296,329,128923,1,0,0:0:0:0:
245,365,129027,1,0,0:0:0:0:
183,353,129131,1,0,0:0:0:0:
151,347,129235,5,6,1:2:0:0:
176,284,129339,1,0,0:0:0:0:
148,219,129444,1,0,1:0:0:0:
84,195,129548,1,0,1:0:0:0:
32,213,129652,5,0,1:0:0:0:
54,232,129756,1,0,1:0:0:0:
70,256,129859,1,0,1:0:0:0:
79,282,129963,1,0,1:0:0:0:
163,308,130069,5,4,1:2:0:0:
202,266,130173,1,0,0:0:0:0:
207,210,130277,1,2,1:2:0:0:
179,161,130381,1,0,0:0:0:0:
145,124,130485,5,0,0:0:0:0:
215,138,130589,1,0,1:0:0:0:
286,105,130693,1,2,1:2:0:0:
318,37,130797,1,0,0:0:0:0:
359,23,130902,5,0,1:0:0:0:
351,83,131006,1,0,0:0:0:0:
343,147,131110,1,2,1:2:0:0:
335,210,131214,1,0,0:0:0:0:
388,206,131319,5,0,0:0:0:0:
391,240,131423,1,0,1:0:0:0:
396,275,131527,1,2,1:2:0:0:
400,311,131631,1,0,0:0:0:0:
408,381,131735,5,0,1:0:0:0:
336,362,131839,1,0,0:0:0:0:
288,307,131943,1,2,1:2:0:0:
285,234,132047,1,0,0:0:0:0:
318,178,132152,5,0,0:0:0:0:
402,200,132256,1,0,1:0:0:0:
470,145,132360,1,2,1:2:0:0:
468,58,132464,1,0,0:0:0:0:
396,8,132568,1,0,1:0:0:0:
113,88,132777,1,2,1:2:0:0:
113,88,132846,1,0,0:0:0:0:
113,88,132916,1,0,1:0:0:0:
113,88,132985,6,0,P|95:56|98:19,1,69.9999978637696,2|0,0:0|1:0,0:0:0:0:
262,79,133194,2,0,P|263:44|245:14,1,69.9999978637696,4|0,1:2|0:0,0:0:0:0:
237,312,133402,5,0,1:0:0:0:
305,344,133506,1,0,0:0:0:0:
380,332,133610,1,2,1:2:0:0:
434,280,133714,1,0,0:0:0:0:
472,225,133819,5,0,0:0:0:0:
435,207,133923,1,0,1:0:0:0:
394,213,134027,1,2,1:2:0:0:
364,242,134131,1,0,0:0:0:0:
338,271,134235,5,0,1:0:0:0:
352,208,134339,1,0,0:0:0:0:
370,147,134444,1,2,1:2:0:0:
387,85,134548,1,0,0:0:0:0:
403,24,134652,5,0,0:0:0:0:
355,38,134756,1,0,1:0:0:0:
306,53,134859,1,2,1:2:0:0:
261,69,134963,1,0,0:0:0:0:
210,91,135069,5,0,1:0:0:0:
272,131,135173,1,0,0:0:0:0:
307,199,135277,1,2,1:2:0:0:
301,277,135381,1,0,0:0:0:0:
270,346,135485,5,0,0:0:0:0:
214,325,135589,1,0,1:0:0:0:
178,277,135693,1,2,1:2:0:0:
171,219,135797,1,0,0:0:0:0:
190,172,135902,5,0,1:0:0:0:
137,214,136006,1,0,0:0:0:0:
64,181,136110,1,2,1:2:0:0:
58,89,136214,1,2,1:2:0:0:
123,13,136319,1,4,0:3:0:0:
420,343,136527,1,4,0:3:0:0:
254,77,136735,5,4,0:3:0:0:
109,169,136944,5,2,0:3:0:0:
130,168,137048,1,0,0:0:0:0:
151,167,137152,2,0,L|187:164,1,34.9999989318848,12|0,0:3|0:0,0:0:0:0:
322,241,137359,1,2,3:0:0:0:
301,239,137464,1,0,0:0:0:0:
280,238,137568,2,0,L|244:235,1,34.9999989318848,4|0,0:3|0:0,0:0:0:0:
159,353,137777,1,10,0:3:0:0:
180,352,137881,1,0,0:0:0:0:
201,351,137985,2,0,L|237:348,1,34.9999989318848,4|0,1:3|0:0,0:0:0:0:
356,370,138194,2,0,L|320:367,1,34.9999989318848,0|0,1:3|0:0,0:0:0:0:
296,375,138402,1,4,0:3:0:0:
389,120,138610,5,10,0:3:0:0:
362,115,138714,1,0,0:0:0:0:
335,110,138819,2,0,L|289:100,1,44.999998626709,4|8,0:3|0:3,0:0:0:0:
100,213,139027,1,2,0:3:0:0:
127,208,139131,1,0,0:0:0:0:
154,203,139234,2,0,L|200:193,1,44.999998626709,4|0,0:3|0:0,0:0:0:0:
367,311,139444,1,2,0:3:0:0:
340,306,139548,1,8,0:3:0:0:
313,301,139651,2,0,L|267:291,1,44.999998626709,4|0,0:3|0:0,0:0:0:0:
158,384,139860,2,0,L|204:374,1,44.999998626709,2|0,0:3|0:0,0:0:0:0:
236,373,140069,1,4,0:3:0:0:
119,106,140277,5,10,0:3:0:0:
157,100,140381,1,0,0:0:0:0:
195,94,140485,2,0,L|248:83,1,55.0000016784668,4|8,0:3|0:3,0:0:0:0:
441,235,140694,1,2,0:3:0:0:
403,229,140798,1,0,0:0:0:0:
365,223,140902,2,0,L|311:212,1,55.0000016784668,4|0,0:3|0:0,0:0:0:0:
79,335,141110,1,2,0:3:0:0:
129,294,141214,1,0,1:0:0:0:
119,351,141319,1,2,1:2:0:0:
171,364,141423,1,2,1:2:0:0:
224,341,141527,1,2,1:3:0:0:
277,335,141631,1,0,1:0:0:0:
331,341,141735,6,0,L|339:373,5,33.3333333333333,2|0|0|0|0|0,1:2|0:0|0:0|0:0|0:0|0:0,0:0:0:0:
468,294,142152,2,0,L|481:263,5,33.3333333333333,0|0|0|0|0|0,0:0|0:0|0:0|0:0|0:0|0:0,0:0:0:0:
441,246,142569,5,0,0:0:0:0:
421,267,142638,1,0,0:0:0:0:
417,233,142707,1,0,0:0:0:0:
390,265,142777,1,0,0:0:0:0:
379,230,142846,1,0,0:0:0:0:
357,258,142916,1,0,0:0:0:0:
342,230,142985,1,0,0:0:0:0:
326,255,143055,1,0,0:0:0:0:
316,224,143124,1,0,0:0:0:0:
298,252,143194,1,0,0:0:0:0:
277,221,143263,1,0,0:0:0:0:
262,250,143332,1,0,0:0:0:0:
238,228,143402,6,0,L|231:260,5,33.3333333333333,4|0|0|0|0|0,1:2|0:0|0:0|0:0|0:0|0:0,0:0:0:0:
214,192,143819,5,0,0:0:0:0:
229,164,143888,1,0,0:0:0:0:
270,162,143957,1,0,0:0:0:0:
294,118,144027,1,0,0:0:0:0:
340,123,144096,1,0,0:0:0:0:
384,84,144166,1,0,0:0:0:0:
445,90,144235,6,0,P|529:76|494:0,1,189.999994926453,2|8,1:2|1:3,0:0:0:0:
420,243,144513,1,4,1:3:0:0:
420,243,144582,1,4,0:3:0:0:
420,243,144651,1,4,1:3:0:0:
420,243,144720,1,4,0:3:0:0:
420,243,144790,1,4,0:3:0:0:
420,243,144859,1,4,0:3:0:0:
420,243,144929,1,0,0:0:0:0:
420,243,144998,1,0,0:0:0:0:
420,243,145069,1,4,0:3:0:0:
471,198,145277,2,0,L|460:246,1,50,0|0,0:0|0:0,0:0:0:0:
162,278,145484,6,0,B|150:214|213:188|213:188|277:222|287:319|226:373,1,330.000010070801,4|0,1:2|0:0,0:0:0:0:
50,91,145902,2,0,P|90:189|-1:134,1,279.999991455078,0|2,1:0|2:0,0:0:0:0:
222,76,146526,1,0,0:0:0:0:
222,76,146630,1,0,0:0:0:0:
222,76,146735,6,0,P|214:112|185:134,1,75.0000028610231,0|0,1:0|0:0,0:0:0:0:
284,253,146944,2,0,L|359:257,1,75.0000028610231,0|0,0:0|0:0,0:0:0:0:
504,204,147152,2,0,B|467:164|467:164|499:74,1,150.000005722046,2|0,2:0|0:0,0:0:0:0:
483,28,147464,1,0,0:0:0:0:
441,54,147568,1,0,1:0:0:0:
392,54,147672,1,0,0:0:0:0:
350,28,147776,1,0,0:0:0:0:
214,81,147985,1,2,1:2:0:0:
70,32,148194,1,0,0:0:0:0:
36,176,148402,6,0,L|31:106,1,69.9999978637696,0|0,1:0|0:0,0:0:0:0:
256,32,148610,2,0,L|251:102,1,69.9999978637696
109,239,148819,2,0,P|169:259|245:241,1,139.999995727539,2|0,2:0|0:0,0:0:0:0:
269,221,149131,1,0,0:0:0:0:
311,195,149235,1,0,1:0:0:0:
360,195,149339,1,0,0:0:0:0:
402,221,149443,1,0,0:0:0:0:
422,0,149652,2,0,L|418:69,1,69.9999978637696,6|0,2:0|0:0,0:0:0:0:
499,134,149860,6,0,B|515:88|478:87|503:32,1,104.999996795654,8|0,0:3|0:0,0:0:0:0:
442,237,150277,1,2,1:2:0:0:
442,237,150381,1,0,0:0:0:0:
442,237,150485,2,0,P|416:251|386:250,1,59.9999981689454,4|0,1:2|0:0,0:0:0:0:
183,263,150694,2,0,P|209:277|239:276,1,59.9999981689454,4|0,0:3|0:0,0:0:0:0:
326,136,150902,6,0,L|336:85,1,44.999998626709,4|0,0:2|0:0,0:0:0:0:
425,111,151110,2,0,L|432:71,1,40,2|8,0:0|0:3,0:0:0:0:
380,255,151319,2,0,L|386:220,1,34.9999989318848,4|0,0:3|0:0,0:0:0:0:
479,230,151527,2,0,L|484:200,1,29.9999990844727,2|0,0:0|0:0,0:0:0:0:
405,354,151735,5,0,1:0:0:0:
284,87,151944,1,0,0:0:0:0:
270,329,152152,1,8,1:1:0:0:
452,102,152359,1,2,0:0:0:0:
121,163,152569,2,0,P|193:150|253:192,1,150.000005722046,0|0,1:0|0:0,0:0:0:0:
160,323,152881,1,0,0:0:0:0:
160,323,152985,2,0,L|172:249,1,75.0000028610231,8|0,1:1|0:0,0:0:0:0:
264,118,153194,2,0,L|252:192,1,75.0000028610231,2|0,0:0|0:0,0:0:0:0:
414,296,153402,6,0,B|316:279|316:279|274:306,1,150.000005722046,0|0,1:0|0:0,0:0:0:0:
406,197,153714,1,0,0:0:0:0:
406,197,153819,2,0,P|426:170|429:126,1,75.0000028610231,8|0,1:0|0:0,0:0:0:0:
304,10,154027,2,0,P|307:46|327:77,1,75.0000028610231,0|2,0:0|0:0,0:0:0:0:
252,192,154235,1,0,1:0:0:0:
86,54,154444,6,0,L|87:68,1,14.9999995422363,8|0,1:0|0:0,0:0:0:0:
120,181,154652,1,8,1:0:0:0:
217,64,154860,1,4,1:3:0:0:
275,327,155069,6,0,P|228:248|299:262,1,209.999993591309,4|0,1:0|0:0,0:0:0:0:
356,303,155798,1,0,0:0:0:0:
356,303,155902,1,4,1:2:0:0:
437,260,156110,1,0,0:0:0:0:
389,181,156319,1,2,0:0:0:0:
410,91,156527,1,0,0:0:0:0:
131,70,156735,6,0,L|236:63,1,104.999996795654,0|0,0:0|0:0,0:0:0:0:
320,129,157152,2,0,L|21:150,1,300,2|0,0:0|0:0,0:0:0:0:
156,303,159027,1,2,0:0:0:0:
156,303,159131,1,0,0:0:0:0:
156,303,159235,1,0,0:0:0:0:
75,260,159443,1,2,0:0:0:0:
123,181,159652,1,2,0:0:0:0:
102,91,159860,1,0,0:0:0:0:
288,97,160069,6,0,L|183:90,1,104.999996795654,0|0,0:0|0:0,0:0:0:0:
398,177,160484,2,0,L|244:166,1,150,2|0,0:0|0:0,0:0:0:0:
468,214,161319,1,0,0:0:0:0:
430,292,161527,1,0,0:0:0:0:
262,343,161735,6,0,P|216:254|306:288,1,244.999992523194,0|0,0:0|0:0,0:0:0:0:
401,273,162569,2,0,P|452:191|357:211,1,244.999992523194,2|0,0:0|0:0,0:0:0:0:
267,163,163402,6,0,P|235:100|298:124,1,175,0|0,0:0|0:0,0:0:0:0:
384,88,164235,2,0,P|415:25|352:49,1,175,2|0,0:0|0:0,0:0:0:0:
398,179,165069,6,0,L|404:212,2,33.3333333333333,2|0|0,0:0|0:0|0:0,0:0:0:0:
304,142,165485,2,0,L|298:110,2,33.3333333333333,2|0|0,0:0|0:0|0:0,0:0:0:0:
279,229,165902,2,0,L|285:262,2,33.3333333333333,2|0|0,0:0|0:0|0:0,0:0:0:0:
185,192,166318,2,0,L|179:160,2,33.3333333333333,2|0|0,0:0|0:0|0:0,0:0:0:0:
205,315,166735,6,0,P|180:320|154:337,1,53.3333333333333,2|0,0:0|0:0,0:0:0:0:
74,203,167013,2,0,P|79:228|96:254,1,53.3333333333333,0|2,0:0|0:0,0:0:0:0:
215,135,167291,2,0,P|210:160|193:186,1,53.3333333333333,0|0,0:0|0:0,0:0:0:0:
290,243,167499,1,0,0:0:0:0:
290,243,167569,1,2,0:0:0:0:
290,243,167985,1,0,0:0:0:0:
347,125,168124,1,2,1:0:0:0:
347,125,168263,1,2,1:0:0:0:
134,242,168402,6,0,B|224:268|187:210|289:242,1,159.999995117188,6|0,0:0|0:0,0:0:0:0:
474,345,168819,1,2,0:0:0:0:
392,289,168957,1,0,0:0:0:0:
407,187,169096,1,2,0:0:0:0:
322,101,169235,2,0,P|299:68|298:29,1,79.9999975585938,6|0,0:0|0:0,0:0:0:0:
132,215,169513,2,0,P|153:182|154:143,1,79.9999975585938,2|0,0:0|2:0,0:0:0:0:
329,333,169791,2,0,P|307:301|305:262,1,79.9999975585938,2|0,0:0|2:0,0:0:0:0:
179,58,170069,6,0,B|166:122|126:146|126:146|133:201,1,159.999995117188,6|0,0:0|0:0,0:0:0:0:
27,277,170485,1,2,0:0:0:0:
93,357,170624,1,0,0:0:0:0:
202,337,170763,1,2,0:0:0:0:
277,278,170902,2,0,P|271:239|244:211,1,79.9999975585938,6|0,0:0|0:0,0:0:0:0:
462,161,171180,2,0,P|426:177|406:212,1,79.9999975585938,2|0,1:0|2:0,0:0:0:0:
256,49,171457,2,0,P|291:65|311:100,1,79.9999975585938,2|0,0:0|2:0,0:0:0:0:
455,0,171735,5,6,1:0:0:0:
98,51,172013,1,8,1:3:0:0:
137,241,172152,1,8,1:3:0:0:
183,132,172291,1,4,1:3:0:0:
51,159,172430,1,4,1:3:0:0:
254,226,172569,2,0,P|285:204|297:166,1,79.9999975585938,4|0,1:3|2:0,0:0:0:0:
327,32,172846,2,0,P|328:65|346:93,1,66.6666666666667,4|0,1:3|2:0,0:0:0:0:
455,197,173124,2,0,P|432:183|405:180,1,53.3333333333333,4|0,1:3|2:0,0:0:0:0:
369,320,173402,1,8,1:0:0:0:
130,52,173819,5,4,0:3:0:0:
130,52,173923,1,4,0:3:0:0:
130,52,174027,1,4,0:3:0:0:
130,52,174131,1,4,0:3:0:0:
130,52,174235,1,4,0:3:0:0:
