osu file format v14

[General]
AudioFilename: Once Upon A Time.mp3
AudioLeadIn: 0
PreviewTime: 66215
Countdown: 0
SampleSet: Soft
StackLeniency: 0.7
Mode: 0
LetterboxInBreaks: 0
WidescreenStoryboard: 1

[Editor]
Bookmarks: 23501,49751,65168,80168,112110,123499,145166
DistanceSpacing: 1
BeatDivisor: 4
GridSize: 32
TimelineZoom: 2.1

[Metadata]
Title:Once Upon A Time
TitleUnicode:Once Upon A Time
Artist:Warak
ArtistUnicode:Warak
Creator:Xilver
Version:Normal
Source:HIGH5
Tags:rhythm mobile game story telling undeadcapulet -pc
BeatmapID:1246515
BeatmapSetID:519154

[Difficulty]
HPDrainRate:3
CircleSize:3
OverallDifficulty:3
ApproachRate:5
SliderMultiplier:1.6
SliderTickRate:1

[Events]
//Background and Video events
0,0,"once upon a time.jpg",0,0
//Break Periods
2,91102,93748
2,113601,117081
//Storyboard Layer 0 (Background)
//Storyboard Layer 1 (Fail)
//Storyboard Layer 2 (Pass)
//Storyboard Layer 3 (Foreground)
//Storyboard Sound Samples

[TimingPoints]
70,416.666666666667,4,2,0,60,1,0
70,-125,4,2,0,60,0,0
7986,-125,4,2,0,30,0,0
8195,-125,4,2,0,40,0,0
8403,-125,4,2,0,60,0,0
9028,-125,4,2,0,40,0,0
9445,-125,4,2,0,50,0,0
10070,-125,4,1,0,60,0,0
30070,-125,4,2,0,60,0,0
36736,-125,4,1,0,60,0,0
44653,-125,4,2,0,60,0,0
46736,-125,4,1,0,60,0,0
50070,-100,4,1,0,60,0,0
56320,-100,4,2,0,60,0,0
56458,-100,4,2,0,5,0,0
56528,-100,4,2,0,60,0,0
56667,-100,4,2,0,5,0,0
56736,-125,4,2,0,60,0,0
56945,-125,4,2,0,40,0,0
65486,-125,4,2,0,60,0,0
66736,-111.111111111111,4,2,0,60,0,1
80070,-111.111111111111,4,2,0,60,0,0
85278,-111.111111111111,4,2,0,50,0,0
85486,-125,4,2,0,50,0,0
88820,-125,4,2,0,60,0,0
89236,416.666666666667,4,2,0,60,1,0
89236,-125,4,2,0,60,0,0
90902,416.666666666667,5,2,0,60,1,0
95068,416.666666666667,4,2,0,40,1,0
95068,-125,4,2,0,40,0,0
107776,-125,4,2,0,40,0,0
107845,-125,4,2,0,40,0,0
108054,-125,4,2,0,40,0,0
108123,-125,4,2,0,40,0,0
108331,-125,4,2,0,40,0,0
108401,-125,4,2,0,40,0,0
118401,-125,4,2,0,60,0,0
120068,-125,4,2,0,45,0,0
120484,-125,4,2,0,40,0,0
120901,-125,4,2,0,35,0,0
121318,-125,4,2,0,30,0,0
121943,-125,4,2,0,35,0,0
122151,-125,4,2,0,48,0,0
122359,-125,4,2,0,60,0,0
122568,-125,4,2,0,70,0,0
123401,-100,4,2,0,70,0,1
126526,-100,4,2,0,60,0,1
136526,-100,4,2,0,20,0,1
136734,-125,4,2,0,40,0,0
138818,-125,4,2,0,50,0,0
140276,-125,4,2,0,60,0,0
141734,-125,4,2,0,40,0,0
142706,-125,4,2,0,60,0,0
145484,-125,4,2,0,60,0,1
146734,-125,4,2,0,60,0,0
155693,-125,4,2,0,50,0,0
167984,-125,4,2,0,60,0,0
168401,-125,4,1,0,60,0,0

[Colours]
Combo1 : 175,204,220
Combo2 : 160,211,175
Combo3 : 237,206,150

[HitObjects]
53,99,70,6,0,P|112:79|174:93,1,128,6|0,1:0|0:0,0:0:0:0:
236,111,695,1,2,0:0:0:0:
293,138,903,2,0,P|303:173|301:201,1,64,0|2,0:0|0:0,0:0:0:0:
328,258,1320,2,0,P|318:293|319:321,1,64,2|0,0:0|0:0,0:0:0:0:
269,360,1736,5,10,1:0:0:0:
140,364,2153,2,0,B|125:323|81:314|81:314|74:247|132:215|132:215|142:246|177:254,1,256,6|0,1:0|0:0,0:0:0:0:
298,252,3403,6,0,B|314:176|314:176|292:130,1,128,6|4,1:0|1:3,0:0:0:0:
294,66,4028,1,0,0:0:0:0:
233,86,4236,2,0,P|202:96|169:96,1,64,0|0,1:0|1:0,0:0:0:0:
107,86,4653,2,0,P|75:86|44:96,1,64,4|0,1:3|0:0,0:0:0:0:
38,159,5070,5,10,1:1:0:0:
71,282,5486,2,0,B|107:266|107:266|156:280|156:280|219:237|179:176,1,192,6|2,1:0|0:0,0:0:0:0:
240,155,6320,1,0,0:0:0:0:
340,233,6736,6,0,P|401:243|462:213,2,128,2|2|0,0:0|0:0|0:0,0:0:0:0:
325,105,7986,1,2,0:0:0:0:
199,128,8403,6,0,B|141:108|140:156|74:132,1,128,2|0,0:0|0:0,0:0:0:0:
40,186,9028,1,4,0:3:0:0:
76,238,9236,2,0,B|114:292|150:274|158:269|168:265|204:244|245:292,1,192,4|0,3:0|0:0,0:0:0:0:
308,303,10070,6,0,B|317:217|317:217|290:176,1,128,4|8,1:0|0:0,0:0:0:0:
336,132,10695,1,0,0:0:0:0:
294,83,10903,2,0,L|143:106,1,128,0|8,0:0|0:0,0:0:0:0:
64,167,11736,6,0,P|86:231|76:294,1,128,0|8,1:0|0:0,0:0:0:0:
133,321,12361,1,0,0:0:0:0:
187,286,12570,2,0,L|322:275,1,128,0|8,0:0|0:0,0:0:0:0:
419,331,13403,6,0,B|439:272|439:272|411:212,1,128,0|8,0:0|0:0,0:0:0:0:
445,157,14028,1,0,0:0:0:0:
386,131,14236,2,0,P|351:124|322:128,1,64,0|0,0:0|0:0,0:0:0:0:
288,182,14653,2,0,P|256:186|225:179,1,64,8|0,0:0|0:0,0:0:0:0:
161,172,15070,6,0,P|131:163|99:162,2,64,0|8|8,0:0|0:0|0:0,0:0:0:0:
241,271,15903,2,0,P|271:280|303:281,2,64,8|4|4,0:3|0:3|0:3,0:0:0:0:
148,321,16736,6,0,P|135:291|131:259,1,64,4|2,1:0|0:3,0:0:0:0:
82,217,17153,2,0,P|94:187|98:156,1,64,8|0,0:0|0:0,0:0:0:0:
106,92,17570,2,0,B|179:66|179:66|233:78,1,128,0|8,0:0|0:0,0:0:0:0:
287,101,18195,1,0,0:0:0:0:
324,152,18403,6,0,B|373:163|373:163|446:137,1,128,0|8,0:0|0:0,0:0:0:0:
486,187,19028,1,0,0:0:0:0:
475,250,19236,2,0,P|420:280|357:279,1,128,0|8,0:0|0:0,0:0:0:0:
307,238,19861,1,0,0:0:0:0:
251,204,20070,6,0,P|187:202|132:233,1,128,0|8,0:0|0:0,0:0:0:0:
102,289,20695,1,0,0:0:0:0:
44,261,20903,2,0,L|29:133,1,128,0|8,0:0|0:0,0:0:0:0:
153,103,21736,6,0,L|216:109,2,64,0|0|8,0:0|0:0|0:0,0:0:0:0:
232,198,22570,2,0,L|295:204,2,64,8|0|8,0:0|0:0|0:0,0:0:0:0:
117,222,23403,6,0,P|127:256|122:285,1,64,4|2,0:0|0:3,0:0:0:0:
176,320,23820,2,0,P|206:309|256:313,1,64,8|0,0:0|0:0,0:0:0:0:
298,329,24236,2,0,B|282:249|282:249|298:201,1,128,0|8,0:0|0:0,0:0:0:0:
349,168,24861,1,0,0:0:0:0:
320,110,25070,6,0,P|258:127|192:119,1,128,0|8,0:0|0:0,0:0:0:0:
141,154,25695,1,0,0:0:0:0:
81,130,25903,2,0,L|100:256,1,128,0|8,0:0|0:0,0:0:0:0:
146,300,26528,1,0,0:0:0:0:
208,287,26736,6,0,P|268:269|331:275,1,128,0|8,0:0|0:0,0:0:0:0:
392,295,27361,1,0,0:0:0:0:
442,334,27570,2,0,L|459:185,1,128,0|8,0:0|0:0,0:0:0:0:
406,87,28403,6,0,P|375:83|343:85,1,64,4|8,0:2|1:3,0:0:0:0:
295,128,28820,2,0,P|263:130|231:125,1,64,4|0,0:3|0:0,0:0:0:0:
191,75,29236,2,0,B|111:59|111:59|66:93,1,128,8|4,0:0|0:3,0:0:0:0:
106,210,30070,6,0,P|77:222|45:224,2,64,4|0|8,1:0|0:0|1:0,0:0:0:0:
171,210,30695,1,0,1:0:0:0:
199,266,30903,2,0,B|284:244|284:244|318:265,1,128,0|0,0:0|1:0,0:0:0:0:
422,339,31736,6,0,L|427:267,1,64,8|0,3:0|3:0,0:0:0:0:
394,219,32153,2,0,L|389:155,1,64,0|0,1:0|1:0,0:0:0:0:
420,99,32570,2,0,P|358:115|295:106,1,128,12|8,1:0|1:3,0:0:0:0:
168,124,33403,6,0,P|163:95|170:60,2,64,4|8|0,1:0|1:0|3:0,0:0:0:0:
125,171,34028,1,0,1:0:0:0:
84,219,34236,2,0,P|147:210|210:219,1,128,8|0,1:0|1:0,0:0:0:0:
259,338,35070,6,0,B|312:316|312:316|381:326,1,128,0|8,1:0|1:3,0:0:0:0:
445,321,35695,1,4,1:3:0:0:
442,257,35903,2,0,P|444:222|456:180,1,64,0|4,1:0|1:3,0:0:0:0:
416,140,36320,2,0,P|416:104|402:63,1,64,4|4,1:3|0:3,0:0:0:0:
450,29,36736,6,0,P|391:54|328:46,1,128,4|8,1:0|0:0,0:0:0:0:
288,168,37570,2,0,P|256:174|227:188,1,64,0|0,0:0|0:0,0:0:0:0:
197,243,37986,2,0,P|170:224|139:214,1,64,8|0,0:0|0:0,0:0:0:0:
143,150,38403,6,0,P|78:138|11:166,1,128,0|8,0:0|0:0,0:0:0:0:
15,286,39236,2,0,L|91:272,1,64,0|0,0:0|0:0,0:0:0:0:
121,321,39653,2,0,L|183:332,1,64,8|0,0:0|0:0,0:0:0:0:
247,327,40070,6,0,B|278:258|278:258|261:199,1,128,0|8,0:0|0:0,0:0:0:0:
179,110,40903,2,0,P|207:98|240:93,1,64,0|0,0:0|0:0,0:0:0:0:
301,112,41320,2,0,L|364:107,1,64,8|0,0:0|0:0,0:0:0:0:
424,130,41736,6,0,B|408:268|408:268|451:328,1,192,4|4,0:2|0:0,0:0:0:0:
324,210,42986,1,4,0:3:0:0:
262,322,43403,6,0,P|201:342|138:337,2,128,4|8|4,0:2|0:0|0:3,0:0:0:0:
323,305,44445,1,4,0:3:0:0:
389,331,44653,2,0,B|406:212|332:212|365:76,1,256,4|0,1:0|3:0,0:0:0:0:
243,37,45903,5,4,3:0:0:0:
166,91,46320,2,0,P|131:90|100:98,1,64,2|0,1:3|3:0,0:0:0:0:
51,135,46736,6,0,P|69:199|58:262,2,128,4|8|8,1:2|1:0|0:0,0:0:0:0:
94,88,47778,1,4,0:3:0:0:
166,91,47986,2,0,B|176:185|238:227|238:227|187:257|178:298,1,256,4|4,1:0|0:3,0:0:0:0:
299,341,49236,6,0,P|328:331|361:327,1,64,8|0,0:0|0:0,0:0:0:0:
420,344,49653,2,0,P|451:341|482:330,1,64,0|0,0:0|0:0,0:0:0:0:
491,267,50070,5,4,0:2:0:0:
374,57,50695,2,0,B|315:59|277:84|277:84|247:50|247:50|204:73|157:67,2,240,4|4|4,0:0|0:2|0:0,0:0:0:0:
394,296,52570,2,0,B|279:327|279:327|245:303,1,160,4|0,0:2|0:0,0:0:0:0:
299,153,53403,5,4,0:0:0:0:
256,192,53611,12,0,55903,0:0:0:0:
149,67,56736,6,0,P|118:60|86:62,2,64,0|2|0,3:0|0:0|0:0,0:0:0:0:
228,132,57570,2,0,P|290:137|346:107,1,128,2|0,0:0|0:0,0:0:0:0:
427,45,58403,2,0,L|460:172,1,128,2|0,0:0|0:0,0:0:0:0:
446,270,59236,2,0,P|388:294|326:280,1,128,0|2,0:0|0:0,0:0:0:0:
245,343,60070,6,0,B|151:238|256:221|226:52|70:44|0:167|98:241,1,448,2|0,0:0|0:0,0:0:0:0:
65,290,61736,5,0,0:0:0:0:
175,354,62153,1,2,0:0:0:0:
270,268,62570,1,2,0:0:0:0:
212,153,62986,1,0,0:0:0:0:
293,54,63403,6,0,P|354:69|414:50,2,128,2|0|0,0:0|0:0|0:0,0:0:0:0:
164,56,64653,1,0,0:0:0:0:
35,57,65070,2,0,L|50:191,2,128,2|0|0,0:0|0:0|0:0,0:0:0:0:
160,31,66320,1,2,1:2:0:0:
332,32,66736,6,0,P|325:68|327:103,1,71.9999978027344,4|2,1:0|1:2,0:0:0:0:
389,138,67153,2,0,P|396:174|393:209,1,71.9999978027344,0|2,1:0|1:2,0:0:0:0:
424,274,67570,2,0,B|331:270|331:270|281:245,1,143.999995605469,0|0,1:0|1:0,0:0:0:0:
231,199,68195,1,2,1:2:0:0:
164,226,68403,6,0,P|160:185|167:154,2,71.9999978027344,0|2|0,1:0|1:2|1:0,0:0:0:0:
249,341,69236,2,0,P|178:338|117:301,1,143.999995605469,0|0,1:0|1:0,0:0:0:0:
41,177,70070,6,0,L|110:194,1,71.9999978027344,0|2,1:0|1:2,0:0:0:0:
182,191,70486,2,0,L|240:231,1,71.9999978027344,0|2,1:0|1:2,0:0:0:0:
276,295,70903,2,0,P|346:272|419:284,1,143.999995605469,0|0,1:0|1:0,0:0:0:0:
484,265,71528,1,2,1:2:0:0:
437,210,71736,6,0,L|534:198,2,71.9999978027344,0|2|0,1:0|1:2|1:0,0:0:0:0:
370,81,72570,2,0,P|300:104|226:91,1,143.999995605469,0|4,1:0|1:3,0:0:0:0:
88,78,73403,6,0,P|84:112|94:149,1,71.9999978027344,4|0,1:0|0:0,0:0:0:0:
135,207,73820,2,0,P|139:241|128:278,1,71.9999978027344,0|2,1:0|1:2,0:0:0:0:
184,321,74236,2,0,L|261:305,1,71.9999978027344,0|0,1:0|0:0,0:0:0:0:
294,246,74653,2,0,L|364:231,1,71.9999978027344,0|2,1:0|1:2,0:0:0:0:
432,254,75070,6,0,P|418:215|419:184,1,71.9999978027344,0|2,1:0|1:2,0:0:0:0:
488,166,75486,2,0,P|501:126|500:95,1,71.9999978027344,0|2,1:0|1:2,0:0:0:0:
457,38,75903,2,0,P|386:33|321:60,1,143.999995605469,0|0,1:0|1:0,0:0:0:0:
163,29,76736,6,0,B|161:75|161:75|149:98,1,71.9999978027344,0|0,1:0|0:0,0:0:0:0:
78,110,77153,2,0,B|80:156|80:156|91:179,1,71.9999978027344,0|2,1:0|1:2,0:0:0:0:
163,185,77570,2,0,P|164:226|153:256,1,71.9999978027344,0|0,1:0|0:0,0:0:0:0:
85,277,77986,2,0,P|84:318|94:348,1,71.9999978027344,0|2,1:0|1:2,0:0:0:0:
166,350,78403,5,4,1:3:0:0:
265,246,78820,1,8,1:3:0:0:
400,293,79236,2,0,P|405:216|424:147,2,143.999995605469,4|2|6,1:2|0:1|1:0,0:0:0:0:
306,181,80486,6,0,P|241:211|170:208,1,143.999995605469,2|0,1:3|0:0,0:0:0:0:
125,264,81111,2,0,L|128:192,1,71.9999978027344,8|6,1:3|1:3,0:0:0:0:
85,134,81528,6,0,P|96:93|88:62,1,71.9999978027344,4|4,1:3|1:2,0:0:0:0:
233,72,82153,2,0,L|395:64,2,143.999995605469,4|4|4,1:3|1:3|0:3,0:0:0:0:
408,181,83611,2,0,P|337:218|277:194,1,143.999995605469,0|4,1:0|0:3,0:0:0:0:
209,187,84236,1,4,1:2:0:0:
85,112,84653,2,0,P|97:147|99:195,1,71.9999978027344,4|4,1:3|1:2,0:0:0:0:
214,336,85486,6,0,L|221:272,1,64,2|2,0:0|0:0,0:0:0:0:
177,224,85903,2,0,B|258:230|258:230|297:205,1,128,0|0,0:0|0:0,0:0:0:0:
350,96,86736,6,0,P|317:94|289:105,1,64,0|0,0:0|0:0,0:0:0:0:
245,58,87153,2,0,P|191:81|119:83,2,128,0|2|0,0:0|0:0|0:0,0:0:0:0:
246,186,88403,2,0,P|277:184|317:185,1,64,2|0,0:0|0:0,0:0:0:0:
357,141,88820,1,4,1:2:0:0:
480,173,89236,5,4,1:0:0:0:
436,293,89652,2,0,P|402:296|375:314,1,64,2|8,1:3|1:3,0:0:0:0:
307,204,90277,2,0,P|292:229|287:264,1,64,8|4,1:3|1:3,0:0:0:0:
236,302,90694,2,0,P|250:327|255:362,1,64,4|4,1:3|1:2,0:0:0:0:
67,146,95068,6,0,P|70:188|60:229,2,85.3333333333333,0|2|2,0:0|0:0|0:0,0:0:0:0:
117,77,95901,2,0,P|78:58|48:29,2,85.3333333333333,0|2|2,0:0|0:0|0:0,0:0:0:0:
155,153,96734,2,0,P|189:128|230:117,2,85.3333333333333,0|2|2,0:0|0:0|0:0,0:0:0:0:
473,277,98401,6,0,P|469:319|479:360,2,85.3333333333333,0|2|2,0:0|0:0|0:0,0:0:0:0:
423,208,99234,2,0,P|461:189|491:160,2,85.3333333333333,0|2|2,0:0|0:0|0:0,0:0:0:0:
385,284,100067,2,0,P|350:259|309:248,2,85.3333333333333,0|2|2,0:0|0:0|0:0,0:0:0:0:
85,253,101734,6,0,P|114:222|151:201,2,85.3333333333333,0|2|2,0:0|0:0|0:0,0:0:0:0:
92,338,102568,2,0,P|50:327|13:306,2,85.3333333333333,0|2|2,0:0|0:0|0:0,0:0:0:0:
165,295,103401,2,0,P|176:335|176:378,2,85.3333333333333,2|2|2,0:0|0:0|0:0,0:0:0:0:
426,74,105068,6,0,P|396:43|359:22,2,85.3333333333333,0|2|2,0:0|0:0|0:0,0:0:0:0:
419,159,105902,2,0,P|460:148|497:127,2,85.3333333333333,0|2|2,0:0|0:0|0:0,0:0:0:0:
346,116,106735,2,0,P|334:156|334:199,2,85.3333333333333,0|0|2,0:0|0:0|0:0,0:0:0:0:
275,68,107568,1,0,0:0:0:0:
34,208,108401,6,0,B|124:265|200:216|200:216|285:151|363:191,1,352,0|0,0:0|0:0,0:0:0:0:
476,78,110068,2,0,B|386:134|311:85|311:85|227:21|146:62,1,352,0|0,0:0|0:0,0:0:0:0:
105,249,111734,6,0,P|118:166|93:85,2,170.666666666667,2|2|2,0:0|0:0|0:0,0:0:0:0:
198,349,113401,1,2,0:0:0:0:
256,192,118401,5,4,1:2:0:0:
256,192,120068,12,2,122568,0:0:0:0:
424,39,123401,6,0,L|432:125,1,80,6|0,1:2|1:0,0:0:0:0:
495,167,123818,2,0,P|455:167|416:184,1,80,2|0,1:2|0:0,0:0:0:0:
384,254,124234,2,0,P|344:254|305:236,1,80,2|0,1:2|1:2,0:0:0:0:
241,283,124651,2,0,L|239:185,1,80,2|0,1:2|0:0,0:0:0:0:
255,124,125068,6,0,B|155:107|155:107|96:146,1,160,2|2,1:2|1:2,0:0:0:0:
36,178,125693,1,0,0:0:0:0:
42,257,125901,2,0,P|72:325|146:316,1,160,2|2,1:2|1:2,0:0:0:0:
128,157,126734,6,0,P|130:114|116:77,1,80,6|0,1:2|1:0,0:0:0:0:
43,48,127151,2,0,L|131:41,1,80,2|0,1:2|0:0,0:0:0:0:
202,44,127568,2,0,P|240:54|281:50,1,80,2|0,1:2|1:2,0:0:0:0:
359,54,127984,2,0,L|345:132,1,80,2|0,1:2|0:0,0:0:0:0:
418,167,128401,6,0,P|338:164|262:186,1,160,2|2,1:2|1:2,0:0:0:0:
203,132,129026,1,0,0:0:0:0:
124,117,129234,2,0,B|112:227|112:227|160:264,1,160,6|0,1:2|1:0,0:0:0:0:
289,338,130068,6,0,P|328:336|367:324,1,80,4|2,1:2|1:2,0:0:0:0:
442,350,130484,2,0,P|463:317|492:288,1,80,0|2,0:0|1:2,0:0:0:0:
461,214,130901,2,0,P|383:184|301:204,1,160,0|0,1:0|0:0,0:0:0:0:
210,74,131734,6,0,P|171:76|131:87,1,80,0|2,1:0|1:2,0:0:0:0:
57,62,132150,2,0,P|35:94|6:123,1,80,0|2,0:0|1:2,0:0:0:0:
38,198,132567,2,0,P|116:228|197:207,1,160,0|2,1:0|0:0,0:0:0:0:
286,85,133401,6,0,L|282:174,1,80,0|2,1:0|1:2,0:0:0:0:
305,241,133818,2,0,L|309:330,1,80,0|2,0:0|1:2,0:0:0:0:
231,340,134234,2,0,P|194:349|151:345,1,80,0|2,1:0|1:2,0:0:0:0:
128,269,134651,2,0,P|88:266|49:275,1,80,0|2,0:0|1:2,0:0:0:0:
29,197,135068,6,0,B|54:102|54:102|28:45,1,160,0|0,1:0|0:0,0:0:0:0:
167,125,135901,2,0,P|206:128|245:118,2,80,0|2|4,1:0|1:2|0:3,0:0:0:0:
273,196,136734,5,4,0:3:0:0:
397,230,137150,1,12,0:3:0:0:
363,353,137567,1,4,0:3:0:0:
240,320,137984,1,4,1:3:0:0:
117,287,138401,5,4,0:3:0:0:
150,164,138818,1,4,0:3:0:0:
183,41,139234,1,4,0:3:0:0:
306,74,139651,1,4,0:3:0:0:
429,107,140068,5,4,0:3:0:0:
396,230,140484,1,4,0:3:0:0:
273,197,140901,1,4,0:3:0:0:
306,74,141318,1,2,1:2:0:0:
243,87,141526,1,2,1:3:0:0:
233,146,141734,6,0,B|215:177|42:241|-168:89|101:-204|232:22|157:112|92:92,1,512,2|4,1:2|1:2,0:0:0:0:
86,298,144234,6,0,P|115:287|148:282,1,64,2|8,1:2|1:3,0:0:0:0:
197,270,144651,2,0,P|226:281|258:285,1,64,4|4,1:3|0:3,0:0:0:0:
309,293,145068,5,4,0:3:0:0:
250,179,145484,1,4,1:2:0:0:
300,61,145901,2,0,P|360:41|423:47,1,128,0|2,1:0|2:0,0:0:0:0:
466,95,146526,1,0,0:0:0:0:
482,156,146734,6,0,P|421:176|358:170,1,128,0|2,1:0|2:0,0:0:0:0:
374,297,147568,1,0,1:0:0:0:
260,356,147984,1,2,1:2:0:0:
181,254,148401,6,0,P|155:195|162:132,1,128,0|2,1:0|2:0,0:0:0:0:
195,77,149026,1,0,0:0:0:0:
253,51,149234,2,0,P|316:25|376:35,1,128,0|6,1:0|2:0,0:0:0:0:
394,160,150068,6,0,L|385:241,1,64,0|2,0:0|1:2,0:0:0:0:
437,263,150484,2,0,L|428:344,1,64,4|4,1:2|0:3,0:0:0:0:
375,360,150901,2,0,P|341:372|311:366,1,64,4|2,0:2|0:0,0:0:0:0:
259,334,151318,2,0,P|225:322|195:327,1,64,4|2,0:3|0:0,0:0:0:0:
134,335,151734,6,0,B|99:261|99:261|108:209,1,128,0|8,1:0|1:1,0:0:0:0:
156,174,152359,1,2,0:0:0:0:
212,203,152568,2,0,P|274:211|332:187,1,128,0|8,1:0|1:1,0:0:0:0:
380,143,153193,1,2,0:0:0:0:
439,165,153401,6,0,L|456:19,1,128,0|8,1:0|1:0,0:0:0:0:
326,49,154234,2,0,P|292:46|262:53,1,64,0|8,1:0|1:0,0:0:0:0:
219,99,154651,2,0,P|187:105|156:102,1,64,8|4,1:0|1:3,0:0:0:0:
93,85,155068,5,4,1:0:0:0:
168,329,155901,6,0,L|149:200,1,128,4|2,1:2|0:0,0:0:0:0:
249,178,156734,2,0,B|188:155|127:207|127:207|79:244|8:221,1,256,0|0,0:0|0:0,0:0:0:0:
252,324,158401,5,0,0:0:0:0:
344,55,159234,2,0,L|363:184,1,128,0|2,0:0|0:0,0:0:0:0:
263,206,160067,2,0,B|324:229|385:177|385:177|433:140|504:163,1,256,0|0,0:0|0:0,0:0:0:0:
237,333,161734,6,0,B|225:260|153:216|153:216|144:161|183:116,1,256,0|2,0:0|0:0,0:0:0:0:
435,156,163401,6,0,B|375:179|364:250|364:250|325:183|254:186,1,256,0|2,0:0|0:0,0:0:0:0:
53,342,165068,6,0,P|49:276|31:213,2,128,2|2|2,0:0|0:0|0:0,0:0:0:0:
167,284,166318,1,2,0:0:0:0:
284,333,166734,2,0,P|377:338|371:207,1,256,2|2,0:0|0:0,0:0:0:0:
294,105,167984,1,0,0:0:0:0:
165,99,168401,6,0,P|179:59|210:29,2,85.3333333333333,6|0|0,0:0|0:0|0:0,0:0:0:0:
82,138,169234,2,0,P|100:198|91:261,1,128,6|0,0:0|2:0,0:0:0:0:
196,334,170068,6,0,P|226:305|241:265,2,85.3333333333333,6|0|0,0:0|0:0|0:0,0:0:0:0:
156,258,170901,2,0,P|138:198|147:135,1,128,6|0,0:0|2:0,0:0:0:0:
165,7,171734,5,6,1:0:0:0:
324,31,172012,2,0,L|314:82,1,42.6666666666667,8|8,1:3|1:3,0:0:0:0:
266,114,172290,2,0,L|277:171,1,42.6666666666667,4|4,1:3|1:3,0:0:0:0:
298,215,172568,6,0,B|214:225|157:295|157:295|124:247|85:246,1,256,4|8,1:3|1:0,0:0:0:0:
38,126,173818,1,4,0:3:0:0:
38,126,174234,1,4,0:3:0:0:
