osu file format v14

[General]
AudioFilename: Once Upon A Time.mp3
AudioLeadIn: 0
PreviewTime: 66215
Countdown: 0
SampleSet: Soft
StackLeniency: 0.7
Mode: 0
LetterboxInBreaks: 0
WidescreenStoryboard: 1

[Editor]
Bookmarks: 23501,80168,112110,123499,145166
DistanceSpacing: 1
BeatDivisor: 12
GridSize: 32
TimelineZoom: 5.799997

[Metadata]
Title:Once Upon A Time
TitleUnicode:Once Upon A Time
Artist:Warak
ArtistUnicode:Warak
Creator:Xilver
Version:Hard
Source:HIGH5
Tags:rhythm mobile game story telling undeadcapulet -pc
BeatmapID:1246525
BeatmapSetID:519154

[Difficulty]
HPDrainRate:4
CircleSize:4
OverallDifficulty:6
ApproachRate:8
SliderMultiplier:1.7
SliderTickRate:1

[Events]
//Background and Video events
0,0,"once upon a time.jpg",0,0
//Break Periods
2,91833,94318
//Storyboard Layer 0 (Background)
//Storyboard Layer 1 (Fail)
//Storyboard Layer 2 (Pass)
//Storyboard Layer 3 (Foreground)
//Storyboard Sound Samples

[TimingPoints]
70,416.666666666667,4,2,0,60,1,0
70,-100,4,2,0,60,0,0
7986,-100,4,2,0,30,0,0
8195,-100,4,2,0,40,0,0
8403,-100,4,2,0,60,0,0
9028,-100,4,2,0,40,0,0
9445,-100,4,2,0,50,0,0
10070,-90.9090909090909,4,1,0,60,0,0
30070,-90.9090909090909,4,2,0,60,0,0
36736,-90.9090909090909,4,1,0,60,0,0
44653,-90.9090909090909,4,2,0,60,0,0
46736,-90.9090909090909,4,1,0,60,0,0
56320,-90.9090909090909,4,2,0,60,0,0
56458,-90.9090909090909,4,2,0,5,0,0
56528,-90.9090909090909,4,2,0,60,0,0
56667,-90.9090909090909,4,2,0,5,0,0
56736,-90.9090909090909,4,2,0,60,0,0
56945,-90.9090909090909,4,2,0,40,0,0
65486,-90.9090909090909,4,2,0,60,0,0
66736,-90.9090909090909,4,2,0,60,0,1
80070,-90.9090909090909,4,2,0,60,0,0
85278,-90.9090909090909,4,2,0,50,0,0
85903,-166.666666666667,4,2,0,50,0,0
88403,-100,4,2,0,50,0,0
88820,-100,4,2,0,60,0,0
89236,416.666666666667,4,2,0,60,1,0
90902,416.666666666667,5,2,0,60,1,0
95068,416.666666666667,4,2,0,40,1,0
95068,-125,4,2,0,40,0,0
107776,-125,4,2,0,40,0,0
107845,-125,4,2,0,40,0,0
108054,-125,4,2,0,40,0,0
108123,-125,4,2,0,40,0,0
108331,-125,4,2,0,40,0,0
108401,-166.666666666667,4,2,0,40,0,0
118401,-166.666666666667,4,2,0,60,0,0
120068,-111.111111111111,4,2,0,45,0,0
120484,-111.111111111111,4,2,0,40,0,0
120901,-111.111111111111,4,2,0,35,0,0
121318,-111.111111111111,4,2,0,30,0,0
121943,-111.111111111111,4,2,0,35,0,0
122151,-111.111111111111,4,2,0,48,0,0
122359,-111.111111111111,4,2,0,60,0,0
122568,-111.111111111111,4,2,0,70,0,0
123401,-111.111111111111,4,2,0,70,0,1
126526,-111.111111111111,4,2,0,60,0,1
136526,-111.111111111111,4,2,0,20,0,1
136734,-111.111111111111,4,2,0,40,0,0
138818,-111.111111111111,4,2,0,50,0,0
140276,-111.111111111111,4,2,0,60,0,0
141734,-111.111111111111,4,2,0,40,0,0
142706,-111.111111111111,4,2,0,60,0,0
145484,-111.111111111111,4,2,0,60,0,1
146734,-111.111111111111,4,2,0,60,0,0
155693,-111.111111111111,4,2,0,50,0,0
165068,-166.666666666666,4,2,0,50,0,0
166734,-125,4,2,0,50,0,0
167984,-125,4,2,0,60,0,0
168401,-100,4,1,0,60,0,0

[Colours]
Combo1 : 175,204,220
Combo2 : 160,211,175
Combo3 : 237,206,150

[HitObjects]
60,38,70,6,0,B|66:106|66:106|86:136|86:136|94:214,1,170,6|0,1:0|0:0,0:0:0:0:
167,242,696,1,2,0:0:0:0:
167,242,800,1,2,0:0:0:0:
167,242,904,2,0,P|209:246|249:234,1,85,0|2,0:0|0:0,0:0:0:0:
256,149,1321,2,0,P|296:137|338:141,1,85,2|0,0:0|0:0,0:0:0:0:
437,70,1737,6,0,L|424:154,1,85,10|0,1:0|1:0,0:0:0:0:
434,238,2154,2,0,B|349:224|357:285|269:243,1,170,6|0,1:0|0:0,0:0:0:0:
235,321,2778,1,0,0:0:0:0:
235,321,2882,1,0,0:0:0:0:
235,321,2986,1,0,0:0:0:0:
189,249,3195,1,0,0:0:0:0:
135,315,3403,6,0,B|91:225|91:225|108:157,1,170,6|4,1:0|1:3,0:0:0:0:
155,86,4028,1,0,0:0:0:0:
155,86,4132,1,0,0:0:0:0:
155,86,4236,2,0,L|257:73,1,85,0|0,1:0|1:0,0:0:0:0:
297,137,4653,2,0,L|381:126,1,85,4|0,1:3|0:0,0:0:0:0:
445,182,5070,6,0,P|445:223|423:259,1,85,10|0,1:1|1:0,0:0:0:0:
381,334,5486,2,0,B|331:337|293:301|293:301|274:334|235:341,1,170,6|0,1:0|0:0,0:0:0:0:
216,258,6111,1,2,0:0:0:0:
144,320,6320,1,0,0:0:0:0:
133,235,6528,1,2,0:0:0:0:
194,177,6736,6,0,P|196:134|183:94,2,85,2|0|2,0:0|0:0|0:0,0:0:0:0:
279,185,7361,2,0,B|371:220|344:155|448:170,1,170,2|0,0:0|0:0,0:0:0:0:
502,230,7986,2,0,P|468:254|426:255,1,85,2|2,0:0|0:0,0:0:0:0:
355,303,8403,6,0,B|311:367|207:338|207:338|219:280|276:262,1,255,2|4,0:0|0:3,0:0:0:0:
307,197,9236,2,0,L|292:152,3,42.5,4|0|0|0,3:0|0:0|0:0|0:0,0:0:0:0:
334,145,9653,2,0,L|349:100,3,42.5,0|0|0|0,0:0|0:0|0:0|0:0,0:0:0:0:
305,77,10070,6,0,P|222:36|134:60,1,187.000005706787,4|8,1:0|0:0,0:0:0:0:
67,126,10695,1,0,0:0:0:0:
67,126,10799,1,8,0:0:0:0:
67,126,10903,2,0,L|77:218,1,93.5000028533936,0|0,0:0|0:0,0:0:0:0:
167,244,11320,2,0,L|156:151,1,93.5000028533936,8|0,0:0|0:0,0:0:0:0:
249,140,11736,6,0,B|359:171|359:171|421:133,1,187.000005706787,0|8,1:0|0:0,0:0:0:0:
451,221,12361,1,0,0:0:0:0:
451,221,12465,1,8,0:0:0:0:
451,221,12570,2,0,L|459:344,1,93.5000028533936,0|0,0:0|0:0,0:0:0:0:
372,353,12986,2,0,L|364:230,1,93.5000028533936,8|0,0:0|0:0,0:0:0:0:
275,233,13403,6,0,B|166:218|188:282|96:267,1,187.000005706787,0|8,0:0|0:0,0:0:0:0:
122,177,14028,1,0,0:0:0:0:
122,177,14132,1,8,0:0:0:0:
122,177,14236,2,0,P|105:133|106:87,1,93.5000028533936,0|0,0:0|0:0,0:0:0:0:
176,24,14653,2,0,P|192:67|191:113,1,93.5000028533936,8|0,0:0|0:0,0:0:0:0:
205,206,15070,5,0,0:0:0:0:
274,144,15278,2,0,L|319:134,2,46.7500014266968,8|0|8,0:0|2:0|0:0,0:0:0:0:
346,203,15695,2,0,L|391:193,2,46.7500014266968,0|0|8,0:0|0:0|0:3,0:0:0:0:
314,291,16111,2,0,L|359:281,2,46.7500014266968,4|0|4,0:3|0:0|0:3,0:0:0:0:
379,357,16528,2,0,L|424:347,2,46.7500014266968,4|4|4,0:3|0:3|1:0,0:0:0:0:
314,291,16945,5,2,0:3:0:0:
271,374,17153,1,8,0:0:0:0:
220,295,17361,1,0,0:0:0:0:
144,349,17570,2,0,P|97:350|55:330,1,93.5000028533936,0|0,0:0|0:0,0:0:0:0:
38,238,17986,2,0,P|84:237|126:257,1,93.5000028533936,8|0,0:0|0:0,0:0:0:0:
213,221,18403,6,0,B|165:115|165:115|186:47,1,187.000005706787,0|8,0:0|0:0,0:0:0:0:
258,106,19028,1,0,0:0:0:0:
258,106,19132,1,8,0:0:0:0:
258,106,19236,2,0,L|365:88,1,93.5000028533936,0|2,0:0|0:2,0:0:0:0:
410,162,19653,2,0,L|303:180,1,93.5000028533936,8|0,0:0|0:0,0:0:0:0:
258,250,20070,6,0,P|174:220|168:132,1,187.000005706787,0|8,0:0|0:0,0:0:0:0:
131,46,20695,1,0,0:0:0:0:
49,92,20903,2,0,P|68:135|63:181,1,93.5000028533936,0|0,0:0|0:0,0:0:0:0:
100,267,21320,2,0,P|81:309|86:355,1,93.5000028533936,8|0,0:0|0:0,0:0:0:0:
175,325,21736,5,0,0:0:0:0:
266,347,21945,1,0,0:0:0:0:
266,347,22049,1,0,0:0:0:0:
266,347,22153,2,0,L|374:330,1,93.5000028533936,8|4,0:0|0:2,0:0:0:0:
439,285,22570,1,8,0:0:0:0:
355,244,22778,1,0,0:0:0:0:
397,159,22987,1,8,0:0:0:0:
481,201,23195,1,4,0:3:0:0:
490,108,23403,6,0,P|423:47|335:65,1,187.000005706787,4|8,0:0|0:0,0:0:0:0:
269,131,24028,1,0,0:0:0:0:
269,131,24132,1,8,0:0:0:0:
269,130,24236,2,0,P|225:147|180:140,1,93.5000028533936,0|0,0:0|0:0,0:0:0:0:
126,64,24653,2,0,L|135:157,1,93.5000028533936,8|0,0:0|0:0,0:0:0:0:
72,226,25070,6,0,B|164:279|158:217|251:229,1,187.000005706787,0|8,0:0|0:0,0:0:0:0:
224,338,25695,1,0,0:0:0:0:
224,338,25799,1,8,0:0:0:0:
223,337,25903,2,0,P|269:344|313:328,1,93.5000028533936,0|2,0:0|0:2,0:0:0:0:
420,365,26320,2,0,P|404:321|410:275,1,93.5000028533936,8|0,0:0|0:0,0:0:0:0:
488,195,26736,6,0,B|375:159|375:159|312:187,1,187.000005706787,0|8,0:0|0:0,0:0:0:0:
217,93,27361,1,0,0:0:0:0:
217,93,27465,1,8,0:0:0:0:
217,93,27570,2,0,L|224:186,1,93.5000028533936,0|0,0:0|0:0,0:0:0:0:
128,243,27986,2,0,L|120:149,1,93.5000028533936,8|0,0:0|0:0,0:0:0:0:
143,39,28403,5,4,0:2:0:0:
253,23,28611,1,8,1:3:0:0:
342,91,28820,1,4,0:3:0:0:
319,200,29028,1,0,0:0:0:0:
319,200,29132,1,0,0:0:0:0:
319,200,29236,6,0,L|382:192,2,46.7500014266968,8|8|4,0:0|0:0|0:3,0:0:0:0:
404,272,29653,2,0,L|467:264,2,46.7500014266968,4|2|0,0:3|1:2|0:0,0:0:0:0:
306,328,30070,5,4,1:0:0:0:
219,270,30278,1,0,0:0:0:0:
219,270,30382,1,0,0:0:0:0:
219,269,30486,2,0,P|176:288|130:288,1,93.5000028533936,8|0,1:0|1:0,0:0:0:0:
57,190,30903,2,0,P|119:159|189:154,1,140.25000428009,0|0,0:0|0:0,0:0:0:0:
231,191,31320,2,0,L|229:94,1,93.5000028533936,0|0,1:0|0:0,0:0:0:0:
351,43,31736,5,8,3:0:0:0:
351,43,31945,1,0,3:0:0:0:
461,60,32153,2,0,L|451:162,1,93.5000028533936,0|0,1:0|1:0,0:0:0:0:
339,154,32570,1,12,1:0:0:0:
339,154,32779,1,4,1:3:0:0:
229,171,32987,2,0,L|239:273,1,93.5000028533936,8|8,1:3|1:3,0:0:0:0:
342,304,33403,5,4,1:0:0:0:
440,250,33611,1,8,1:0:0:0:
440,250,33715,1,0,0:0:0:0:
439,250,33820,2,0,P|462:209|460:163,1,93.5000028533936,0|0,3:0|1:0,0:0:0:0:
339,154,34236,2,0,P|297:100|313:34,1,140.25000428009,8|0,1:0|3:0,0:0:0:0:
259,52,34653,2,0,L|149:69,1,93.5000028533936,0|8,1:0|1:0,0:0:0:0:
55,83,35070,5,0,1:0:0:0:
128,167,35278,1,8,1:0:0:0:
128,167,35382,1,8,1:3:0:0:
128,167,35486,2,0,P|136:212|127:258,1,93.5000028533936,8|4,1:3|1:3,0:0:0:0:
238,237,35903,1,0,1:0:0:0:
322,278,36111,1,4,1:3:0:0:
280,363,36320,1,4,1:3:0:0:
196,321,36528,1,4,0:3:0:0:
238,237,36736,6,0,P|220:187|227:144,1,93.5000028533936,4|0,1:0|0:0,0:0:0:0:
320,86,37153,2,0,P|324:132|307:175,1,93.5000028533936,8|0,0:0|0:0,0:0:0:0:
400,239,37570,2,0,L|463:221,2,46.7500014266968,0|8|0,0:0|0:0|0:0,0:0:0:0:
379,349,37986,2,0,L|279:335,1,93.5000028533936,8|0,0:0|0:0,0:0:0:0:
175,355,38403,6,0,B|192:300|192:300|186:264,1,93.5000028533936,0|0,0:0|0:0,0:0:0:0:
61,178,38820,2,0,B|56:214|56:214|73:269,1,93.5000028533936,8|0,0:0|0:0,0:0:0:0:
152,189,39236,2,0,L|209:159,2,46.7500014266968,0|8|0,0:0|0:0|0:0,0:0:0:0:
159,76,39653,2,0,P|198:60|252:67,1,93.5000028533936,8|0,0:0|0:0,0:0:0:0:
328,144,40070,6,0,L|420:128,1,93.5000028533936,0|0,0:0|0:0,0:0:0:0:
492,214,40486,2,0,L|399:229,1,93.5000028533936,8|0,0:0|0:0,0:0:0:0:
276,272,40903,2,0,L|289:316,2,46.7500014266968,0|8|0,0:0|0:0|0:0,0:0:0:0:
379,315,41320,2,0,P|402:275|396:223,1,93.5000028533936,8|0,0:0|0:0,0:0:0:0:
328,144,41736,6,0,B|291:152|256:133|256:133|208:171|208:171|147:152|147:152|122:194|85:202,1,280.500008560181,4|4,0:2|0:0,0:0:0:0:
255,351,42778,1,8,0:3:0:0:
255,351,42986,1,4,0:3:0:0:
408,187,43403,6,0,P|409:236|398:280,2,93.5000028533936,4|8|8,0:2|0:0|0:0,0:0:0:0:
456,85,44028,1,4,0:2:0:0:
256,188,44445,1,4,0:3:0:0:
259,193,44653,2,0,P|150:221|241:119,1,327.250009986878,4|0,1:0|0:0,0:0:0:0:
275,87,45486,6,0,L|295:11,2,46.7500014266968,0|0|4,3:0|3:0|3:0,0:0:0:0:
383,116,45903,2,0,L|363:40,2,46.7500014266968,4|0|0,3:0|3:0|3:0,0:0:0:0:
401,221,46320,1,2,1:3:0:0:
401,221,46424,1,0,3:0:0:0:
401,221,46528,1,0,3:0:0:0:
401,221,46632,1,0,3:0:0:0:
401,221,46736,6,0,P|450:222|499:203,2,93.5000028533936,4|0|8,1:2|2:0|1:0,0:0:0:0:
314,293,47361,1,4,1:2:0:0:
222,87,47778,1,4,0:3:0:0:
222,87,47986,2,0,P|252:204|142:106,1,374.000011413575,4|4,1:0|0:3,0:0:0:0:
28,107,49028,5,0,0:0:0:0:
91,199,49236,2,0,L|79:256,2,46.7500014266968,8|8|0,0:0|0:0|0:0,0:0:0:0:
170,278,49653,2,0,L|182:335,2,46.7500014266968,0|0|0,0:0|0:0|0:0,0:0:0:0:
196,157,50070,5,4,0:2:0:0:
470,61,50695,6,0,B|348:40|348:40|297:77,1,187.000005706787,4|0,0:0|0:0,0:0:0:0:
238,173,51320,2,0,B|360:194|360:194|410:156,1,187.000005706787,4|0,0:2|0:0,0:0:0:0:
448,261,51945,6,0,P|399:334|315:309,1,187.000005706787,4|0,0:0|0:0,0:0:0:0:
210,269,52570,2,0,P|259:196|343:221,1,187.000005706787,4|0,0:2|0:0,0:0:0:0:
406,127,53195,1,0,0:0:0:0:
406,127,53403,5,4,0:0:0:0:
256,192,53611,12,0,56320,0:0:0:0:
256,192,56736,5,0,3:0:0:0:
348,256,56945,2,0,P|383:227|437:211,2,93.5000028533936,2|0|2,0:0|0:0|0:0,0:0:0:0:
258,325,57570,2,0,P|172:333|141:252,1,187.000005706787,2|0,0:0|0:0,0:0:0:0:
38,207,58195,6,0,L|52:269,2,46.7500014266968,0|2|2,0:0|0:0|0:0,0:0:0:0:
124,135,58611,1,2,0:0:0:0:
228,174,58820,2,0,P|298:177|360:146,1,140.25000428009,0|2,0:0|0:0,0:0:0:0:
381,94,59236,2,0,L|403:214,1,93.5000028533936,0|0,0:0|0:0,0:0:0:0:
427,294,59653,5,2,0:0:0:0:
315,282,59861,1,0,0:0:0:0:
315,282,59965,1,0,0:0:0:0:
315,282,60070,2,0,P|252:312|182:310,1,140.25000428009,2|0,0:0|0:0,0:0:0:0:
154,289,60417,2,0,L|151:330,13,31.1666676177979
189,221,61528,1,0,0:0:0:0:
189,221,61632,1,0,0:0:0:0:
189,221,61736,5,0,0:0:0:0:
18,96,62153,1,2,0:0:0:0:
15,306,62570,1,2,0:0:0:0:
119,265,62778,6,0,P|116:314|107:377,2,93.5000028533936,0|0|0,0:0|0:0|0:0,0:0:0:0:
126,152,63403,1,2,0:0:0:0:
396,48,64653,5,0,0:0:0:0:
346,189,64965,2,0,P|338:175|332:156,2,31.1666676177979,0|2|2,0:0|0:0|0:0,0:0:0:0:
36,194,66320,5,2,1:2:0:0:
156,336,66736,6,0,P|202:334|245:317,1,93.5000028533936,4|2,1:0|1:2,0:0:0:0:
276,228,67153,2,0,P|229:229|186:246,1,93.5000028533936,0|2,1:0|1:2,0:0:0:0:
95,269,67570,2,0,P|47:194|96:121,1,187.000005706787,0|0,1:0|1:0,0:0:0:0:
181,82,68195,1,2,1:2:0:0:
181,82,68299,1,0,0:0:0:0:
181,82,68403,6,0,L|162:199,1,93.5000028533936,0|2,1:0|1:2,0:0:0:0:
242,229,68820,2,0,L|264:90,1,140.25000428009,0|0,1:0|0:0,0:0:0:0:
298,120,69236,2,0,P|344:127|387:109,1,93.5000028533936,0|2,1:0|1:2,0:0:0:0:
461,52,69653,1,0,1:0:0:0:
478,143,69861,1,2,1:2:0:0:
478,143,69965,1,0,0:0:0:0:
477,142,70070,6,0,P|482:189|467:233,1,93.5000028533936,0|2,1:0|1:2,0:0:0:0:
375,245,70486,2,0,P|360:289|365:335,1,93.5000028533936,0|2,1:0|1:2,0:0:0:0:
288,202,70903,2,0,P|208:236|211:140,1,187.000005706787,0|0,1:0|1:0,0:0:0:0:
229,76,71528,1,2,1:2:0:0:
229,76,71632,1,0,0:0:0:0:
229,76,71736,6,0,L|117:85,1,93.5000028533936,0|2,1:0|1:2,0:0:0:0:
60,139,72153,2,0,P|91:202|88:276,1,140.25000428009,0|0,1:0|0:0,0:0:0:0:
48,294,72570,2,0,L|160:285,1,93.5000028533936,0|0,1:0|1:0,0:0:0:0:
184,303,72882,1,4,1:3:0:0:
184,303,72986,1,4,1:3:0:0:
214,214,73195,1,0,1:0:0:0:
274,283,73403,6,0,P|340:261|409:265,1,140.25000428009,4|2,1:0|0:0,0:0:0:0:
445,295,73820,1,0,1:0:0:0:
421,204,74028,1,2,1:2:0:0:
477,129,74236,2,0,P|407:125|341:148,1,140.25000428009,0|2,1:0|0:0,0:0:0:0:
306,179,74653,1,0,1:0:0:0:
309,85,74861,1,2,1:2:0:0:
238,51,75070,6,0,L|79:77,1,140.25000428009,0|0,1:0|1:0,0:0:0:0:
87,28,75486,1,0,1:0:0:0:
33,105,75695,5,2,1:2:0:0:
48,202,75903,2,0,L|207:176,1,140.25000428009,0|0,1:0|0:0,0:0:0:0:
210,220,76320,2,0,L|205:283,1,46.7500014266968,0|2,1:0|0:0,0:0:0:0:
161,280,76528,2,0,L|166:343,1,46.7500014266968,2|0,1:2|1:0,0:0:0:0:
197,360,76736,6,0,P|269:338|347:349,1,140.25000428009,0|2,1:0|0:0,0:0:0:0:
365,377,77153,1,0,1:0:0:0:
424,304,77361,1,2,1:2:0:0:
393,194,77570,2,0,P|326:216|257:210,1,140.25000428009,0|2,1:0|0:0,0:0:0:0:
217,235,77986,1,0,1:0:0:0:
150,168,78195,1,2,1:2:0:0:
264,71,78403,5,4,1:3:0:0:
242,64,78507,1,0,1:0:0:0:
219,63,78611,1,8,1:3:0:0:
196,69,78715,1,0,1:0:0:0:
177,82,78819,1,8,1:3:0:0:
100,136,79028,1,4,1:3:0:0:
177,188,79236,1,4,1:2:0:0:
316,63,79653,6,0,B|293:181|293:181|341:231,1,187.000005706787,2|6,0:1|1:0,0:0:0:0:
460,86,80486,1,2,1:3:0:0:
458,179,80695,1,8,1:3:0:0:
341,325,81111,1,8,1:3:0:0:
247,326,81320,1,6,1:3:0:0:
177,263,81528,1,4,1:3:0:0:
171,169,81736,1,4,1:2:0:0:
355,135,82153,5,4,1:3:0:0:
355,135,82257,1,0,1:0:0:0:
355,135,82361,1,4,1:3:0:0:
293,64,82570,1,4,1:3:0:0:
213,233,82986,5,4,0:3:0:0:
213,233,83090,1,4,0:3:0:0:
213,233,83195,1,4,0:3:0:0:
70,112,83611,5,0,1:0:0:0:
103,105,83715,1,0,1:0:0:0:
136,98,83820,1,0,1:0:0:0:
204,34,84028,1,4,0:3:0:0:
229,123,84236,2,0,P|298:124|355:86,1,140.25000428009,4|0,1:2|0:0,0:0:0:0:
393,114,84653,2,0,L|392:171,1,46.7500014266968,4|4,1:3|1:3,0:0:0:0:
390,207,84861,1,4,1:2:0:0:
224,293,85278,5,0,0:0:0:0:
224,293,85382,1,0,0:0:0:0:
224,293,85486,1,2,0:0:0:0:
143,341,85695,1,2,0:0:0:0:
141,246,85903,6,0,P|103:250|71:270,1,76.4999976654053,0|2,0:0|0:0,0:0:0:0:
56,251,86320,2,0,P|71:216|69:178,1,76.4999976654053,0|2,0:0|0:0,0:0:0:0:
94,173,86736,2,0,P|116:203|149:221,1,76.4999976654053,0|2,0:0|0:0,0:0:0:0:
207,151,87153,6,0,P|215:135|219:119,2,33.9999989624024,0|2|0,0:0|0:0|0:0,0:0:0:0:
261,130,87570,2,0,P|271:145|284:156,2,33.9999989624024,2|0|2,0:0|0:0|0:0,0:0:0:0:
249,186,87986,2,0,P|232:187|215:192,2,33.9999989624024,0|2|0,0:0|0:0|0:0,0:0:0:0:
246,265,88403,5,2,0:0:0:0:
404,184,88820,1,4,1:2:0:0:
406,344,89236,1,4,1:0:0:0:
205,54,89652,5,2,1:3:0:0:
167,139,89861,1,8,1:3:0:0:
125,308,90277,5,8,1:3:0:0:
218,325,90486,1,4,1:3:0:0:
301,278,90694,1,4,1:3:0:0:
335,188,90902,1,4,1:2:0:0:
92,106,95068,5,0,0:0:0:0:
176,73,95345,2,0,L|168:128,2,45.3333333333333,2|0|2,0:0|0:0|0:0,0:0:0:0:
266,65,95901,1,0,0:0:0:0:
302,147,96179,1,2,0:0:0:0:
239,212,96456,1,2,0:0:0:0:
263,299,96734,2,0,L|309:291,1,45.3333333333333,0|2,0:0|0:0,0:0:0:0:
353,287,97012,2,0,L|397:294,1,45.3333333333333,2|0,0:0|0:0,0:0:0:0:
454,293,97290,2,0,L|500:285,1,45.3333333333333,2|0,0:0|0:0,0:0:0:0:
205,320,98401,5,0,0:0:0:0:
115,304,98679,2,0,L|129:261,2,45.3333333333333,2|0|2,0:0|0:0|0:0,0:0:0:0:
40,251,99234,1,0,0:0:0:0:
94,178,99512,1,2,0:0:0:0:
65,91,99790,1,2,0:0:0:0:
154,105,100068,2,0,P|176:100|198:99,1,45.3333333333333,0|2,0:0|0:0,0:0:0:0:
241,113,100345,2,0,P|263:118|285:118,1,45.3333333333333,2|0,0:0|0:0,0:0:0:0:
327,99,100623,2,0,P|349:94|371:93,1,45.3333333333333,2|0,0:0|0:0,0:0:0:0:
294,343,101734,5,0,0:0:0:0:
384,352,102012,2,0,L|386:290,2,45.3333333333333,2|0|2,0:0|0:0|0:0,0:0:0:0:
467,316,102568,1,0,0:0:0:0:
446,227,102845,1,2,0:0:0:0:
450,136,103123,1,2,0:0:0:0:
364,165,103401,2,0,L|319:172,1,45.3333333333333,2|0,0:0|0:0,0:0:0:0:
274,181,103679,2,0,L|229:173,1,45.3333333333333,2|0,0:0|0:0,0:0:0:0:
185,182,103956,2,0,L|140:189,1,45.3333333333333,2|0,0:0|0:0,0:0:0:0:
371,60,105068,5,0,0:0:0:0:
314,130,105345,2,0,L|297:81,2,45.3333333333333,2|0|2,0:0|0:0|0:0,0:0:0:0:
404,138,105901,1,0,0:0:0:0:
349,209,106179,1,2,0:0:0:0:
409,276,106456,1,2,0:0:0:0:
323,306,106734,2,0,P|302:316|279:317,1,45.3333333333333,0|2,0:0|0:0,0:0:0:0:
234,312,107012,2,0,P|211:313|191:323,1,45.3333333333333,0|0,0:0|0:0,0:0:0:0:
146,333,107290,2,0,P|125:343|102:344,1,45.3333333333333,2|0,0:0|0:0,0:0:0:0:
58,352,107568,6,0,B|34:300|34:300|44:268,2,90.6666666666667,0|0|0,0:0|0:0|0:0,0:0:0:0:
87,154,108401,6,0,B|165:153|212:219|212:219|229:147|281:122,1,271.999991699219,0|0,0:0|0:0,0:0:0:0:
289,272,110068,2,0,P|392:191|281:121,1,305.999990661621,0|0,0:0|0:0,0:0:0:0:
198,180,111734,6,0,B|181:100|181:100|216:58,2,135.99999584961,2|2|2,0:0|0:0|0:0,0:0:0:0:
224,313,113401,1,2,0:0:0:0:
256,192,113679,12,0,117151,0:0:0:0:
256,192,118401,5,4,1:2:0:0:
318,172,120068,6,0,P|336:165|355:163,2,38.2499988327027,2|0|2,0:0|0:0|0:0,0:0:0:0:
265,235,120484,2,0,P|258:253|256:272,2,38.2499988327027,2|0|2,0:0|0:0|0:0,0:0:0:0:
205,168,120901,2,0,P|186:161|167:159,2,38.2499988327027,2|0|2,0:0|0:0|0:0,0:0:0:0:
269,103,121318,2,0,P|275:84|277:65,2,38.2499988327027,2|0|2,0:0|0:0|0:0,0:0:0:0:
364,139,121734,5,0,1:0:0:0:
367,154,121838,1,0,1:0:0:0:
370,169,121943,1,0,1:0:0:0:
373,184,122047,1,0,1:0:0:0:
376,199,122151,2,0,P|394:199|414:196,2,38.2499988327027,0|0|0,1:0|1:0|1:0,0:0:0:0:
398,286,122568,2,0,L|317:278,1,76.4999976654053,4|4,0:3|0:3,0:0:0:0:
287,210,122984,2,0,L|210:216,1,76.4999976654053,4|0,0:3|1:0,0:0:0:0:
185,288,123401,5,6,1:2:0:0:
167,295,123505,1,0,0:0:0:0:
148,298,123609,1,0,1:0:0:0:
129,297,123713,1,0,0:0:0:0:
111,292,123818,2,0,L|71:278,2,38.2499988327027,2|0|0,1:2|0:0|0:0,0:0:0:0:
126,209,124234,5,2,1:2:0:0:
133,191,124338,1,0,0:0:0:0:
136,172,124442,1,0,1:2:0:0:
135,153,124546,1,0,0:0:0:0:
130,135,124651,2,0,L|116:95,2,38.2499988327027,2|0|0,1:2|0:0|0:0,0:0:0:0:
190,47,125068,5,2,1:2:0:0:
190,47,125172,1,0,0:0:0:0:
190,47,125276,1,0,1:0:0:0:
234,127,125484,1,2,1:2:0:0:
234,127,125588,1,0,0:0:0:0:
234,127,125692,1,0,0:0:0:0:
292,55,125901,2,0,P|350:61|406:49,1,114.749996498108,2|0,1:2|0:0,0:0:0:0:
446,30,126318,2,0,L|444:110,1,76.4999976654053,2|4,1:2|0:3,0:0:0:0:
473,200,126734,5,6,1:2:0:0:
459,201,126839,1,0,0:0:0:0:
446,203,126943,1,0,1:0:0:0:
432,204,127047,1,0,0:0:0:0:
418,205,127151,2,0,L|364:208,2,38.2499988327027,2|0|0,1:2|0:0|0:0,0:0:0:0:
363,301,127568,5,2,1:2:0:0:
349,297,127673,1,0,0:0:0:0:
336,293,127777,1,0,1:2:0:0:
322,289,127881,1,0,0:0:0:0:
309,285,127985,2,0,L|257:269,2,38.2499988327027,2|0|0,1:2|0:0|0:0,0:0:0:0:
306,193,128401,5,2,1:2:0:0:
306,193,128505,1,0,0:0:0:0:
306,193,128609,1,0,1:2:0:0:
214,200,128818,1,2,1:2:0:0:
214,200,128922,1,0,0:0:0:0:
214,200,129026,1,0,0:0:0:0:
245,114,129234,6,0,P|187:117|131:98,1,114.749996498108,6|0,1:2|1:0,0:0:0:0:
122,54,129651,2,0,L|107:141,1,76.4999976654053,0|0,1:0|1:0,0:0:0:0:
25,224,130068,5,4,1:2:0:0:
25,224,130172,1,0,0:0:0:0:
25,224,130276,1,2,1:2:0:0:
92,286,130484,1,0,0:0:0:0:
92,286,130588,1,0,1:0:0:0:
92,286,130692,1,2,1:2:0:0:
114,196,130901,6,0,L|128:132,2,38.2499988327027,0|0|2,1:0|0:0|1:2,0:0:0:0:
204,177,131318,2,0,L|218:113,2,38.2499988327027,0|0|2,0:0|1:0|1:2,0:0:0:0:
182,266,131734,5,0,1:0:0:0:
182,266,131838,1,0,0:0:0:0:
182,266,131943,1,2,1:2:0:0:
269,237,132151,1,0,0:0:0:0:
269,237,132255,1,0,1:0:0:0:
269,237,132360,1,2,1:2:0:0:
258,328,132568,6,0,P|312:344|372:321,1,114.749996498108,0|0,1:0|0:0,0:0:0:0:
404,351,132984,2,0,L|395:266,1,76.4999976654053,2|4,0:0|1:2,0:0:0:0:
460,161,133401,5,0,1:0:0:0:
441,155,133505,1,0,0:0:0:0:
422,154,133609,1,2,1:2:0:0:
404,158,133713,1,0,0:0:0:0:
387,166,133818,2,0,P|371:176|359:191,2,38.2499988327027,0|0|2,0:0|1:0|1:2,0:0:0:0:
298,120,134234,5,0,1:0:0:0:
279,126,134338,1,0,0:0:0:0:
260,127,134442,1,2,1:2:0:0:
242,123,134546,1,0,0:0:0:0:
225,115,134651,2,0,P|209:105|197:90,2,38.2499988327027,0|0|2,0:0|1:0|1:2,0:0:0:0:
167,186,135068,5,0,1:0:0:0:
167,186,135172,1,0,0:0:0:0:
167,186,135276,1,2,1:2:0:0:
255,210,135484,1,0,0:0:0:0:
255,210,135588,1,0,1:0:0:0:
255,210,135693,1,2,1:2:0:0:
205,287,135901,6,0,P|149:298|96:278,1,114.749996498108,0|2,1:0|1:2,0:0:0:0:
55,258,136318,2,0,L|65:338,1,76.4999976654053,4|4,0:3|0:3,0:0:0:0:
149,368,136734,5,4,0:3:0:0:
229,258,136943,6,0,P|214:270|204:286,2,38.2499988327027,2|0|12,0:3|0:0|0:3,0:0:0:0:
303,298,137359,2,0,P|320:304|340:304,2,38.2499988327027,2|0|4,0:3|0:0|0:3,0:0:0:0:
302,214,137776,2,0,P|298:195|289:178,2,38.2499988327027,10|0|4,0:3|0:0|1:3,0:0:0:0:
272,253,138193,1,0,1:3:0:0:
160,148,138609,6,0,P|174:160|184:176,2,38.2499988327027,10|0|4,0:3|0:0|0:3,0:0:0:0:
86,188,139025,2,0,P|68:194|48:194,2,38.2499988327027,2|0|4,0:3|0:0|0:3,0:0:0:0:
87,104,139442,2,0,P|90:85|99:68,2,38.2499988327027,2|8|4,0:3|0:3|0:3,0:0:0:0:
117,143,139859,1,2,0:3:0:0:
317,105,140276,6,0,P|302:117|292:133,2,38.2499988327027,10|0|4,0:3|0:0|0:3,0:0:0:0:
391,145,140692,2,0,P|408:151|428:151,2,38.2499988327027,2|0|4,0:3|0:0|0:3,0:0:0:0:
390,61,141109,2,0,P|386:42|377:25,2,38.2499988327027,2|0|2,0:3|1:0|1:2,0:0:0:0:
360,100,141526,1,2,1:3:0:0:
331,261,141734,5,2,1:2:0:0:
285,252,143401,5,4,1:2:0:0:
175,335,144234,5,2,1:2:0:0:
86,310,144443,1,8,1:3:0:0:
86,310,144547,1,0,0:0:0:0:
86,309,144651,2,0,P|96:273|92:235,1,76.4999976654053,4|4,1:3|0:3,0:0:0:0:
67,147,145068,5,4,0:3:0:0:
155,169,145276,1,0,0:0:0:0:
128,81,145484,2,0,P|185:62|242:70,1,114.749996498108,4|0,1:2|0:0,0:0:0:0:
241,115,145901,2,0,P|275:124|317:116,1,76.4999976654053,0|0,1:0|0:0,0:0:0:0:
405,99,146318,1,2,2:0:0:0:
373,184,146526,1,0,0:0:0:0:
373,184,146630,1,0,0:0:0:0:
373,183,146734,6,0,P|362:239|384:292,1,114.749996498108,0|0,1:0|0:0,0:0:0:0:
424,314,147151,2,0,L|322:331,1,76.4999976654053,2|0,2:0|0:0,0:0:0:0:
257,340,147568,1,0,1:0:0:0:
293,256,147776,1,0,0:0:0:0:
203,273,147984,2,0,P|148:288|91:278,1,114.749996498108,2|0,1:2|0:0,0:0:0:0:
54,305,148401,6,0,L|66:226,1,76.4999976654053,0|0,1:0|0:0,0:0:0:0:
77,138,148818,1,2,2:0:0:0:
150,192,149026,1,0,0:0:0:0:
150,192,149130,1,0,0:0:0:0:
150,192,149234,2,0,L|264:186,1,114.749996498108,0|0,1:0|0:0,0:0:0:0:
303,160,149651,2,0,P|298:198|307:236,1,76.4999976654053,6|8,2:0|0:3,0:0:0:0:
337,321,150068,5,0,0:0:0:0:
394,249,150276,1,2,1:2:0:0:
394,249,150380,1,0,0:0:0:0:
394,249,150484,1,4,1:2:0:0:
306,234,150693,1,4,0:3:0:0:
249,306,150901,2,0,P|192:298|134:313,1,114.749996498108,4|8,0:2|0:3,0:0:0:0:
112,351,151318,2,0,L|110:274,1,76.4999976654053,4|2,0:3|0:0,0:0:0:0:
112,182,151734,5,0,1:0:0:0:
25,150,151943,1,0,0:0:0:0:
57,63,152151,1,8,1:1:0:0:
144,95,152359,1,2,0:0:0:0:
203,164,152568,2,0,P|256:151|317:155,1,114.749996498108,0|0,1:0|0:0,0:0:0:0:
342,117,152984,2,0,L|351:192,1,76.4999976654053,8|2,1:1|0:0,0:0:0:0:
407,266,153401,6,0,P|354:279|292:274,1,114.749996498108,0|0,1:0|0:0,0:0:0:0:
269,313,153817,2,0,L|259:237,1,76.4999976654053,8|0,1:0|0:0,0:0:0:0:
241,146,154234,1,0,1:0:0:0:
180,76,154443,1,8,1:0:0:0:
94,112,154651,1,8,1:0:0:0:
101,204,154859,1,4,1:3:0:0:
190,225,155068,1,4,1:0:0:0:
452,294,155693,6,0,L|458:251,2,38.2499988327027,0|0|4,0:0|0:0|1:2,0:0:0:0:
378,237,156110,1,0,0:0:0:0:
339,320,156318,2,0,P|305:328|262:320,1,76.4999976654053,2|0,0:0|0:0,0:0:0:0:
246,231,156734,2,0,P|187:220|129:233,1,114.749996498108,0|0,0:0|0:0,0:0:0:0:
104,267,157151,1,2,0:0:0:0:
45,37,159026,6,0,L|53:91,2,38.2499988327027,2|0|0,0:0|0:0|0:0,0:0:0:0:
136,41,159443,1,2,0:0:0:0:
118,131,159651,2,0,P|153:143|191:141,1,76.4999976654053,2|0,0:0|0:0,0:0:0:0:
243,65,160068,2,0,P|298:45|357:48,1,114.749996498108,0|0,0:0|0:0,0:0:0:0:
399,53,160484,1,2,0:0:0:0:
405,222,161109,5,0,0:0:0:0:
405,222,161318,1,0,0:0:0:0:
405,222,161526,1,0,0:0:0:0:
405,222,161734,6,0,B|325:243|283:323|283:323|250:249|178:232,1,305.999990661621,0|2,0:0|0:0,0:0:0:0:
217,90,163401,2,0,P|335:79|254:166,1,305.999990661621,0|2,0:0|0:0,0:0:0:0:
77,125,165068,6,0,P|81:141|83:158,2,33.9999989624024,2|0|0,0:0|0:0|0:0,0:0:0:0:
123,160,165484,2,0,P|121:176|117:193,2,33.9999989624024,2|0|0,0:0|0:0|0:0,0:0:0:0:
160,204,165901,2,0,P|152:218|143:233,2,33.9999989624024,2|0|0,0:0|0:0|0:0,0:0:0:0:
186,255,166318,2,0,P|174:266|160:276,2,33.9999989624024,2|0|0,0:0|0:0|0:0,0:0:0:0:
204,309,166734,6,0,P|246:316|294:306,1,90.6666666666667,2|0,0:0|0:0,0:0:0:0:
365,335,167151,2,0,L|360:229,1,90.6666666666667,2|0,0:0|0:0,0:0:0:0:
438,248,167568,2,0,L|443:142,1,90.6666666666667,2|0,0:0|0:0,0:0:0:0:
365,152,167984,2,0,P|344:165|323:169,2,45.3333333333333,0|2|2,0:0|1:0|1:0,0:0:0:0:
412,67,168401,5,6,0:0:0:0:
269,50,168679,2,0,P|259:78|260:106,1,56.6666666666667,0|2,0:0|0:0,0:0:0:0:
233,130,168956,2,0,P|242:159|241:186,1,56.6666666666667,0|2,0:0|0:0,0:0:0:0:
271,225,169234,2,0,P|215:222|159:227,2,113.333333333333,6|2|2,0:0|0:0|0:0,0:0:0:0:
384,222,170068,5,6,0:0:0:0:
378,334,170345,2,0,L|321:339,1,56.6666666666667,0|2,0:0|0:0,0:0:0:0:
285,294,170623,2,0,L|228:288,1,56.6666666666667,0|2,0:0|0:0,0:0:0:0:
176,311,170901,2,0,P|192:256|185:182,2,113.333333333333,6|2|2,0:0|1:0|0:0,0:0:0:0:
62,307,171734,5,6,1:0:0:0:
77,210,172012,2,0,P|107:202|133:201,1,56.6666666666667,8|8,1:3|1:3,0:0:0:0:
189,200,172290,2,0,P|219:208|245:208,1,56.6666666666667,4|4,1:3|1:3,0:0:0:0:
294,235,172568,2,0,P|284:177|287:121,2,113.333333333333,4|4|4,1:3|1:3|1:3,0:0:0:0:
322,344,173401,1,8,1:0:0:0:
438,220,173818,5,4,0:3:0:0:
438,220,173922,1,4,0:3:0:0:
438,220,174026,1,4,0:3:0:0:
438,220,174130,1,4,0:3:0:0:
438,220,174234,1,4,0:3:0:0:
