osu file format v14

[General]
AudioFilename: Once Upon A Time.mp3
AudioLeadIn: 0
PreviewTime: 66215
Countdown: 0
SampleSet: Soft
StackLeniency: 0.7
Mode: 0
LetterboxInBreaks: 0
WidescreenStoryboard: 1

[Editor]
Bookmarks: 23501,80168,123499,145166
DistanceSpacing: 0.4
BeatDivisor: 12
GridSize: 32
TimelineZoom: 4.099998

[Metadata]
Title:Once Upon A Time
TitleUnicode:Once Upon A Time
Artist:Warak
ArtistUnicode:Warak
Creator:Xilver
Version:-PC's Extra
Source:HIGH5
Tags:rhythm mobile game story telling undeadcapulet -pc
BeatmapID:1102952
BeatmapSetID:519154

[Difficulty]
HPDrainRate:6
CircleSize:4.3
OverallDifficulty:8
ApproachRate:9
SliderMultiplier:2.2
SliderTickRate:1

[Events]
//Background and Video events
0,0,"once upon a time.jpg",0,0
//Break Periods
2,91102,94468
//Storyboard Layer 0 (Background)
//Storyboard Layer 1 (Fail)
//Storyboard Layer 2 (Pass)
//Storyboard Layer 3 (Foreground)
//Storyboard Sound Samples

[TimingPoints]
70,416.666666666667,4,2,0,60,1,0
2153,-166.666666666667,4,2,0,60,0,0
3403,-100,4,2,0,60,0,0
5070,-62.5,4,2,0,60,0,0
5486,-166.666666666667,4,2,0,60,0,0
6736,-125,4,2,0,60,0,0
7986,-125,4,2,0,30,0,0
8195,-125,4,2,0,40,0,0
8403,-166.666666666667,4,2,0,60,0,0
9028,-166.666666666667,4,2,0,40,0,0
9445,-166.666666666667,4,2,0,50,0,0
9653,-166.666666666667,4,2,0,50,0,0
10070,-100,4,1,0,60,0,0
22361,-58.8235294117647,4,1,0,60,0,0
22570,-100,4,1,0,60,0,0
30070,-83.3333333333333,4,2,0,60,0,1
36736,-100,4,1,0,60,0,0
44653,-166.666666666667,4,2,0,60,0,0
46736,-100,4,1,0,60,0,0
56320,-166.666666666667,4,2,0,60,0,0
56458,-166.666666666667,4,2,0,5,0,0
56528,-166.666666666667,4,2,0,60,0,0
56667,-166.666666666667,4,2,0,5,0,0
56736,-125,4,2,0,60,0,0
56945,-125,4,2,0,40,0,0
65486,-125,4,2,0,60,0,0
66320,-300,4,2,0,60,0,0
66736,-100,4,2,0,60,0,0
80070,-83.3333333333333,4,2,0,60,0,0
85278,-125,4,2,0,50,0,0
88820,-100,4,2,0,60,0,0
89236,416.666666666667,4,2,0,60,1,0
89236,-83.3333333333333,4,2,0,60,0,0
90902,416.666666666667,5,2,0,60,1,0
95068,416.666666666667,4,2,0,40,1,0
95068,-111.111111111111,4,2,0,40,0,0
107776,-111.111111111111,4,2,0,40,0,0
107845,-111.111111111111,4,2,0,40,0,0
108054,-111.111111111111,4,2,0,40,0,0
108123,-111.111111111111,4,2,0,40,0,0
108331,-111.111111111111,4,2,0,40,0,0
108401,-166.666666666666,4,2,0,40,0,0
113401,-258,4,2,0,40,0,0
118401,-258,4,2,0,60,0,0
120068,-125,4,2,0,45,0,0
120484,-142.857142857143,4,2,0,40,0,0
120901,-83.3333333333333,4,2,0,35,0,0
121318,-83.3333333333333,4,2,0,30,0,0
121943,-83.3333333333333,4,2,0,35,0,0
122151,-83.3333333333333,4,2,0,48,0,0
122359,-83.3333333333333,4,2,0,60,0,0
122568,-71.4285714285714,4,2,0,70,0,0
123401,-71.4285714285714,4,2,0,70,0,1
126526,-100,4,2,0,60,0,1
126734,-71.4285714285714,4,2,0,60,0,1
136318,-166.666666666667,4,2,0,60,0,1
136526,-166.666666666667,4,2,0,20,0,1
136734,-100,4,2,0,40,0,0
138818,-100,4,2,0,50,0,0
140276,-100,4,2,0,60,0,0
141734,-166.666666666667,4,2,0,40,0,0
142568,-111.111111111111,4,2,0,40,0,0
142706,-111.111111111111,4,2,0,60,0,0
143401,-83.3333333333333,4,2,0,60,0,0
144234,-71.4285714285714,4,2,0,60,0,0
145068,-71.4285714285714,4,2,0,60,0,0
145901,-83.3333333333333,4,2,0,60,0,0
155068,-125,4,2,0,60,0,0
155693,-125,4,2,0,50,0,0
157151,-166.666666666667,4,2,0,50,0,0
159026,-125,4,2,0,50,0,0
160484,-166.666666666667,4,2,0,50,0,0
165068,-125,4,2,0,50,0,0
167984,-125,4,2,0,60,0,0
168401,-90.9090909090909,4,1,0,60,0,0

[Colours]
Combo1 : 175,204,220
Combo2 : 160,211,175
Combo3 : 237,206,150

[HitObjects]
256,56,70,5,6,1:0:0:0:
330,121,695,5,2,0:0:0:0:
330,121,799,1,2,0:0:0:0:
330,121,903,1,0,0:0:0:0:
426,106,1111,1,2,0:0:0:0:
468,197,1319,1,2,0:0:0:0:
396,264,1528,1,0,0:0:0:0:
200,223,1736,6,0,L|310:216,1,110,10|0,1:0|1:0,0:0:0:0:
326,225,2049,1,0,0:0:0:0:
263,301,2153,6,0,B|131:289|131:289|11:348,1,263.99999194336,6|0,1:0|0:0,0:0:0:0:
49,350,3090,1,2,0:0:0:0:
85,353,3194,1,0,0:0:0:0:
121,356,3298,1,2,0:0:0:0:
157,359,3403,5,6,1:0:0:0:
341,307,3611,1,8,1:3:0:0:
341,307,3681,1,8,1:3:0:0:
341,307,3750,1,8,1:3:0:0:
341,307,3820,6,0,P|353:266|352:231,1,73.3333333333333,4|4,1:3|0:3,0:0:0:0:
420,368,4097,2,0,P|438:329|442:294,1,73.3333333333333,4|0,1:3|1:0,0:0:0:0:
413,148,4375,5,0,0:0:0:0:
413,148,4445,1,0,1:0:0:0:
413,148,4514,1,0,1:0:0:0:
292,55,4653,5,4,1:3:0:0:
191,75,4792,1,4,1:3:0:0:
44,38,4965,5,0,0:0:0:0:
44,38,5070,2,0,P|39:81|51:129,1,88,10|0,1:1|0:0,0:0:0:0:
195,161,5278,2,0,P|200:117|191:75,1,88,0|0,1:0|0:0,0:0:0:0:
101,212,5486,6,0,L|108:345,1,131.99999597168,6|0,1:0|0:0,0:0:0:0:
261,349,6111,1,2,0:0:0:0:
340,326,6320,1,0,0:0:0:0:
419,303,6528,1,2,0:0:0:0:
471,234,6736,6,0,P|473:192|467:141,1,88,2|0,0:0|0:0,0:0:0:0:
404,67,7153,1,2,0:0:0:0:
336,146,7361,2,0,P|248:156|158:146,1,176,2|0,0:0|0:0,0:0:0:0:
56,78,7986,2,0,L|50:30,1,44,2|0,0:0|0:0,0:0:0:0:
69,66,8195,2,0,L|63:18,1,44,2|0,0:0|0:0,0:0:0:0:
184,17,8403,6,0,L|161:147,1,131.99999597168,2|0,0:0|0:0,0:0:0:0:
317,246,9028,1,4,0:3:0:0:
317,246,9097,1,0,0:0:0:0:
317,246,9167,1,4,0:3:0:0:
317,246,9236,6,0,L|349:240,9,21.9999993286133,4|0|0|0|0|0|0|0|0|0,3:0|0:0|0:0|0:0|0:0|0:0|0:0|0:0|0:0|0:0,0:0:0:0:
130,354,10070,6,0,P|70:354|33:323,1,110,4|2,1:0|0:3,0:0:0:0:
22,286,10382,1,0,0:0:0:0:
42,259,10486,1,8,0:0:0:0:
53,229,10590,1,0,0:0:0:0:
55,196,10694,1,0,0:0:0:0:
47,164,10798,1,8,0:0:0:0:
31,135,10903,5,0,0:0:0:0:
9,231,11111,1,0,0:0:0:0:
181,145,11320,1,8,0:0:0:0:
158,48,11529,1,0,0:0:0:0:
100,285,11736,5,0,1:0:0:0:
329,302,11945,1,2,0:3:0:0:
296,303,12049,1,0,0:0:0:0:
263,304,12153,1,8,0:0:0:0:
230,304,12257,1,0,0:0:0:0:
197,305,12361,1,0,0:0:0:0:
164,306,12465,1,8,0:0:0:0:
131,306,12569,5,0,0:0:0:0:
225,336,12778,1,0,0:0:0:0:
365,209,12986,1,8,0:0:0:0:
329,302,13195,1,0,0:0:0:0:
197,171,13403,6,0,L|147:72,1,110,0|2,0:0|0:3,0:0:0:0:
110,60,13715,1,0,0:0:0:0:
78,68,13819,1,8,0:0:0:0:
53,90,13923,1,0,0:0:0:0:
40,120,14027,1,0,0:0:0:0:
42,152,14131,1,8,0:0:0:0:
57,181,14236,5,0,0:0:0:0:
197,171,14445,1,0,0:0:0:0:
53,90,14653,1,8,0:0:0:0:
183,139,14862,1,0,0:0:0:0:
27,285,15070,5,0,0:0:0:0:
251,323,15278,2,0,L|261:267,1,55,8|0,0:0|2:0,0:0:0:0:
314,205,15486,1,8,0:0:0:0:
452,335,15695,1,0,0:0:0:0:
452,335,15799,1,0,0:0:0:0:
452,335,15903,6,0,P|420:342|390:335,1,55,8|0,0:3|0:0,0:0:0:0:
361,144,16111,2,0,P|383:168|392:197,1,55,4|0,0:3|0:0,0:0:0:0:
176,194,16320,2,0,P|185:162|207:140,1,55,4|4,0:3|0:3,0:0:0:0:
157,322,16528,1,4,0:3:0:0:
111,314,16632,1,4,0:3:0:0:
65,306,16736,5,4,1:0:0:0:
251,203,16945,1,2,0:3:0:0:
260,234,17049,1,0,0:0:0:0:
269,265,17153,1,8,0:0:0:0:
279,297,17257,1,0,0:0:0:0:
290,266,17361,1,0,0:0:0:0:
302,235,17465,1,8,0:0:0:0:
314,205,17570,5,0,0:0:0:0:
383,325,17778,1,0,0:0:0:0:
350,112,17986,1,8,0:0:0:0:
129,325,18195,1,0,0:0:0:0:
165,109,18403,5,0,0:0:0:0:
314,205,18611,1,2,0:3:0:0:
345,215,18715,1,0,0:0:0:0:
378,213,18819,1,8,0:0:0:0:
408,201,18923,1,0,0:0:0:0:
432,179,19027,1,0,0:0:0:0:
447,150,19131,1,8,0:0:0:0:
452,117,19236,6,0,L|393:122,1,55,0|0,0:0|0:0,0:0:0:0:
283,59,19445,2,0,L|228:54,1,55,2|0,0:2|0:0,0:0:0:0:
79,135,19653,1,8,0:0:0:0:
209,164,19861,1,0,0:0:0:0:
209,164,19965,1,0,0:0:0:0:
209,164,20070,6,0,L|201:276,1,110,0|2,0:0|0:3,0:0:0:0:
171,298,20382,1,0,0:0:0:0:
169,265,20486,1,8,0:0:0:0:
168,232,20590,1,0,0:0:0:0:
166,199,20694,1,0,0:0:0:0:
165,166,20798,1,8,0:0:0:0:
163,133,20903,5,0,0:0:0:0:
284,224,21111,1,0,0:0:0:0:
287,109,21320,1,8,0:0:0:0:
166,199,21528,1,0,0:0:0:0:
62,90,21736,6,0,P|54:64|56:37,1,55,0|0,0:0|0:0,0:0:0:0:
257,126,21945,1,0,0:0:0:0:
210,129,22049,1,0,0:0:0:0:
163,133,22153,1,8,0:0:0:0:
163,133,22361,6,0,L|256:140,1,93.500001783371,4|0,0:2|2:0,0:0:0:0:
383,169,22570,6,0,L|270:160,1,110,8|0,0:0|0:0,0:0:0:0:
187,269,22917,1,0,0:0:0:0:
187,269,22986,2,0,P|213:258|240:258,1,55,8|8,0:0|0:3,0:0:0:0:
357,280,23195,1,4,0:3:0:0:
393,307,23299,1,4,0:3:0:0:
437,310,23403,6,0,P|467:263|461:202,1,110,4|2,0:0|0:3,0:0:0:0:
446,176,23715,1,0,0:0:0:0:
414,180,23819,1,8,0:0:0:0:
382,170,23923,1,0,0:0:0:0:
356,150,24027,1,0,0:0:0:0:
340,122,24132,1,8,0:0:0:0:
335,89,24235,5,0,0:0:0:0:
421,93,24445,1,0,0:0:0:0:
302,236,24653,1,8,0:0:0:0:
139,127,24861,2,0,L|130:73,1,55,0|0,0:0|0:0,0:0:0:0:
146,25,25070,6,0,P|99:61|42:57,1,110,0|2,0:0|0:3,0:0:0:0:
18,38,25382,1,0,0:0:0:0:
21,70,25486,1,8,0:0:0:0:
24,103,25590,1,0,0:0:0:0:
28,136,25695,1,0,0:0:0:0:
31,169,25799,1,8,0:0:0:0:
35,202,25903,6,0,L|41:257,1,55,0|0,0:0|0:0,0:0:0:0:
139,127,26111,2,0,L|144:181,1,55,2|0,0:2|0:0,0:0:0:0:
260,172,26320,1,8,0:0:0:0:
418,80,26528,2,0,P|391:70|360:69,1,55,0|0,0:0|0:0,0:0:0:0:
322,85,26736,5,0,0:0:0:0:
368,365,26945,1,2,0:3:0:0:
376,333,27050,1,0,0:0:0:0:
375,301,27154,1,8,0:0:0:0:
367,269,27258,1,0,0:0:0:0:
361,236,27362,1,0,0:0:0:0:
364,203,27466,1,8,0:0:0:0:
373,172,27570,5,0,0:0:0:0:
471,228,27778,1,0,0:0:0:0:
368,365,27986,1,8,0:0:0:0:
270,309,28194,1,0,0:0:0:0:
270,309,28299,1,0,0:0:0:0:
270,309,28403,6,0,L|210:305,1,55,4|0,0:2|0:0,0:0:0:0:
52,204,28611,2,0,L|161:211,1,110,8|4,1:3|0:3,0:0:0:0:
205,209,28924,1,0,0:0:0:0:
243,188,29028,1,0,0:0:0:0:
266,151,29132,1,0,0:0:0:0:
271,108,29236,5,8,0:0:0:0:
245,55,29340,1,8,0:0:0:0:
192,82,29445,1,4,0:3:0:0:
219,136,29549,1,4,0:3:0:0:
275,133,29653,5,4,0:3:0:0:
297,149,29757,2,0,B|329:160|329:160|409:146,1,110,2|0,1:2|2:0,0:0:0:0:
426,341,30070,6,0,P|396:279|436:232,1,131.99999597168,4|0,1:0|0:0,0:0:0:0:
441,240,30382,1,0,0:0:0:0:
446,251,30486,2,0,L|381:248,1,65.9999979858399,8|0,1:0|0:0,0:0:0:0:
236,334,30695,2,0,L|301:331,1,65.9999979858399,0|0,1:0|0:0,0:0:0:0:
203,351,30903,2,0,L|268:354,1,65.9999979858399,0|0,0:0|0:0,0:0:0:0:
162,249,31111,1,8,1:0:0:0:
162,249,31181,1,0,0:0:0:0:
162,249,31250,1,0,0:0:0:0:
162,249,31320,6,0,L|29:257,1,131.99999597168,0|0,1:0|0:0,0:0:0:0:
40,285,31632,1,0,1:0:0:0:
47,236,31736,1,8,3:0:0:0:
54,187,31840,1,0,3:0:0:0:
61,138,31945,2,0,L|56:70,1,65.9999979858399,0|0,3:0|0:0,0:0:0:0:
221,33,32153,2,0,L|216:98,1,65.9999979858399,0|0,1:0|0:0,0:0:0:0:
153,177,32361,1,0,1:0:0:0:
153,177,32431,1,0,0:0:0:0:
153,177,32500,1,0,0:0:0:0:
153,177,32570,6,0,P|197:144|274:147,1,131.99999597168,12|4,1:0|1:3,0:0:0:0:
436,311,32986,1,8,1:3:0:0:
202,276,33195,1,8,1:3:0:0:
413,203,33403,6,0,B|417:175|409:138|409:138|420:108|423:71,1,131.99999597168,4|8,1:0|1:0,0:0:0:0:
415,34,33715,1,0,0:0:0:0:
385,7,33820,1,0,3:0:0:0:
345,5,33924,1,0,3:0:0:0:
310,25,34028,2,0,P|300:65|305:92,1,65.9999979858399,0|0,1:0|0:0,0:0:0:0:
488,222,34236,2,0,P|498:182|493:155,1,65.9999979858399,8|0,1:0|0:0,0:0:0:0:
338,167,34445,2,0,P|327:198|330:230,1,65.9999979858399,0|0,3:0|3:0,0:0:0:0:
398,329,34653,6,0,L|262:318,1,131.99999597168,0|8,1:0|1:0,0:0:0:0:
235,342,34965,1,0,3:0:0:0:
195,345,35070,1,0,1:0:0:0:
157,331,35174,1,0,0:0:0:0:
132,300,35278,6,0,P|152:271|174:250,1,65.9999979858399,8|8,1:0|1:3,0:0:0:0:
261,246,35486,1,8,1:3:0:0:
336,366,35695,1,4,1:3:0:0:
222,120,35903,6,0,L|217:185,1,65.9999979858399,0|0,1:0|0:0,0:0:0:0:
294,70,36111,1,4,1:3:0:0:
294,70,36215,1,4,0:3:0:0:
294,70,36320,2,0,L|298:135,1,65.9999979858399,4|4,1:3|0:3,0:0:0:0:
142,161,36528,2,0,L|146:95,1,65.9999979858399,4|4,0:3|0:3,0:0:0:0:
293,276,36736,6,0,P|332:312|388:314,1,110,4|0,1:0|0:0,0:0:0:0:
471,195,37153,2,0,L|362:186,1,110,8|0,0:0|0:0,0:0:0:0:
226,248,37465,1,8,0:0:0:0:
226,248,37570,2,0,L|164:243,1,55,0|8,0:0|0:0,0:0:0:0:
143,262,37778,1,0,0:0:0:0:
328,315,37986,1,8,0:0:0:0:
236,172,38195,1,0,0:0:0:0:
236,172,38299,1,8,2:3:0:0:
236,172,38403,6,0,P|209:119|222:69,1,110,0|0,0:0|0:0,0:0:0:0:
339,21,38820,2,0,B|392:10|392:10|454:25,1,110,8|0,0:0|0:0,0:0:0:0:
499,109,39132,2,0,B|446:120|446:120|384:105,1,110,8|8,0:0|0:0,0:0:0:0:
373,94,39445,2,0,L|375:155,1,55,0|0,0:0|2:0,0:0:0:0:
399,237,39653,1,8,0:0:0:0:
446,23,39861,1,0,0:0:0:0:
244,53,40070,6,0,P|184:70|139:59,1,110,0|0,0:0|0:0,0:0:0:0:
41,17,40382,1,0,0:0:0:0:
41,17,40486,2,0,L|46:77,1,55,8|0,0:0|0:0,0:0:0:0:
109,133,40695,2,0,L|104:193,1,55,0|8,0:0|0:0,0:0:0:0:
40,264,40903,1,0,0:0:0:0:
44,296,41007,1,8,0:0:0:0:
48,328,41111,1,0,0:0:0:0:
129,214,41320,1,8,0:0:0:0:
24,100,41528,1,0,0:0:0:0:
213,34,41736,6,0,L|340:28,1,110,4|0,0:2|2:0,0:0:0:0:
398,23,42049,1,8,0:0:0:0:
398,23,42153,1,8,0:0:0:0:
458,247,42361,2,0,B|472:193|472:193|465:135,1,110,4|0,0:0|0:0,0:0:0:0:
210,126,42778,1,8,0:3:0:0:
256,312,42986,1,4,0:3:0:0:
303,188,43195,1,8,0:3:0:0:
143,274,43403,6,0,L|83:268,1,55,4|0,0:2|2:0,0:0:0:0:
49,284,43611,1,8,0:0:0:0:
180,347,43820,1,8,0:0:0:0:
158,168,44028,2,0,P|158:107|195:64,1,110,4|4,0:2|0:3,0:0:0:0:
337,274,44445,1,4,0:3:0:0:
421,43,44653,6,0,B|428:110|428:110|415:138|415:138|426:169|426:169|413:195|414:218|414:218|439:255|429:295,1,263.99999194336,4|0,1:0|3:0,0:0:0:0:
429,295,45590,1,0,3:0:0:0:
429,295,45695,1,4,3:0:0:0:
429,295,45799,1,4,3:0:0:0:
429,295,45903,1,4,3:0:0:0:
235,137,46111,1,0,3:0:0:0:
258,141,46215,1,0,3:0:0:0:
291,128,46320,5,2,1:3:0:0:
251,131,46424,1,0,3:0:0:0:
212,135,46528,1,0,3:0:0:0:
173,138,46632,1,0,3:0:0:0:
133,141,46736,6,0,B|63:55,1,110,4|0,1:2|2:0,0:0:0:0:
64,56,47049,1,8,1:0:0:0:
64,56,47153,1,8,1:0:0:0:
33,222,47361,1,4,1:2:0:0:
171,289,47570,1,8,0:0:0:0:
226,47,47778,1,4,0:3:0:0:
133,141,47986,5,4,1:0:0:0:
372,194,48611,5,0,0:0:0:0:
403,289,48820,1,4,0:3:0:0:
403,289,48924,2,0,B|331:316|325:252|242:281,1,165,4|8,0:3|0:0,0:0:0:0:
223,326,49340,1,8,0:0:0:0:
256,341,49445,5,0,0:0:0:0:
256,297,49549,1,0,0:0:0:0:
232,261,49653,1,0,0:0:0:0:
192,244,49757,1,0,0:0:0:0:
149,252,49861,1,0,0:0:0:0:
118,282,49965,1,0,0:0:0:0:
109,324,50070,5,4,0:2:0:0:
383,158,50695,5,4,0:0:0:0:
63,130,51320,5,4,0:2:0:0:
305,341,51945,5,4,0:0:0:0:
233,28,52570,5,4,0:2:0:0:
218,196,53403,5,4,0:0:0:0:
256,192,53507,12,2,55070,2:0:0:0:
304,60,56320,6,0,L|336:57,1,32.99999899292,0|0,0:0|0:0,0:0:0:0:
369,73,56528,2,0,L|336:70,1,32.99999899292,0|0,0:0|0:0,0:0:0:0:
336,85,56736,5,0,3:0:0:0:
422,211,56945,2,0,L|427:304,1,88,2|0,0:0|0:0,0:0:0:0:
348,340,57361,1,2,0:0:0:0:
269,299,57570,2,0,P|180:293|85:305,1,176,2|0,0:0|0:0,0:0:0:0:
95,309,58090,1,2,0:0:0:0:
96,315,58194,1,0,0:0:0:0:
98,322,58298,1,2,0:0:0:0:
99,328,58402,5,2,0:0:0:0:
163,215,58611,1,2,0:0:0:0:
141,110,58820,2,0,P|76:93|12:69,1,132,0|2,0:0|0:0,0:0:0:0:
15,70,59236,2,0,B|66:46|66:46|187:51,1,176,0|2,0:0|0:0,0:0:0:0:
264,89,59861,1,0,0:0:0:0:
264,89,59965,1,0,0:0:0:0:
264,89,60070,6,0,P|324:88|368:48,1,117.333333333333,2|0,0:0|0:0,0:0:0:0:
371,35,60417,2,0,L|380:64,16,29.3333333333333,0|0|0|0|0|0|0|0|0|0|0|0|0|0|0|0|0,0:0|0:0|0:0|0:0|0:0|0:0|0:0|0:0|0:0|0:0|0:0|0:0|0:0|0:0|0:0|0:0|0:0,0:0:0:0:
410,28,61632,1,0,0:0:0:0:
410,28,61736,1,0,0:0:0:0:
476,181,61945,5,2,0:0:0:0:
400,223,62153,1,2,0:0:0:0:
326,177,62361,1,2,0:0:0:0:
327,88,62569,1,2,0:0:0:0:
192,35,62778,6,0,P|146:27|104:36,1,88,0|0,0:0|0:0,0:0:0:0:
30,80,63195,1,0,0:0:0:0:
51,165,63403,1,2,0:0:0:0:
36,165,64653,6,0,L|171:158,1,132
168,159,65035,1,2,0:0:0:0:
168,159,65104,1,2,0:0:0:0:
168,159,66320,6,0,L|117:152,1,48.8888888888889,2|0,1:2|0:0,0:0:0:0:
119,152,66667,1,0,0:0:0:0:
119,152,66736,6,0,P|105:103|125:46,1,110,4|2,1:0|1:2,0:0:0:0:
334,162,67153,2,0,P|298:199|239:210,1,110,0|2,1:0|1:2,0:0:0:0:
200,105,67570,2,0,B|281:103|281:103|324:134|324:134|411:133,1,220,0|0,1:0|1:0,0:0:0:0:
461,132,68090,1,0,0:0:0:0:
483,169,68195,1,2,1:2:0:0:
474,211,68298,1,0,0:0:0:0:
439,235,68403,5,0,1:0:0:0:
242,210,68611,1,2,1:2:0:0:
170,325,68820,2,0,P|221:329|277:316,1,110,0|2,1:0|1:2,0:0:0:0:
366,225,69132,1,0,0:0:0:0:
351,208,69236,2,0,P|296:205|242:210,1,110,0|2,1:0|1:2,0:0:0:0:
60,326,69653,2,0,P|115:329|170:324,1,110,0|2,1:0|1:2,0:0:0:0:
190,316,69965,1,0,0:0:0:0:
204,298,70070,6,0,L|196:187,1,110,0|2,1:0|1:2,0:0:0:0:
194,166,70382,1,0,0:0:0:0:
193,144,70486,1,0,1:0:0:0:
42,292,70695,1,2,1:2:0:0:
287,271,70903,2,0,P|362:246|396:117,1,220,0|0,1:0|1:0,0:0:0:0:
373,83,71424,1,0,0:0:0:0:
329,80,71528,1,2,1:2:0:0:
285,78,71632,1,0,0:0:0:0:
241,75,71736,5,0,1:0:0:0:
151,203,71945,1,2,1:2:0:0:
26,43,72153,2,0,P|83:35|140:32,1,110,0|2,1:0|1:2,0:0:0:0:
135,32,72431,1,2,0:0:0:0:
135,32,72500,1,2,0:0:0:0:
135,32,72570,6,0,L|128:99,1,55,0|0,1:0|0:0,0:0:0:0:
232,236,72778,1,0,1:0:0:0:
236,218,72882,1,4,1:3:0:0:
238,199,72986,2,0,L|244:144,1,55,4|0,1:3|0:0,0:0:0:0:
77,229,73195,1,0,1:0:0:0:
82,272,73299,1,0,1:0:0:0:
86,314,73403,6,0,P|158:348|229:312,1,165,4|2,1:0|0:0,0:0:0:0:
304,357,73820,2,0,P|348:326|403:325,1,110,0|2,1:0|1:2,0:0:0:0:
441,80,74236,2,0,B|456:159|456:159|440:246,1,165,0|2,1:0|0:0,0:0:0:0:
437,249,74653,1,0,1:0:0:0:
293,168,74861,1,2,1:2:0:0:
157,249,75070,5,0,1:0:0:0:
71,134,75278,1,2,1:2:0:0:
50,131,75382,1,0,1:0:0:0:
29,128,75486,1,0,1:0:0:0:
180,32,75695,1,2,1:2:0:0:
305,128,75903,2,0,P|320:180|300:238,1,110,0|2,1:0|1:2,0:0:0:0:
304,232,76181,5,2,0:0:0:0:
304,232,76250,1,2,0:0:0:0:
304,232,76320,2,0,L|247:224,1,55,0|2,1:0|0:0,0:0:0:0:
51,251,76528,1,2,1:2:0:0:
77,285,76632,1,0,1:0:0:0:
101,319,76736,6,0,L|266:308,1,165,0|2,1:0|0:0,0:0:0:0:
304,232,77153,2,0,L|315:122,1,110,0|2,1:0|1:2,0:0:0:0:
73,41,77570,2,0,P|84:121|109:209,1,165,0|2,1:0|0:0,0:0:0:0:
114,209,77986,1,0,1:0:0:0:
237,159,78195,1,2,1:2:0:0:
348,305,78403,5,4,1:3:0:0:
373,355,78508,1,0,1:0:0:0:
430,347,78612,1,8,1:3:0:0:
440,290,78716,1,0,1:0:0:0:
388,264,78820,1,8,1:3:0:0:
234,362,79028,1,4,1:3:0:0:
74,114,79236,5,4,1:2:0:0:
74,114,79653,2,0,B|164:97|142:142|235:122,1,165,2|0,0:1|0:0,0:0:0:0:
256,93,80070,6,0,P|360:108|453:98,1,197.99999395752,6|0,1:0|0:0,0:0:0:0:
483,75,80486,1,2,1:3:0:0:
314,24,80695,1,8,1:3:0:0:
314,24,81111,5,8,1:3:0:0:
333,251,81320,1,6,1:3:0:0:
369,145,81528,1,4,1:3:0:0:
217,305,81736,1,4,1:2:0:0:
217,305,82153,5,4,1:3:0:0:
188,307,82257,1,0,1:0:0:0:
159,309,82361,1,4,1:3:0:0:
77,137,82570,1,4,1:3:0:0:
77,137,82986,5,4,0:3:0:0:
83,100,83090,1,4,0:3:0:0:
90,63,83195,1,4,0:3:0:0:
410,39,83611,5,0,1:0:0:0:
401,90,83716,1,0,1:0:0:0:
392,141,83820,1,0,1:0:0:0:
263,330,84028,1,4,0:3:0:0:
203,186,84236,6,0,P|263:160|327:187,1,131.99999597168,4|0,1:2|0:0,0:0:0:0:
322,182,84514,1,0,0:0:0:0:
322,182,84583,1,8,0:3:0:0:
322,182,84653,2,0,L|256:187,1,65.9999979858399,4|4,1:3|1:3,0:0:0:0:
77,137,84861,1,4,1:2:0:0:
496,329,85278,5,0,0:0:0:0:
496,329,85382,1,0,0:0:0:0:
496,329,85486,1,2,0:0:0:0:
380,357,85695,1,2,0:0:0:0:
432,284,85903,2,0,P|443:220|443:149,1,132,0|2,0:0|0:0,0:0:0:0:
424,134,86320,2,0,L|294:170,1,132,0|2,0:0|0:0,0:0:0:0:
272,156,86736,2,0,P|260:91|260:25,1,132,0|2,0:0|0:0,0:0:0:0:
281,19,87153,5,0,0:0:0:0:
339,76,87292,1,2,0:0:0:0:
417,55,87430,1,0,0:0:0:0:
461,124,87569,5,2,0:0:0:0:
409,187,87708,1,0,0:0:0:0:
333,156,87847,1,2,0:0:0:0:
257,125,87986,5,0,0:0:0:0:
205,188,88125,1,2,0:0:0:0:
249,257,88264,1,0,0:0:0:0:
327,237,88403,5,2,0:0:0:0:
149,124,88681,5,4,1:3:0:0:
149,124,88750,1,4,1:3:0:0:
149,124,88820,2,0,P|80:121|40:39,1,165,4|0,1:2|0:0,0:0:0:0:
62,19,89236,6,0,L|46:219,1,197.99999395752,4|0,1:0|0:0,0:0:0:0:
53,248,89652,1,2,1:3:0:0:
281,187,89861,1,8,1:3:0:0:
281,187,90277,5,8,1:3:0:0:
139,288,90486,1,4,1:3:0:0:
155,101,90694,1,4,1:3:0:0:
307,323,90902,5,4,1:2:0:0:
461,97,95068,6,0,P|401:102|327:89,1,131.99999597168,0|2,0:0|0:0,0:0:0:0:
306,80,95484,1,0,0:0:0:0:
279,77,95623,2,0,P|255:77|208:91,1,65.9999979858399,2|0,0:0|0:0,0:0:0:0:
110,71,95901,6,0,L|44:65,1,65.9999979858399,0|0,0:0|0:0,0:0:0:0:
11,161,96179,2,0,L|76:155,1,65.9999979858399,2|0,0:0|0:0,0:0:0:0:
135,246,96456,2,0,L|68:240,1,65.9999979858399,2|0,0:0|0:0,0:0:0:0:
181,356,96735,5,0,0:0:0:0:
207,355,96873,1,2,0:0:0:0:
227,337,97012,2,0,P|238:312|226:256,1,65.9999979858399,2|0,0:0|0:0,0:0:0:0:
307,234,97290,2,0,P|325:260|355:274,1,65.9999979858399,2|0,0:0|0:0,0:0:0:0:
449,282,97568,1,0,0:0:0:0:
449,282,98401,6,0,P|443:213|454:144,1,131.99999597168,0|2,0:0|0:0,0:0:0:0:
461,126,98818,1,0,0:0:0:0:
473,102,98956,2,0,P|477:65|473:32,1,65.9999979858399,2|0,0:0|0:0,0:0:0:0:
356,128,99234,6,0,P|352:165|356:198,1,65.9999979858399,0|0,0:0|0:0,0:0:0:0:
251,88,99512,2,0,P|248:55|238:23,1,65.9999979858399,2|0,0:0|0:0,0:0:0:0:
159,166,99790,2,0,P|164:197|176:227,1,65.9999979858399,2|0,0:0|0:0,0:0:0:0:
313,266,100068,5,0,0:0:0:0:
339,262,100206,1,2,0:0:0:0:
359,278,100345,2,0,P|376:307|375:360,1,65.9999979858399,2|0,0:0|0:0,0:0:0:0:
227,384,100623,2,0,P|210:355|211:302,1,65.9999979858399,2|0,0:0|0:0,0:0:0:0:
250,222,100901,1,0,0:0:0:0:
250,222,101734,6,0,P|183:215|115:222,1,131.99999597168,0|2,0:0|0:0,0:0:0:0:
92,226,102151,1,0,0:0:0:0:
66,219,102290,1,2,0:0:0:0:
48,199,102429,1,0,0:0:0:0:
171,142,102568,6,0,P|138:142|105:149,1,65.9999979858399,0|0,0:0|0:0,0:0:0:0:
314,162,102845,2,0,P|282:151|250:142,1,65.9999979858399,2|0,0:0|0:0,0:0:0:0:
435,233,103123,2,0,P|411:211|385:191,1,65.9999979858399,2|0,0:0|0:0,0:0:0:0:
187,285,103401,6,0,L|198:355,1,65.9999979858399,2|0,0:0|0:0,0:0:0:0:
303,235,103679,2,0,L|314:305,1,65.9999979858399,2|0,0:0|0:0,0:0:0:0:
103,158,103956,2,0,L|114:228,1,65.9999979858399,2|0,0:0|0:0,0:0:0:0:
219,108,104234,1,0,0:0:0:0:
219,108,105068,6,0,P|285:102|351:105,1,131.99999597168,0|2,0:0|0:0,0:0:0:0:
376,108,105484,1,0,0:0:0:0:
402,113,105623,1,2,0:0:0:0:
427,119,105762,1,0,0:0:0:0:
467,192,105901,6,0,P|469:225|450:268,1,65.9999979858399,0|0,0:0|0:0,0:0:0:0:
377,317,106179,2,0,P|350:297|318:290,1,65.9999979858399,2|0,0:0|0:0,0:0:0:0:
224,351,106456,2,0,P|197:370|165:377,1,65.9999979858399,2|0,0:0|0:0,0:0:0:0:
56,296,106734,5,0,0:0:0:0:
89,304,106873,2,0,P|114:283|129:254,1,65.9999979858399,2|0,0:0|0:0,0:0:0:0:
110,75,107151,1,0,0:0:0:0:
86,99,107290,2,0,P|90:131|108:159,1,65.9999979858399,2|0,0:0|0:0,0:0:0:0:
206,161,107568,1,0,0:0:0:0:
206,161,108401,6,0,B|306:146|280:208|380:191,2,175.999994628906,0|2|0,0:0|0:0|0:0,0:0:0:0:
140,226,110068,2,0,P|177:150|121:90,2,175.999994628906,0|2|0,0:0|0:0|0:0,0:0:0:0:
51,328,111734,6,0,P|116:316|182:312,1,131.99999597168,2|0,0:0|0:0,0:0:0:0:
263,331,112290,2,0,P|323:352|380:322,1,131.99999597168,2|0,0:0|0:0,0:0:0:0:
397,240,112845,2,0,P|392:184|379:110,1,131.99999597168,2|0,0:0|0:0,0:0:0:0:
367,35,113401,6,0,B|409:29|456:50|470:88|469:121|462:156|445:189|423:215|375:243|319:210|271:159|223:112|180:65|149:55|116:60|95:78|62:98|41:115|31:165|46:222|89:244|150:238,1,767.441860465116,2|0,0:0|0:0,0:0:0:0:
219,219,118401,5,4,1:2:0:0:
167,39,120068,5,2,0:0:0:0:
165,65,120172,1,0,0:0:0:0:
163,91,120276,2,0,L|160:153,1,44,2|0,0:0|0:0,0:0:0:0:
24,137,120484,5,2,0:0:0:0:
25,158,120588,1,0,0:0:0:0:
26,179,120693,2,0,L|29:230,1,38.4999988250733,2|0,0:0|0:0,0:0:0:0:
105,297,120901,5,2,0:0:0:0:
106,307,121005,1,0,0:0:0:0:
102,307,121109,1,2,0:0:0:0:
104,318,121213,1,0,0:0:0:0:
99,319,121318,1,2,0:0:0:0:
101,329,121422,1,0,0:0:0:0:
97,331,121527,1,2,0:0:0:0:
99,341,121631,1,0,0:0:0:0:
97,348,121734,5,0,1:0:0:0:
109,351,121838,1,0,1:0:0:0:
122,349,121943,1,0,1:0:0:0:
137,345,122047,1,0,1:0:0:0:
155,333,122151,1,0,1:0:0:0:
177,308,122255,1,0,1:0:0:0:
187,262,122359,1,0,1:0:0:0:
173,214,122463,1,0,1:0:0:0:
133,176,122568,6,0,L|49:182,1,76.9999976501466,4|0,0:3|0:0,0:0:0:0:
275,86,122776,2,0,L|351:87,1,76.9999976501466,4|0,0:3|0:0,0:0:0:0:
132,43,122984,2,0,L|55:41,1,76.9999976501466,4|0,0:3|0:0,0:0:0:0:
276,198,123193,1,0,1:0:0:0:
276,198,123262,1,0,1:0:0:0:
276,198,123331,1,0,1:0:0:0:
276,198,123401,6,0,L|352:192,1,76.9999976501466,6|0,1:2|0:0,0:0:0:0:
483,269,123609,2,0,P|444:256|406:263,1,76.9999976501466,0|0,1:0|0:0,0:0:0:0:
306,329,123818,2,0,P|267:342|229:335,1,76.9999976501466,2|0,1:2|0:0,0:0:0:0:
116,293,124026,2,0,L|121:230,1,51.3333317667644,0|0,0:0|0:0,0:0:0:0:
120,241,124165,1,0,0:0:0:0:
120,241,124234,6,0,P|127:281|116:319,1,76.9999976501466,2|0,1:2|0:0,0:0:0:0:
51,164,124443,2,0,P|41:127|47:89,1,76.9999976501466,0|0,1:2|0:0,0:0:0:0:
230,111,124651,2,0,P|235:148|225:185,1,76.9999976501466,2|0,1:2|0:0,0:0:0:0:
146,68,124859,2,0,L|147:5,1,51.3333317667644,0|0,0:0|0:0,0:0:0:0:
147,16,124998,1,0,0:0:0:0:
147,16,125068,6,0,L|223:26,1,76.9999976501466,2|0,1:2|0:0,0:0:0:0:
311,145,125276,1,0,1:0:0:0:
317,99,125380,1,0,0:0:0:0:
346,64,125484,1,2,1:2:0:0:
389,49,125588,1,0,0:0:0:0:
434,59,125693,2,0,L|426:121,1,51.3333317667644,0|0,0:0|0:0,0:0:0:0:
427,109,125831,1,0,0:0:0:0:
428,109,125901,6,0,B|411:210|459:170|441:273,1,153.999995300293,2|0,1:2|1:0,0:0:0:0:
439,279,126179,1,0,0:0:0:0:
430,297,126248,1,0,0:0:0:0:
416,312,126318,2,0,L|312:298,1,102.666663533529,2|0,1:2|0:0,0:0:0:0:
221,333,126526,6,0,L|302:327,1,73.3333333333333,4|0,0:3|0:0,0:0:0:0:
147,294,126734,6,0,P|139:335|149:372,1,76.9999976501466,6|0,1:2|0:0,0:0:0:0:
121,195,126943,2,0,P|83:187|46:196,1,76.9999976501466,0|0,1:0|0:0,0:0:0:0:
209,122,127151,2,0,P|217:81|207:44,1,76.9999976501466,2|0,1:2|0:0,0:0:0:0:
235,221,127360,2,0,L|285:227,1,51.3333317667644,0|0,0:0|0:0,0:0:0:0:
285,227,127498,1,0,0:0:0:0:
285,227,127568,6,0,L|368:222,1,76.9999976501466,2|0,1:2|0:0,0:0:0:0:
235,339,127776,2,0,L|152:333,1,76.9999976501466,0|0,1:2|0:0,0:0:0:0:
209,122,127984,2,0,L|285:126,1,76.9999976501466,2|0,1:2|0:0,0:0:0:0:
114,228,128193,2,0,L|107:174,1,51.3333317667644,0|0,0:0|0:0,0:0:0:0:
107,177,128331,1,0,0:0:0:0:
107,177,128401,6,0,P|63:163|37:137,1,76.9999976501466,2|0,1:2|0:0,0:0:0:0:
219,161,128609,2,0,P|263:146|289:120,1,76.9999976501466,0|0,1:2|0:0,0:0:0:0:
114,78,128818,2,0,P|81:44|70:9,1,76.9999976501466,2|0,1:2|0:0,0:0:0:0:
206,63,129026,2,0,P|227:48|241:25,1,51.3333317667644,0|0,0:0|0:0,0:0:0:0:
240,26,129165,1,0,0:0:0:0:
240,26,129234,6,0,L|321:34,1,76.9999976501466,6|0,1:2|0:0,0:0:0:0:
434,180,129443,1,0,1:0:0:0:
380,175,129547,1,0,1:0:0:0:
326,170,129651,1,0,1:0:0:0:
272,165,129755,1,0,1:0:0:0:
219,161,129859,1,0,1:0:0:0:
165,156,129963,1,0,1:0:0:0:
100,202,130068,5,4,1:2:0:0:
89,238,130172,1,0,0:0:0:0:
96,276,130276,1,2,1:2:0:0:
118,307,130380,1,0,0:0:0:0:
151,326,130484,1,0,0:0:0:0:
189,328,130588,1,0,1:0:0:0:
225,314,130693,1,2,1:2:0:0:
250,285,130797,1,0,0:0:0:0:
261,249,130901,6,0,L|186:243,1,76.9999976501466,0|0,1:0|0:0,0:0:0:0:
41,313,131109,2,0,L|116:306,1,76.9999976501466,2|0,1:2|0:0,0:0:0:0:
247,158,131318,2,0,L|322:151,1,76.9999976501466,0|0,0:0|1:0,0:0:0:0:
467,221,131526,2,0,L|391:214,1,76.9999976501466,2|0,1:2|0:0,0:0:0:0:
288,277,131734,5,0,1:0:0:0:
261,249,131838,1,0,0:0:0:0:
227,233,131942,1,2,1:2:0:0:
188,232,132046,1,0,0:0:0:0:
153,246,132150,1,0,0:0:0:0:
118,260,132255,1,0,1:0:0:0:
79,259,132359,1,2,1:2:0:0:
45,243,132463,1,0,0:0:0:0:
18,215,132568,6,0,P|6:149|23:55,1,153.999995300293,0|2,1:0|1:2,0:0:0:0:
34,50,132845,1,0,0:0:0:0:
54,45,132915,1,0,1:0:0:0:
71,52,132984,6,0,P|98:66|145:65,1,76.9999976501466,2|0,0:0|1:0,0:0:0:0:
217,9,133193,1,4,1:2:0:0:
290,134,133401,5,0,1:0:0:0:
321,157,133505,1,0,0:0:0:0:
359,151,133609,1,2,1:2:0:0:
385,123,133713,1,0,0:0:0:0:
393,85,133817,1,0,0:0:0:0:
401,47,133922,1,0,1:0:0:0:
427,19,134026,1,2,1:2:0:0:
465,13,134130,1,0,0:0:0:0:
504,14,134234,6,0,L|496:90,1,76.9999976501466,0|0,1:0|0:0,0:0:0:0:
266,113,134443,2,0,L|274:37,1,76.9999976501466,2|0,1:2|0:0,0:0:0:0:
385,123,134651,2,0,L|378:200,1,76.9999976501466,0|0,0:0|1:0,0:0:0:0:
148,224,134859,2,0,L|155:147,1,76.9999976501466,2|0,1:2|0:0,0:0:0:0:
239,324,135068,5,0,1:0:0:0:
204,353,135172,1,0,0:0:0:0:
160,369,135276,1,2,1:2:0:0:
115,367,135380,1,0,0:0:0:0:
73,347,135484,1,0,0:0:0:0:
43,313,135588,1,0,1:0:0:0:
27,270,135693,1,2,1:2:0:0:
29,224,135797,1,0,0:0:0:0:
39,179,135901,5,0,1:0:0:0:
55,267,136005,1,0,0:0:0:0:
129,318,136109,1,2,1:2:0:0:
218,302,136213,1,2,1:2:0:0:
269,228,136318,6,0,P|300:213|339:212,1,65.9999979858399,4|4,0:3|0:3,0:0:0:0:
431,310,136734,5,4,0:3:0:0:
320,292,136943,1,2,0:3:0:0:
320,292,137047,1,0,0:0:0:0:
320,292,137151,1,12,0:3:0:0:
180,325,137359,1,2,0:3:0:0:
180,325,137463,1,0,0:0:0:0:
180,325,137568,1,4,0:3:0:0:
84,229,137776,5,10,0:3:0:0:
83,203,137880,1,0,0:0:0:0:
82,176,137984,2,0,L|91:116,1,55,4|0,1:3|0:0,0:0:0:0:
185,228,138193,2,0,L|194:168,1,55,0|0,1:3|0:0,0:0:0:0:
296,207,138401,5,4,0:3:0:0:
408,117,138609,1,10,0:3:0:0:
408,117,138713,1,0,0:0:0:0:
408,117,138818,2,0,P|398:87|397:61,1,55,4|8,0:3|0:3,0:0:0:0:
376,248,139026,1,2,0:3:0:0:
376,248,139130,1,0,0:0:0:0:
376,248,139235,2,0,P|386:218|387:192,1,55,4|0,0:3|0:0,0:0:0:0:
151,96,139443,5,2,0:3:0:0:
143,138,139547,1,8,0:3:0:0:
160,178,139651,1,4,0:3:0:0:
197,201,139755,1,0,0:0:0:0:
240,198,139859,1,2,0:3:0:0:
275,172,139963,1,0,0:0:0:0:
288,131,140068,5,4,0:3:0:0:
18,93,140276,1,10,0:3:0:0:
18,93,140380,1,0,0:0:0:0:
18,93,140484,2,0,L|80:83,1,55,4|8,0:3|0:3,0:0:0:0:
294,207,140693,1,2,0:3:0:0:
294,207,140797,1,0,0:0:0:0:
294,207,140901,2,0,L|232:197,1,55,4|0,0:3|0:0,0:0:0:0:
87,280,141109,5,2,0:3:0:0:
47,309,141213,1,0,1:0:0:0:
48,252,141318,1,2,1:2:0:0:
102,235,141422,1,2,1:2:0:0:
135,281,141526,1,2,1:3:0:0:
101,326,141630,1,0,1:0:0:0:
87,280,141734,6,0,P|81:267|81:248,11,21.9999993286133,2|0|0|0|0|0|0|0|0|0|0|0,1:2|0:0|0:0|0:0|0:0|0:0|0:0|0:0|0:0|0:0|0:0|0:0,0:0:0:0:
204,315,142568,6,0,L|207:347,5,32.99999899292,0|0|0|0|0|0,0:0|0:0|0:0|0:0|0:0|0:0,0:0:0:0:
266,253,142984,2,0,L|271:221,5,32.99999899292,0|0|0|0|0|0,0:0|0:0|0:0|0:0|0:0|0:0,0:0:0:0:
385,319,143401,6,0,L|439:328,5,43.9999986572266,4|0|0|0|0|0,1:2|0:0|0:0|0:0|0:0|0:0,0:0:0:0:
482,195,143818,2,0,L|428:204,5,43.9999986572266,0|0|0|0|0|0,0:0|0:0|0:0|0:0|0:0|0:0,0:0:0:0:
394,95,144234,6,0,L|343:90,1,51.3333317667644,2|0,1:2|0:0,0:0:0:0:
315,120,144373,1,0,0:0:0:0:
284,120,144443,1,8,1:3:0:0:
255,108,144512,1,4,1:3:0:0:
233,88,144582,1,4,0:3:0:0:
219,60,144651,6,0,P|205:81|207:109,2,51.3333317667644,4|4|4,1:3|0:3|0:3,0:0:0:0:
219,60,144859,2,0,L|130:69,1,76.9999976501466,4|0,0:3|0:0,0:0:0:0:
60,128,145068,1,4,0:3:0:0:
223,202,145276,1,0,0:0:0:0:
461,54,145484,6,0,B|425:29|390:22|390:22|355:33|326:60,1,153.999995300293,4|0,1:2|0:0,0:0:0:0:
366,211,145901,2,0,P|392:112|442:202,1,263.99999194336,0|2,1:0|2:0,0:0:0:0:
333,328,146526,2,0,P|296:338|261:328,1,65.9999979858399,0|0,0:0|0:0,0:0:0:0:
128,280,146734,5,0,1:0:0:0:
89,271,146838,1,0,0:0:0:0:
50,276,146942,1,0,0:0:0:0:
16,296,147046,1,0,0:0:0:0:
8,335,147151,2,0,L|63:289,1,65.9999979858399,2|0,2:0|0:0,0:0:0:0:
269,332,147359,2,0,L|310:383,1,65.9999979858399,0|0,0:0|0:0,0:0:0:0:
172,339,147568,6,0,L|184:207,1,131.99999597168,0|0,1:0|0:0,0:0:0:0:
282,91,147984,1,2,1:2:0:0:
362,241,148193,2,0,P|331:222|304:197,1,65.9999979858399,0|0,0:0|0:0,0:0:0:0:
127,179,148401,5,0,1:0:0:0:
222,158,148609,1,0,0:0:0:0:
142,350,148818,1,2,2:0:0:0:
100,327,148922,1,0,0:0:0:0:
55,320,149026,1,0,0:0:0:0:
100,308,149130,1,0,0:0:0:0:
138,280,149234,6,0,P|165:257|183:226,1,65.9999979858399,0|0,1:0|0:0,0:0:0:0:
75,114,149443,1,0,0:0:0:0:
75,114,149547,1,0,0:0:0:0:
75,114,149651,2,0,L|78:180,1,65.9999979858399,6|0,2:0|0:0,0:0:0:0:
238,72,149859,2,0,L|235:6,1,65.9999979858399,8|0,0:3|0:0,0:0:0:0:
354,219,150068,5,0,0:0:0:0:
449,54,150276,1,2,1:2:0:0:
449,54,150380,1,0,0:0:0:0:
449,54,150484,1,4,1:2:0:0:
415,308,150693,1,4,0:3:0:0:
328,93,150901,5,4,0:2:0:0:
498,269,151109,2,0,P|505:301|501:338,1,65.9999979858399,2|8,0:0|0:3,0:0:0:0:
482,358,151318,1,4,0:3:0:0:
246,283,151526,1,2,0:0:0:0:
120,336,151734,6,0,P|58:352|9:312,1,131.99999597168,0|0,1:0|0:0,0:0:0:0:
185,90,152151,2,0,L|316:98,1,131.99999597168,8|2,1:1|0:0,0:0:0:0:
316,98,152463,1,0,0:0:0:0:
316,98,152568,1,0,1:0:0:0:
467,160,152776,1,0,0:0:0:0:
472,182,152880,1,0,0:0:0:0:
477,204,152984,1,8,1:1:0:0:
222,171,153193,2,0,L|147:165,1,65.9999979858399,2|0,0:0|0:0,0:0:0:0:
93,220,153401,6,0,P|119:161|103:94,1,131.99999597168,0|0,1:0|0:0,0:0:0:0:
12,42,153713,1,0,0:0:0:0:
12,42,153818,2,0,B|62:40|62:40|79:27|79:27|151:25,1,131.99999597168,8|0,1:0|0:0,0:0:0:0:
271,73,154130,1,2,0:0:0:0:
338,24,154234,6,0,L|403:20,1,65.9999979858399,0|0,1:0|0:0,0:0:0:0:
296,162,154443,2,0,L|230:158,1,65.9999979858399,8|0,1:0|0:0,0:0:0:0:
246,240,154651,2,0,P|234:271|232:304,1,65.9999979858399,8|0,1:0|0:0,0:0:0:0:
429,104,154859,2,0,P|440:135|443:171,1,65.9999979858399,4|0,1:3|0:0,0:0:0:0:
319,330,155068,6,0,B|232:303|232:303|145:334,1,176,4|0,1:0|0:0,0:0:0:0:
73,370,155693,1,0,0:0:0:0:
73,370,155797,1,0,0:0:0:0:
73,370,155901,2,0,P|53:331|55:284,1,88,4|0,1:2|0:0,0:0:0:0:
166,161,156318,2,0,P|185:199|185:243,1,88,2|0,0:0|0:0,0:0:0:0:
44,156,156734,2,0,L|55:21,1,132,0|0,0:0|0:0,0:0:0:0:
64,36,157151,6,0,B|32:155|23:227|54:285|101:296|149:288|167:259|180:211|160:182|131:172,1,395.999987915039,2|0,0:0|0:0,0:0:0:0:
208,39,159026,5,2,0:0:0:0:
208,39,159130,1,0,0:0:0:0:
208,39,159234,1,0,0:0:0:0:
300,86,159443,1,2,0:0:0:0:
386,29,159651,1,2,0:0:0:0:
478,76,159859,1,0,0:0:0:0:
483,179,160068,2,0,L|350:171,1,132,0|0,0:0|0:0,0:0:0:0:
339,181,160484,6,0,P|418:208|436:314,1,197.99999395752,2|0,0:0|0:0,0:0:0:0:
339,346,161318,2,0,L|267:343,1,65.9999979858399,0|0,0:0|0:0,0:0:0:0:
96,311,161734,6,0,P|139:310|191:154,1,230.99999295044,0|0,0:0|0:0,0:0:0:0:
179,156,162568,2,0,P|184:216|338:248,1,230.99999295044,2|0,0:0|0:0,0:0:0:0:
336,244,163401,6,0,B|215:220|215:220|142:257,1,197.99999395752,0|0,0:0|0:0,0:0:0:0:
107,335,164130,1,0,0:0:0:0:
107,335,164234,2,0,L|120:137,1,197.99999395752,2|0,0:0|0:0,0:0:0:0:
129,118,164963,1,0,0:0:0:0:
145,97,165068,6,0,L|148:35,2,58.6666666666667,2|0|0,0:0|0:0|0:0,0:0:0:0:
206,158,165484,2,0,L|203:216,2,58.6666666666667,2|0|0,0:0|0:0|0:0,0:0:0:0:
281,109,165901,2,0,P|284:70|274:41,1,58.6666666666667,2|0,0:0|0:0,0:0:0:0:
366,116,166179,2,0,P|361:145|347:171,1,58.6666666666667,0|2,0:0|0:0,0:0:0:0:
381,253,166456,2,0,P|410:227|424:199,1,58.6666666666667,0|0,0:0|0:0,0:0:0:0:
265,192,166734,6,0,L|260:256,1,58.6666666666667,2|0,0:0|0:0,0:0:0:0:
268,334,167047,1,0,0:0:0:0:
268,334,167151,2,0,L|179:319,1,88,2|2,0:0|0:0,0:0:0:0:
176,320,167429,1,0,0:0:0:0:
171,321,167498,1,0,0:0:0:0:
166,322,167568,6,0,B|140:225|190:249|154:139,1,176,2|0,0:0|0:0,0:0:0:0:
78,86,168123,1,2,1:0:0:0:
78,205,168262,1,2,1:0:0:0:
251,150,168401,6,0,L|376:142,1,121.000003692627,6|0,0:0|2:0,0:0:0:0:
389,138,168679,2,0,P|402:180|385:230,1,80.6666691284181,0|2,0:0|0:0,0:0:0:0:
178,107,168956,2,0,P|170:67|183:30,1,80.6666691284181,0|2,0:0|0:0,0:0:0:0:
277,234,169234,6,0,L|270:364,1,121.000003692627,6|0,0:0|2:0,0:0:0:0:
264,362,169512,2,0,L|179:355,1,80.6666691284181,2|0,0:0|2:0,0:0:0:0:
199,269,169790,2,0,L|118:275,1,80.6666691284181,2|0,0:0|2:0,0:0:0:0:
197,179,170068,6,0,P|146:176|102:105,1,121.000003692627,6|0,0:0|2:0,0:0:0:0:
112,107,170345,1,0,0:0:0:0:
288,131,170484,1,2,0:0:0:0:
215,40,170623,1,0,0:0:0:0:
284,232,170762,1,2,0:0:0:0:
396,103,170901,6,0,P|420:53|462:-6,1,121.000003692627,6|0,0:0|2:0,0:0:0:0:
473,4,171179,2,0,L|479:90,1,80.6666691284181,2|0,1:0|2:0,0:0:0:0:
408,125,171456,2,0,L|413:205,1,80.6666691284181,2|0,0:0|2:0,0:0:0:0:
481,351,171734,5,6,1:0:0:0:
165,338,172012,1,8,1:3:0:0:
218,118,172151,1,8,1:3:0:0:
97,202,172290,1,4,1:3:0:0:
303,278,172429,1,4,1:3:0:0:
150,88,172568,6,0,P|144:127|159:164,1,80.6666691284181,4|0,1:3|2:0,0:0:0:0:
305,210,172845,2,0,P|272:186|233:179,1,80.6666691284181,4|0,1:3|2:0,0:0:0:0:
118,289,173123,2,0,P|154:273|179:242,1,80.6666691284181,4|0,1:3|2:0,0:0:0:0:
236,47,173401,1,8,1:0:0:0:
446,127,173818,5,4,0:3:0:0:
439,126,173922,1,4,0:3:0:0:
432,125,174026,1,4,0:3:0:0:
425,124,174130,1,4,0:3:0:0:
418,123,174234,1,4,0:3:0:0:
