osu file format v14

[General]
AudioFilename: audio.mp3
AudioLeadIn: 0
PreviewTime: -1
Countdown: 1
SampleSet: Normal
StackLeniency: 0.7
Mode: 2
LetterboxInBreaks: 0
WidescreenStoryboard: 0

[Editor]
Bookmarks: 58419
DistanceSpacing: 1.4
BeatDivisor: 4
GridSize: 16
TimelineZoom: 1

[Metadata]
Title:Latino Virus
TitleUnicode:Latino Virus
Artist:Warak
ArtistUnicode:Warak
Creator:Karym
Version:Camme
Source:
Tags:LicciardelloCup2019 OMG420KK PizzaBestMapper SimoneCMRecuperReferee
BeatmapID:1914661
BeatmapSetID:916754

[Difficulty]
HPDrainRate:7
CircleSize:4.2
OverallDifficulty:9.3
ApproachRate:9.3
SliderMultiplier:1.4
SliderTickRate:3

[Events]
//Background and Video events
//Break Periods
//Storyboard Layer 0 (Background)
//Storyboard Layer 1 (Fail)
//Storyboard Layer 2 (Pass)
//Storyboard Layer 3 (Foreground)
//Storyboard Layer 4 (Overlay)
//Storyboard Sound Samples

[TimingPoints]
361,352.941176470588,4,1,0,70,1,0
890,-66.6666666666667,4,1,0,70,0,0
7949,-50,4,1,0,70,0,0
10596,-200,4,1,0,100,0,0
13066,-33.3333333333333,4,1,0,100,0,0
20125,-25,4,1,0,100,0,0
24360,-28.5714285714286,4,1,0,100,0,0
25419,-33.3333333333333,4,1,0,100,0,0
28243,-400,4,1,0,100,0,0
31419,-33.3333333333333,4,1,0,100,0,0
48360,-25,4,1,0,100,0,0
52596,-36.3636363636364,4,1,0,100,0,0
55419,-28.5714285714286,4,1,0,100,0,0
63890,-28.5714285714286,4,1,0,100,0,0
63890,-25,4,1,0,100,0,0
65302,-25,4,1,0,100,0,0

[HitObjects]
405,187,361,5,0,0:0:0:0:
89,192,537,1,0,0:0:0:0:
241,207,890,2,0,B|100:206|117:204,1,105.000004005432
241,207,1243,2,0,L|359:209,1,105.000004005432
445,210,1596,1,0,0:0:0:0:
170,198,1772,1,0,0:0:0:0:
56,191,1949,1,0,0:0:0:0:
230,197,2302,1,0,0:0:0:0:
303,197,2478,2,0,L|411:195,1,105.000004005432
441,203,2831,2,0,L|552:202,1,105.000004005432
45,186,3184,1,0,0:0:0:0:
245,187,3360,5,0,0:0:0:0:
440,190,3537,1,0,0:0:0:0:
245,187,3713,1,0,0:0:0:0:
47,181,3890,1,0,0:0:0:0:
245,187,4066,1,0,0:0:0:0:
440,190,4243,1,0,0:0:0:0:
245,187,4419,1,0,0:0:0:0:
41,177,4596,1,0,0:0:0:0:
224,161,4772,2,0,L|223:316,1,105.000004005432
365,178,5125,1,0,0:0:0:0:
365,178,5302,5,0,0:0:0:0:
54,185,5655,1,0,0:0:0:0:
158,202,6008,2,0,B|155:113|246:143|243:142,1,105.000004005432
281,134,6360,1,0,0:0:0:0:
403,131,6537,2,0,L|513:38,1,105.000004005432
109,131,6890,2,0,L|-1:38,1,105.000004005432
281,134,7243,1,0,0:0:0:0:
330,132,7419,1,0,0:0:0:0:
281,134,7596,1,0,0:0:0:0:
11,260,7949,2,0,L|84:127,1,140
501,260,8302,6,0,L|433:137,1,140
240,176,8655,1,0,0:0:0:0:
25,193,8831,1,0,0:0:0:0:
240,193,9008,1,0,0:0:0:0:
485,194,9184,1,0,0:0:0:0:
238,192,9360,1,0,0:0:0:0:
3,194,9537,1,0,0:0:0:0:
230,196,9713,1,0,0:0:0:0:
489,199,9890,1,0,0:0:0:0:
238,192,10066,1,0,0:0:0:0:
246,187,10243,5,0,0:0:0:0:
448,192,10596,6,0,L|374:194,1,70
99,192,11655,2,0,L|149:192,1,35
368,194,12008,1,0,0:0:0:0:
368,194,12360,2,0,L|322:192,1,35
235,187,12713,1,0,0:0:0:0:
59,191,12890,1,0,0:0:0:0:
97,292,13066,6,0,L|183:212,1,105.000004005432
65,223,13243,6,0,L|148:148,1,105.000004005432
453,277,13419,2,0,L|373:196,1,105.000004005432
484,211,13596,2,0,L|394:134,1,105.000004005432
167,276,13772,2,0,L|223:177,1,105.000004005432
124,207,13949,2,0,L|188:112,1,105.000004005432
330,280,14125,2,0,L|278:172,1,105.000004005432
408,218,14302,2,0,L|346:120,1,105.000004005432
239,177,14478,1,0,0:0:0:0:
319,187,14655,2,0,L|474:19,1,210.000008010865
281,46,15008,1,0,0:0:0:0:
154,235,15184,6,0,L|4:63,1,210.000008010865
351,151,15537,1,0,0:0:0:0:
110,152,15713,1,0,0:0:0:0:
139,103,15890,2,0,L|55:202,1,105.000004005432
197,139,16066,2,0,L|128:221,1,105.000004005432
351,151,16243,2,0,L|435:243,1,105.000004005432
403,107,16419,2,0,L|486:202,1,105.000004005432
362,140,16596,2,0,L|428:261,1,105.000004005432
301,159,16772,6,0,L|311:292,1,105.000004005432
233,160,16949,2,0,L|229:292,1,105.000004005432
148,154,17125,2,0,L|120:285,1,105.000004005432
30,161,17302,1,0,0:0:0:0:
229,164,17478,1,0,0:0:0:0:
413,166,17655,1,0,0:0:0:0:
54,169,17831,1,0,0:0:0:0:
375,170,18008,1,0,0:0:0:0:
86,172,18184,1,0,0:0:0:0:
436,171,18360,1,0,0:0:0:0:
38,174,18537,5,0,0:0:0:0:
488,175,18713,1,0,0:0:0:0:
399,175,18890,2,0,L|280:172,1,105.000004005432
53,173,19066,1,0,0:0:0:0:
144,215,19596,1,0,0:0:0:0:
259,224,19772,1,0,0:0:0:0:
387,228,19949,1,0,0:0:0:0:
25,242,20125,2,0,L|641:248,1,560
28,144,20655,1,0,0:0:0:0:
475,238,20831,2,0,L|-99:231,1,560
473,244,21360,5,0,0:0:0:0:
5,243,21537,2,0,L|589:251,1,560
419,248,22066,1,0,0:0:0:0:
386,229,22155,1,0,0:0:0:0:
416,207,22243,1,0,0:0:0:0:
212,229,22419,1,0,0:0:0:0:
2,231,22596,1,0,0:0:0:0:
268,231,22772,1,0,0:0:0:0:
491,233,22949,1,0,0:0:0:0:
335,232,23125,1,0,0:0:0:0:
179,231,23302,5,0,0:0:0:0:
33,230,23478,1,0,0:0:0:0:
18,160,23655,2,0,L|314:162,1,280
22,94,24008,2,0,L|350:97,1,280
39,44,24360,2,0,B|298:-37|523:59|638:281|-2:363,1,980.000009346008
34,169,25243,1,0,0:0:0:0:
181,216,25419,2,0,L|66:299,1,105.000004005432
322,213,25596,2,0,L|439:308,1,105.000004005432
49,104,25772,2,0,L|473:107,1,420.000016021729
223,197,26478,5,0,0:0:0:0:
379,288,26831,2,0,L|252:167,1,105.000004005432
106,289,27008,2,0,L|190:186,1,105.000004005432
115,117,27184,2,0,L|568:114,1,420.000016021729
509,119,27890,1,0,0:0:0:0:
39,243,28243,1,0,0:0:0:0:
82,191,28419,1,0,0:0:0:0:
41,139,28596,1,0,0:0:0:0:
471,139,28949,1,0,0:0:0:0:
430,191,29126,1,0,0:0:0:0:
473,243,29302,5,0,0:0:0:0:
242,181,29655,1,0,0:0:0:0:
242,181,29831,1,0,0:0:0:0:
242,181,30008,1,0,0:0:0:0:
35,189,30890,1,0,0:0:0:0:
255,194,31066,1,0,0:0:0:0:
480,191,31243,1,0,0:0:0:0:
478,121,31419,2,0,L|16:117,1,420.000016021729
478,121,31949,1,0,0:0:0:0:
37,124,32125,2,0,L|489:126,1,420.000016021729
462,135,32655,1,0,0:0:0:0:
17,327,32831,2,0,L|441:80,1,420.000016021729
302,88,33713,2,0,L|442:88,1,105.000004005432
298,161,33890,2,0,L|437:161,1,105.000004005432
398,255,34066,1,0,0:0:0:0:
398,255,34155,1,0,0:0:0:0:
450,317,34243,2,0,L|293:316,1,105.000004005432
30,324,34419,2,0,L|171:325,1,105.000004005432
446,232,34596,2,0,L|301:232,1,105.000004005432
35,224,34772,2,0,L|156:224,1,105.000004005432
441,152,34949,2,0,L|320:153,1,105.000004005432
39,150,35125,2,0,L|172:149,1,105.000004005432
445,80,35302,2,0,L|329:79,1,105.000004005432
46,75,35478,2,0,L|179:76,1,105.000004005432
409,117,35655,2,0,B|306:1|80:21|14:184|18:289|192:368|256:358|465:278,1,840.000032043458
446,216,36537,1,0,0:0:0:0:
112,275,36713,2,0,L|210:205,1,105.000004005432
97,195,36890,2,0,L|201:135,1,105.000004005432
33,47,37066,6,0,L|464:50,1,420.000016021729
447,55,37772,1,0,0:0:0:0:
400,275,38125,2,0,L|302:205,1,105.000004005432
415,195,38302,2,0,L|311:135,1,105.000004005432
479,47,38478,6,0,L|48:50,1,420.000016021729
39,42,39184,1,0,0:0:0:0:
95,183,39537,1,0,0:0:0:0:
251,189,39713,1,0,0:0:0:0:
414,191,39890,1,0,0:0:0:0:
468,193,40243,1,0,0:0:0:0:
251,189,40419,1,0,0:0:0:0:
35,187,40596,1,0,0:0:0:0:
242,191,40949,1,0,0:0:0:0:
242,191,41125,1,0,0:0:0:0:
240,191,41302,1,0,0:0:0:0:
227,197,42184,1,0,0:0:0:0:
227,197,42228,5,0,0:0:0:0:
227,197,42272,1,0,0:0:0:0:
227,197,42316,1,0,0:0:0:0:
227,197,42360,1,0,0:0:0:0:
350,205,42537,1,0,0:0:0:0:
251,208,42713,1,0,0:0:0:0:
136,207,42890,1,0,0:0:0:0:
57,209,43066,1,0,0:0:0:0:
180,215,43243,1,0,0:0:0:0:
27,213,43419,5,0,0:0:0:0:
281,219,43596,1,0,0:0:0:0:
55,215,43772,1,0,0:0:0:0:
411,216,43949,1,0,0:0:0:0:
144,142,44125,2,0,L|13:142,1,105.000004005432
144,142,44302,1,0,0:0:0:0:
368,142,44478,2,0,L|499:142,1,105.000004005432
368,142,44655,1,0,0:0:0:0:
78,295,44831,2,0,L|172:230,1,105.000004005432
434,295,45008,6,0,L|340:230,1,105.000004005432
93,192,45184,1,0,0:0:0:0:
392,205,45360,1,0,0:0:0:0:
391,160,45537,1,0,0:0:0:0:
391,160,45713,1,0,0:0:0:0:
317,158,45890,1,0,0:0:0:0:
94,164,46066,1,0,0:0:0:0:
422,174,46243,1,0,0:0:0:0:
161,171,46419,1,0,0:0:0:0:
361,177,46596,5,0,0:0:0:0:
95,173,46772,1,0,0:0:0:0:
30,339,46949,2,0,L|124:222,1,105.000004005432
195,178,47125,1,0,0:0:0:0:
482,339,47302,2,0,L|388:222,1,105.000004005432
317,178,47478,1,0,0:0:0:0:
33,186,47655,2,0,L|209:185,1,105.000004005432
468,188,47831,2,0,L|315:191,1,105.000004005432
78,188,48008,1,0,0:0:0:0:
399,197,48184,5,0,0:0:0:0:
58,199,48360,1,0,0:0:0:0:
196,192,48537,1,0,0:0:0:0:
262,152,48625,1,0,0:0:0:0:
195,120,48713,1,0,0:0:0:0:
261,87,48802,1,0,0:0:0:0:
163,72,48890,1,0,0:0:0:0:
294,46,48978,1,0,0:0:0:0:
143,31,49066,1,0,0:0:0:0:
485,219,49243,1,0,0:0:0:0:
458,172,49331,1,0,0:0:0:0:
493,134,49419,1,0,0:0:0:0:
366,141,49596,1,0,0:0:0:0:
145,167,49772,1,0,0:0:0:0:
310,169,49860,1,0,0:0:0:0:
145,167,49949,5,0,0:0:0:0:
310,169,50037,1,0,0:0:0:0:
145,167,50125,1,0,0:0:0:0:
310,169,50213,1,0,0:0:0:0:
257,87,50302,2,0,L|84:88,1,140
2,89,50478,1,0,0:0:0:0:
61,89,50655,1,0,0:0:0:0:
115,88,50743,1,0,0:0:0:0:
195,92,50831,2,0,L|380:92,1,140
190,161,51008,2,0,L|397:162,1,140
400,162,51184,5,0,0:0:0:0:
273,161,51272,1,0,0:0:0:0:
126,164,51360,1,0,0:0:0:0:
38,168,51449,1,0,0:0:0:0:
353,167,51537,1,0,0:0:0:0:
97,167,51713,5,0,0:0:0:0:
426,167,52066,1,0,0:0:0:0:
335,170,52419,1,0,0:0:0:0:
242,175,52596,1,0,0:0:0:0:
175,279,52772,2,0,L|68:278,1,96.2500009179115
172,216,52949,2,0,L|68:215,1,96.2500009179115
175,144,53125,2,0,L|61:142,1,96.2500009179115
343,146,53302,1,0,0:0:0:0:
317,227,54008,2,0,P|73:183|183:75,1,481.250004589558
220,109,54537,1,0,0:0:0:0:
259,79,54625,1,0,0:0:0:0:
218,51,54713,1,0,0:0:0:0:
114,85,54890,1,0,0:0:0:0:
380,102,55066,1,0,0:0:0:0:
45,103,55243,1,0,0:0:0:0:
319,252,55419,2,0,L|529:323,1,122.500001168251
333,189,55596,2,0,L|473:234,1,122.500001168251
350,131,55772,2,0,L|484:176,1,122.500001168251
366,78,55949,2,0,L|499:120,1,122.500001168251
247,78,56125,5,0,0:0:0:0:
106,81,56302,1,0,0:0:0:0:
321,81,56478,1,0,0:0:0:0:
43,86,56655,1,0,0:0:0:0:
271,83,56831,2,0,P|429:70|318:287,1,490.000004673004
274,296,57360,1,0,0:0:0:0:
300,241,57449,1,0,0:0:0:0:
264,202,57537,1,0,0:0:0:0:
122,220,57713,1,0,0:0:0:0:
383,232,57890,1,0,0:0:0:0:
46,227,58066,1,0,0:0:0:0:
193,252,58243,6,0,L|-17:323,1,122.500001168251
179,189,58420,2,0,L|39:234,1,122.500001168251
162,131,58596,2,0,L|28:176,1,122.500001168251
146,78,58773,2,0,L|13:120,1,122.500001168251
339,103,58949,1,0,0:0:0:0:
204,97,59125,1,0,0:0:0:0:
398,101,59302,1,0,0:0:0:0:
111,101,59478,1,0,0:0:0:0:
302,293,59655,2,0,P|429:109|200:113,1,490.000004673004
74,320,60184,6,0,L|186:233,1,122.500001168251
443,329,60360,2,0,L|321:217,1,122.500001168251
434,50,60537,2,0,L|322:137,1,122.500001168251
65,41,60713,2,0,L|187:153,1,122.500001168251
22,158,60890,1,0,0:0:0:0:
74,153,61066,2,0,L|320:152,1,245.000002336502
387,152,61419,1,0,0:0:0:0:
311,159,61596,1,0,0:0:0:0:
448,161,61772,5,0,0:0:0:0:
248,161,61949,1,0,0:0:0:0:
485,158,62125,1,0,0:0:0:0:
167,163,62302,1,0,0:0:0:0:
102,167,62478,2,0,P|13:102|275:-12,1,490.000004673004
215,172,63008,2,0,L|400:173,1,122.500001168251
435,176,63184,1,0,0:0:0:0:
435,176,63360,1,0,0:0:0:0:
341,176,63537,1,0,0:0:0:0:
122,181,63713,5,0,0:0:0:0:
25,46,63890,2,0,L|193:163,1,122.500001168251
464,46,64066,2,0,L|348:123,1,140
31,350,64243,2,0,L|154:258,1,122.500001168251
470,336,64419,2,0,L|347:269,1,140
40,154,64596,2,0,L|283:156,1,122.500001168251
450,164,64772,2,0,L|302:161,1,122.500001168251
362,220,64949,1,0,0:0:0:0:
220,217,65125,1,0,0:0:0:0:
71,220,65302,6,0,P|296:45|445:333,1,560
354,214,65743,1,0,0:0:0:0:
196,221,65831,5,0,0:0:0:0:
33,220,65919,1,0,0:0:0:0:
478,217,66008,1,0,0:0:0:0:
255,219,66096,1,0,0:0:0:0:
470,222,66184,1,0,0:0:0:0:
108,217,66272,1,0,0:0:0:0:
354,214,66360,1,0,0:0:0:0:
245,219,66449,1,0,0:0:0:0:
108,217,66537,1,0,0:0:0:0:
255,219,66625,1,0,0:0:0:0:
471,219,66713,1,0,0:0:0:0:
27,218,66802,1,0,0:0:0:0:
255,219,66890,1,0,0:0:0:0:
27,218,66978,1,0,0:0:0:0:
255,219,67066,1,0,0:0:0:0:
27,218,67155,1,0,0:0:0:0:
255,219,67243,1,0,0:0:0:0:
330,257,67331,1,0,0:0:0:0:
404,279,67419,6,0,P|482:178|181:102,1,560
201,136,67949,1,0,0:0:0:0:
316,141,68037,1,0,0:0:0:0:
455,194,68125,2,0,L|167:318,1,280
40,201,68390,1,0,0:0:0:0:
185,206,68478,1,0,0:0:0:0:
40,201,68566,1,0,0:0:0:0:
260,208,68655,1,0,0:0:0:0:
40,201,68743,5,0,0:0:0:0:
333,208,68831,1,0,0:0:0:0:
40,201,68919,1,0,0:0:0:0:
406,210,69008,1,0,0:0:0:0:
481,208,69096,1,0,0:0:0:0:
366,209,69184,1,0,0:0:0:0:
481,208,69272,1,0,0:0:0:0:
291,209,69360,1,0,0:0:0:0:
481,208,69449,1,0,0:0:0:0:
230,207,69537,1,0,0:0:0:0:
481,208,69625,5,0,0:0:0:0:
160,207,69713,1,0,0:0:0:0:
481,208,69802,1,0,0:0:0:0:
401,212,69890,2,0,L|184:213,1,140
78,211,70066,2,0,B|502:280|497:222|-34:80|-159:11|-128:1|239:15,1,840
