osu file format v14

[General]
AudioFilename: audio.mp3
AudioLeadIn: 0
PreviewTime: 41232
Countdown: 0
SampleSet: Soft
StackLeniency: 0.8
Mode: 0
LetterboxInBreaks: 0
WidescreenStoryboard: 1

[Editor]
Bookmarks: 1375,15090,18650,26875,28804,42518,56233,69947,87090,90518,100804,114518,129947,148804,150518,164233,177090,177947
DistanceSpacing: 0.8
BeatDivisor: 8
GridSize: 8
TimelineZoom: 2.599999

[Metadata]
Title:Zecchou Sanka
TitleUnicode:絶頂讃歌
Artist:Wanuka
ArtistUnicode:和ぬか
Creator:soncak
Version:Normal
Source:
Tags:orgasm anthem nsfw explicit supav pop japanese jpop j-pop 100回嘔吐 100kaiouto 100kai Outo
BeatmapID:3848060
BeatmapSetID:1850079

[Difficulty]
HPDrainRate:3.2
CircleSize:3
OverallDifficulty:5
ApproachRate:6
SliderMultiplier:1.4
SliderTickRate:1

[Events]
//Background and Video events
0,0,"zecchou sanka.png",0,0
Video,0,"anthem.mp4"
//Break Periods
2,114742,120350
//Storyboard Layer 0 (Background)
//Storyboard Layer 1 (Fail)
//Storyboard Layer 2 (Pass)
//Storyboard Layer 3 (Foreground)
//Storyboard Layer 4 (Overlay)
//Storyboard Sound Samples

[TimingPoints]
1400,428.571428571429,4,2,1,85,1,0
1400,-90.9090909090909,4,2,1,85,0,1
13614,-90.9090909090909,4,2,1,70,0,1
14042,-90.9090909090909,4,2,1,75,0,1
14257,-90.9090909090909,4,2,1,80,0,1
14471,-90.9090909090909,4,2,2,85,0,1
14685,-90.9090909090909,4,2,2,90,0,1
15114,-111.111111111111,4,2,2,60,0,0
26900,-90.9090909090909,4,2,1,60,0,0
27328,-90.9090909090909,4,2,1,65,0,0
27757,-90.9090909090909,4,2,1,70,0,0
27971,-90.9090909090909,4,2,2,75,0,0
28185,-90.9090909090909,4,2,2,80,0,0
28400,-90.9090909090909,4,2,2,85,0,0
28828,-100,4,2,1,80,0,0
30328,-111.111111111111,4,2,1,70,0,0
41685,-125,4,2,1,75,0,1
42435,-111.111111111111,4,2,1,75,0,0
42542,-83.3333333333333,4,2,1,85,0,1
48542,-83.3333333333333,4,2,2,85,0,1
49400,-83.3333333333333,4,2,1,85,0,1
54114,-83.3333333333333,4,2,2,85,0,1
54542,-83.3333333333333,4,2,1,85,0,0
54757,-83.3333333333333,4,2,1,85,0,1
55828,-100,4,2,1,70,0,0
62257,-100,4,2,2,70,0,0
62578,-100,4,2,1,70,0,0
69328,-100,4,2,2,70,0,0
69971,-111.111111111111,4,2,2,60,0,0
75114,-111.111111111111,4,2,1,70,0,0
75542,-111.111111111111,4,2,1,60,0,0
75971,-111.111111111111,4,2,1,75,0,0
76292,-111.111111111111,4,2,2,75,0,0
76614,-111.111111111111,4,2,2,60,0,0
76828,-100,4,2,2,65,0,0
82828,405.405405405405,4,2,2,70,1,0
82828,-100,4,2,2,70,0,0
83233,452.830188679245,4,2,2,70,1,0
83685,428.571428571429,4,2,1,70,1,0
83685,-100,4,2,1,70,0,0
85185,-90.9090909090909,4,2,2,70,0,0
85613,-90.9090909090909,4,2,1,60,0,0
85827,-90.9090909090909,4,2,1,65,0,0
86042,-90.9090909090909,4,2,1,70,0,0
86256,-90.9090909090909,4,2,2,75,0,0
86470,-90.9090909090909,4,2,2,80,0,0
87542,-100,4,2,1,70,0,1
88827,-100,4,2,1,70,0,0
89685,413.793103448276,4,2,2,70,1,0
90098,-100,4,2,2,70,0,0
90305,-100,4,2,1,70,0,0
90512,461.538461538462,4,2,1,70,1,0
90973,428.571428571429,4,2,1,70,1,0
92258,428.571428571429,4,2,1,70,1,0
93328,-100,4,2,2,70,0,0
93971,428.571428571429,4,2,1,70,1,0
93971,-100,4,2,1,70,0,0
99971,-133.333333333333,4,2,1,70,0,0
100828,-83.3333333333333,4,2,1,85,0,1
106828,-83.3333333333333,4,2,2,85,0,1
107685,-83.3333333333333,4,2,1,85,0,1
112400,-83.3333333333333,4,2,2,85,0,1
112721,-83.3333333333333,4,2,1,85,0,1
112828,-83.3333333333333,4,2,1,85,0,0
113042,-83.3333333333333,4,2,1,85,0,1
114113,-100,4,2,1,85,0,0
114542,-100,4,2,2,60,0,0
121400,-111.111111111111,4,2,2,65,0,0
128257,-100,4,2,1,65,0,0
128685,-100,4,2,1,60,0,0
129114,-100,4,2,1,70,0,0
129542,-100,4,2,2,75,0,0
129971,-90.9090909090909,4,2,1,80,0,0
132542,-90.9090909090909,4,2,2,80,0,0
133185,-90.9090909090909,4,2,1,80,0,0
136185,-90.9090909090909,4,2,2,80,0,0
136828,-90.9090909090909,4,2,1,80,0,0
139400,-90.9090909090909,4,2,2,80,0,0
140042,-90.9090909090909,4,2,1,80,0,0
141114,-90.9090909090909,4,2,2,80,0,0
141328,-90.9090909090909,4,2,1,80,0,0
141757,-90.9090909090909,4,2,1,60,0,0
142400,-90.9090909090909,4,2,1,65,0,0
142614,-90.9090909090909,4,2,2,70,0,0
142828,-90.9090909090909,4,2,2,75,0,0
142900,-90.9090909090909,4,2,1,75,0,0
143042,-90.9090909090909,4,2,2,70,0,0
143471,-90.9090909090909,4,2,1,65,0,0
143685,-90.9090909090909,4,2,2,65,0,0
146900,-90.9090909090909,4,2,1,70,0,0
147114,-90.9090909090909,4,2,1,80,0,0
148828,-83.3333333333333,4,2,1,80,0,1
150328,-100,4,2,1,80,0,0
150542,-76.9230769230769,4,2,1,90,0,1
156542,-76.9230769230769,4,2,2,90,0,1
157400,-76.9230769230769,4,2,1,90,0,1
161685,422.535211267606,4,2,1,90,1,1
161685,-76.9230769230769,4,2,1,90,0,1
162107,413.793103448276,4,2,1,80,1,1
162313,-100,4,2,1,80,0,0
162520,408.163265306122,4,2,1,70,1,0
162520,-90.9090909090909,4,2,2,90,0,0
162826,447.761194029851,4,2,1,70,1,0
163161,468.75,4,2,1,90,1,0
163161,-90.9090909090909,4,2,1,90,0,0
163629,400,4,2,1,70,1,0
163829,-90.9090909090909,4,2,1,90,0,1
164251,428.571428571429,4,2,1,90,1,1
164251,-76.9230769230769,4,2,1,90,0,1
167679,-76.9230769230769,4,2,1,90,0,1
170251,-76.9230769230769,4,2,2,90,0,1
170572,-76.9230769230769,4,2,1,90,0,1
171108,-90.9090909090909,4,2,1,80,0,0
173893,-90.9090909090909,4,2,2,80,0,0
174215,-90.9090909090909,4,2,1,80,0,0
174536,-90.9090909090909,4,2,2,90,0,1
177108,-100,4,2,1,90,0,1
177965,-100,4,2,1,50,0,0

[Colours]
Combo1 : 255,204,51
Combo2 : 132,89,196
Combo3 : 223,139,0
Combo4 : 255,55,181

[HitObjects]
58,365,1400,6,0,P|97:335|107:302,1,77.0000023498536,4|2,3:1|0:0,0:0:0:0:
152,282,1828,2,0,P|145:233|121:208,1,77.0000023498536,8|2,1:0|0:0,0:0:0:0:
82,184,2257,2,0,P|44:150|65:54,1,154.000004699707,2|8,3:2|1:0,0:0:0:0:
107,29,2900,1,10,0:0:0:0:
154,53,3114,6,0,P|233:63|283:70,1,115.50000352478,4|2,3:2|0:0,0:0:0:0:
275,164,3757,1,2,0:0:0:0:
275,164,3971,2,0,P|265:243|258:293,2,115.50000352478,2|10|10,3:2|0:2|0:2,0:0:0:0:
332,162,4828,6,0,P|350:116|336:79,1,77.0000023498536,6|2,3:2|0:0,0:0:0:0:
348,36,5257,2,0,P|393:12|428:24,1,77.0000023498536,8|2,1:0|0:0,0:0:0:0:
465,40,5685,2,0,P|456:97|438:209,1,154.000004699707,6|8,3:2|1:0,0:0:0:0:
432,245,6328,1,8,0:0:0:0:
425,298,6542,6,0,P|392:336|327:327,1,115.50000352478,6|2,3:2|0:0,0:0:0:0:
275,271,7185,1,2,0:0:0:0:
206,354,7614,1,2,0:3:0:0:
108,308,8042,1,10,1:2:0:0:
56,325,8257,6,0,P|45:249|40:224,1,77.0000023498536,4|2,3:1|0:0,0:0:0:0:
80,208,8685,2,0,P|69:132|64:107,1,77.0000023498536,8|2,1:0|0:0,0:0:0:0:
32,91,9114,2,0,P|89:39|181:58,1,154.000004699707,2|8,3:2|1:0,0:0:0:0:
197,84,9757,1,8,0:0:0:0:
235,121,9971,2,0,P|298:123|327:68,2,115.50000352478,6|2|2,3:2|0:0|0:0,0:0:0:0:
188,149,10828,2,0,P|200:239|213:327,1,154.000004699707,2|8,3:2|1:0,0:0:0:0:
299,360,11685,5,2,3:2:0:0:
384,294,12114,1,8,1:0:0:0:
476,349,12542,1,8,1:2:0:0:
499,300,12757,2,0,P|493:247|465:223,1,77.0000023498536,8|0,1:0|3:0,0:0:0:0:
433,201,13185,6,2,B|396:179|405:95|405:95|386:178|325:183,1,231.000007049561,4|2,0:0|1:2,0:1:0:0:
286,197,14042,1,8,1:0:0:0:
240,167,14257,2,0,P|202:132|183:94,1,77.0000023498536,8|8,1:0|1:0,0:0:0:0:
153,70,14685,2,0,P|103:85|61:82,1,77.0000023498536,8|8,1:0|1:0,0:0:0:0:
35,78,15114,6,0,P|10:108|11:165,1,94.499997116089,4|2,3:2|0:0,0:0:0:0:
74,216,15757,1,2,0:0:0:0:
74,216,15971,2,0,P|99:246|98:303,1,94.499997116089,2|2,3:2|0:0,0:0:0:0:
164,354,16614,1,2,0:0:0:0:
164,354,16828,2,0,P|218:345|240:342,1,62.9999980773926,2|0,3:2|3:0,0:0:0:0:
282,334,17257,2,0,P|336:325|358:322,1,62.9999980773926,10|0,3:0|3:0,0:0:0:0:
456,361,17900,1,0,0:0:0:0:
456,361,18114,2,0,P|463:318|445:282,1,62.9999980773926,2|0,3:0|0:0,0:0:0:0:
420,257,18542,6,0,P|372:241|291:236,1,125.999996154785,2|10,3:2|3:0,0:0:0:0:
301,179,19185,1,0,0:0:0:0:
311,123,19400,2,0,P|358:138|385:140,1,62.9999980773926,2|0,3:2|0:0,0:0:0:0:
427,142,19828,1,2,3:0:0:0:
448,31,20257,1,2,3:2:0:0:
335,18,20685,1,10,3:0:0:0:
311,123,21114,2,0,P|256:108|234:104,1,62.9999980773926,2|2,3:2|0:3,0:0:0:0:
193,102,21542,1,6,3:2:0:0:
124,192,21971,6,0,P|106:114|98:84,1,94.499997116089,4|2,3:1|0:0,0:0:0:0:
100,18,22614,1,2,0:0:0:0:
100,18,22828,2,0,P|22:36|-8:44,1,94.499997116089,2|2,3:2|0:0,0:0:0:0:
20,123,23471,1,2,0:0:0:0:
20,123,23685,2,0,P|31:173|38:200,2,62.9999980773926,2|2|10,3:2|0:0|3:0,0:0:0:0:
75,111,24328,2,0,P|134:127|209:154,1,125.999996154785,2|2,0:0|0:0,0:0:0:0:
220,199,24971,1,2,3:0:0:0:
220,199,25185,6,0,P|285:201|310:138,1,125.999996154785,2|2,0:0|0:0,0:0:0:0:
304,96,25828,2,0,P|345:86|369:83,1,62.9999980773926,10|0,3:0|0:0,0:0:0:0:
421,72,26257,1,2,3:2:0:0:
479,169,26685,1,2,3:0:0:0:
479,169,26900,6,0,B|433:182|433:182|461:305,1,154.000004699707,4|2,1:0|1:2,0:0:0:0:
471,345,27542,2,0,P|420:354|388:365,1,77.0000023498536,10|8,1:2|1:0,0:0:0:0:
337,381,27971,2,0,P|328:330|317:298,1,77.0000023498536,8|8,1:0|1:0,0:0:0:0:
303,246,28400,1,8,1:0:0:0:
270,124,28828,6,0,P|229:133|204:176,1,70,6|2,3:2|0:3,0:0:0:0:
198,214,29257,1,10,1:2:0:0:
133,327,29685,2,0,P|175:355|226:347,2,105,2|10|10,3:2|0:0|0:0,0:0:0:0:
84,297,30542,2,0,B|62:224|145:234|101:153,1,125.999996154785,2|2,3:2|1:2,0:0:0:0:
81,70,31400,1,14,3:2:0:0:
28,170,31828,1,2,1:2:0:0:
89,183,32042,1,10,0:0:0:0:
130,228,32257,6,0,P|205:207|281:192,1,125.999996154785,2|8,3:2|1:0,0:0:0:0:
307,185,32900,1,0,0:0:0:0:
347,224,33114,2,0,P|422:245|462:253,2,94.499997116089,10|10|8,3:2|0:0|0:0,0:0:0:0:
304,261,33971,6,0,P|313:301|323:327,1,62.9999980773926,2|2,3:2|0:0,0:0:0:0:
333,370,34400,1,8,1:0:0:0:
224,340,34828,2,0,P|215:300|205:274,1,62.9999980773926,2|2,1:2|0:0,0:0:0:0:
188,225,35257,1,2,1:2:0:0:
87,172,35685,5,6,3:2:0:0:
99,46,36114,1,10,1:2:0:0:
215,65,36542,2,0,P|271:47|287:5,2,94.499997116089,2|10|10,3:2|0:0|0:0,0:0:0:0:
174,105,37400,2,0,B|152:171|213:165|180:245,1,125.999996154785,2|10,3:2|1:2,0:0:0:0:
161,337,38257,1,2,3:2:0:0:
268,302,38685,2,0,P|318:289|341:280,1,62.9999980773926,2|10,1:2|0:0,0:0:0:0:
379,309,39114,6,0,P|390:242|400:195,1,94.499997116089,6|2,1:2|1:2,0:0:0:0:
400,130,39757,1,2,3:2:0:0:
400,130,39971,2,0,P|446:133|469:173,2,94.499997116089,8|8|10,1:0|1:0|1:2,0:0:0:0:
348,107,40828,1,4,1:3:0:0:
142,69,41685,6,2,P|135:35|220:58,1,168,2|0,0:3|0:0,0:1:0:0:
259,93,42542,6,0,P|245:162|240:196,1,83.9999974365235,4|2,3:1|0:0,0:0:0:0:
263,239,42971,1,8,1:0:0:0:
252,305,43185,1,2,0:0:0:0:
297,354,43400,2,0,P|365:327|467:304,1,167.999994873047,2|8,3:2|1:0,0:0:0:0:
501,254,44042,1,10,0:0:0:0:
453,205,44257,6,0,P|402:182|395:102,2,125.999996154785,6|2|2,3:2|0:0|0:0,0:0:0:0:
499,155,45114,1,2,3:1:0:0:
450,47,45542,2,0,P|408:58|356:69,1,83.9999974365235,10|10,0:1|0:0,0:0:0:0:
313,87,45971,5,6,3:2:0:0:
254,94,46185,1,10,0:0:0:0:
200,70,46400,1,10,1:2:0:0:
98,10,46828,5,14,3:2:0:0:
105,69,47042,1,2,0:0:0:0:
81,123,47257,1,8,1:0:0:0:
9,236,47685,6,0,B|96:217|81:309|172:276,1,167.999994873047,4|8,3:0|1:2,0:0:0:0:
291,316,48542,2,0,P|285:356|283:371,2,41.9999987182618,8|8|8,1:0|1:0|1:0,0:0:0:0:
348,280,48971,2,0,P|350:259|354:238,2,41.9999987182618,8|8|8,1:0|1:0|1:0,0:0:0:0:
400,321,49400,6,0,P|460:296|470:263,1,83.9999974365235,4|2,3:1|0:0,0:0:0:0:
482,217,49828,2,0,P|457:157|424:147,1,83.9999974365235,8|2,1:0|0:0,0:0:0:0:
376,140,50257,1,2,3:2:0:0:
329,91,50471,1,2,0:0:0:0:
341,25,50685,2,0,P|278:34|244:43,1,83.9999974365235,8|10,1:0|0:0,0:0:0:0:
210,86,51114,6,0,P|157:73|77:56,2,125.999996154785,6|2|2,3:2|0:0|0:0,0:0:0:0:
239,146,51971,1,2,3:1:0:0:
118,205,52400,2,0,P|68:197|14:301,1,167.999994873047,8|6,1:0|3:2,0:0:0:0:
47,338,53042,5,10,0:0:0:0:
114,334,53257,2,0,P|160:341|189:378,1,83.9999974365235,8|2,1:2|0:0,0:0:0:0:
247,342,53685,2,0,P|256:274|266:203,2,125.999996154785,14|8|4,3:2|0:0|3:0,0:0:0:0:
306,373,54542,5,4,1:2:0:0:
358,330,54757,2,0,P|428:315|485:304,1,125.999996154785,2|2,1:0|1:0,0:0:0:0:
482,203,55400,2,2,P|406:204|375:110,1,167.999994873047,6|2,1:2|0:0,0:1:0:0:
279,62,56257,6,2,B|216:88|168:14|168:14|188:86|133:133|123:110|87:175|129:233,1,350,4|0,3:1|0:0,0:1:0:0:
140,265,57542,2,0,P|158:301|139:347,1,70,8|2,1:0|0:0,0:0:0:0:
113,369,57971,2,0,P|61:355|0:338,2,105,2|2|2,3:2|0:0|0:0,0:0:0:0:
152,328,58828,2,0,P|211:300|256:314,1,105,2|2,3:1|0:1,0:0:0:0:
375,365,59685,5,2,3:2:0:0:
430,355,59900,1,10,0:0:0:0:
485,346,60114,1,8,1:0:0:0:
467,235,60542,5,2,3:2:0:0:
412,244,60757,1,2,0:0:0:0:
357,254,60971,1,8,1:0:0:0:
242,201,61400,6,0,B|208:100|322:108|285:6,1,210,0|2,3:0|0:0,0:0:0:0:
229,3,62257,2,8,P|163:21|96:24,1,105,12|8,1:0|3:0,0:0:0:0:
89,113,62900,1,4,3:0:0:0:
89,113,63114,6,0,P|37:114|-7:158,1,105,6|2,3:2|0:1,0:0:0:0:
18,239,63757,1,2,0:0:0:0:
18,239,63971,2,0,P|69:261|78:317,1,105,2|2,3:2|0:1,0:0:0:0:
162,363,64614,1,2,0:0:0:0:
162,363,64828,2,0,P|234:346|292:336,1,105,2|2,3:2|0:1,0:0:0:0:
335,278,65471,2,0,P|371:296|386:341,1,70,2|2,0:0|3:2,0:0:0:0:
499,373,66114,1,8,1:0:0:0:
470,250,66542,6,0,P|446:189|432:99,1,140,2|8,3:2|1:0,0:0:0:0:
447,14,67400,1,8,3:1:0:0:
390,10,67614,2,0,P|349:31|339:70,1,70,8|8,3:1|3:0,0:0:0:0:
326,99,68042,6,2,B|295:135|310:196|310:196|289:137|226:120,1,210,4|0,1:0|1:0,0:1:0:0:
179,97,68900,1,8,1:0:0:0:
123,126,69114,2,0,P|99:89|105:45,1,70,8|8,1:0|1:0,0:0:0:0:
72,8,69542,2,0,P|41:12|13:40,1,70,8|8,1:0|1:0,0:0:0:0:
7,94,69971,6,0,P|21:159|27:206,1,94.499997116089,6|2,3:2|0:0,0:0:0:0:
24,271,70614,1,2,0:0:0:0:
24,271,70828,2,0,P|89:257|136:251,1,94.499997116089,2|2,3:2|0:0,0:0:0:0:
196,294,71471,1,2,0:0:0:0:
196,294,71685,2,0,P|212:245|170:179,1,125.999996154785,2|10,3:2|3:0,0:0:0:0:
125,161,72328,1,2,0:0:0:0:
152,50,72757,1,2,0:0:0:0:
152,50,72971,2,0,P|199:65|231:76,1,62.9999980773926,2|0,3:0|0:0,0:0:0:0:
266,85,73400,5,2,3:2:0:0:
359,21,73828,1,10,3:0:0:0:
423,114,74257,1,2,3:2:0:0:
330,178,74685,1,2,3:0:0:0:
366,285,75114,6,0,P|436:269|497:254,2,125.999996154785,4|4|8,1:2|3:0|1:0,0:0:0:0:
331,330,76185,1,8,3:0:0:0:
285,363,76400,2,0,P|241:348|204:335,1,62.9999980773926,4|8,0:3|1:0,0:0:0:0:
164,327,76828,6,0,P|152:252|113:210,1,105,6|10,3:2|0:0,0:0:0:0:
49,191,77471,1,10,0:2:0:0:
49,191,77685,2,0,P|33:129|64:70,1,105,2|10,3:0|0:0,0:0:0:0:
116,28,78328,1,10,0:0:0:0:
116,28,78542,2,0,P|167:45|206:46,1,70,2|2,3:0|0:0,0:0:0:0:
242,24,78971,1,8,3:1:0:0:
302,6,79185,2,0,P|333:68|322:152,1,140,10|2,0:0|0:0,0:0:0:0:
304,195,79828,1,8,3:1:0:0:
304,195,80042,6,0,P|362:210|450:229,1,140,2|0,0:0|0:0,0:0:0:0:
500,246,80685,2,0,P|490:294|485:334,1,70,8|8,3:1|0:0,0:0:0:0:
480,377,81114,1,2,3:0:0:0:
375,306,81542,2,0,P|322:320|290:330,1,70,8|2,3:1|0:0,0:0:0:0:
189,369,82185,1,2,0:0:0:0:
167,309,82400,2,0,P|156:264|142:226,1,70,8|10,3:1|0:0,0:0:0:0:
171,183,82828,1,6,3:2:0:0:
226,69,83233,2,0,P|271:80|309:94,1,70,0|4,0:0|3:0,0:0:0:0:
334,135,83685,6,0,P|391:133|426:60,1,140,4|0,0:0|0:0,0:0:0:0:
306,27,84542,2,0,P|249:29|214:102,1,140,4|2,0:0|3:0,0:0:0:0:
223,157,85185,6,0,P|132:136|61:118,1,154.000004699707,8|2,1:0|1:2,0:0:0:0:
13,138,85827,2,0,P|28:198|35:232,1,77.0000023498536,10|8,1:2|1:0,0:0:0:0:
49,271,86256,2,0,P|64:331|71:365,1,77.0000023498536,8|8,1:0|1:0,0:0:0:0:
118,379,86685,2,0,P|182:375|218:293,1,154.000004699707,12|0,1:2|0:0,0:0:0:0:
122,199,87542,5,4,1:2:0:0:
224,101,87971,1,4,1:2:0:0:
321,203,88400,1,4,1:2:0:0:
219,301,88827,6,0,P|277:316|305:327,1,70,0|8,3:0|1:0,0:0:0:0:
339,337,89256,2,0,P|397:352|425:363,1,70,0|8,3:0|1:0,0:0:0:0:
458,376,89685,2,0,B|488:299|409:312|442:222,1,140,8|2,1:0|0:0,0:0:0:0:
466,197,90305,1,4,1:3:0:0:
494,148,90512,6,0,P|503:114|488:68,1,70,4|2,3:1|0:0,0:0:0:0:
463,34,90973,1,8,1:0:0:0:
378,107,91401,2,0,P|308:93|266:84,2,105,2|10|10,3:2|0:0|0:0,0:0:0:0:
372,162,92258,6,0,P|364:200|355:238,1,70,2|0,3:2|0:0,0:0:0:0:
345,292,92686,1,10,1:2:0:0:
240,243,93115,2,0,P|226:301|222:322,1,70,2|8,3:2|1:2,0:0:0:0:
211,365,93542,1,8,1:0:0:0:
102,336,93971,5,4,3:1:0:0:
28,233,94400,1,10,1:2:0:0:
86,123,94828,2,0,P|122:84|124:31,2,105,2|10|10,3:2|0:0|0:0,0:0:0:0:
118,168,95685,2,0,B|197:195|182:128|258:151,1,140,2|10,3:2|1:2,0:0:0:0:
355,188,96542,1,2,3:2:0:0:
312,69,96971,5,10,1:2:0:0:
341,13,97185,1,10,0:0:0:0:
406,6,97400,6,0,P|462:9|492:56,1,105,6|10,3:2|0:0,0:0:0:0:
485,132,98042,1,10,0:0:0:0:
485,132,98257,2,0,P|419:146|357:165,2,105,8|8|10,1:0|1:0|0:0,0:0:0:0:
476,187,99114,1,4,3:0:0:0:
309,322,99971,6,2,B|332:348|281:419|197:376|220:339,1,157.500006008148,2|0,0:3|0:0,0:1:0:0:
219,288,100828,6,0,P|229:228|235:188,1,83.9999974365235,4|2,3:1|0:0,0:0:0:0:
212,140,101257,1,8,1:0:0:0:
226,74,101471,1,2,0:0:0:0:
200,12,101685,2,0,P|133:2|72:89,1,167.999994873047,2|8,3:2|1:0,0:0:0:0:
98,134,102328,1,10,0:0:0:0:
121,196,102542,6,0,P|70:206|-5:230,2,125.999996154785,6|2|2,3:2|0:0|0:0,0:0:0:0:
120,263,103400,1,2,3:1:0:0:
215,356,103828,2,0,P|255:345|295:331,1,83.9999974365235,10|8,0:1|0:0,0:0:0:0:
344,299,104257,5,6,3:2:0:0:
372,247,104471,1,10,0:0:0:0:
343,195,104685,1,8,1:0:0:0:
233,152,105114,5,14,3:2:0:0:
205,100,105328,1,2,0:0:0:0:
234,48,105542,1,8,1:0:0:0:
345,9,105971,6,0,P|403:4|411:103,1,167.999994873047,0|8,3:0|1:0,0:0:0:0:
360,195,106828,2,0,P|330:187|308:186,2,41.9999987182618,8|8|8,1:0|1:0|1:0,0:0:0:0:
393,253,107257,2,0,P|423:245|445:244,2,41.9999987182618,8|8|8,1:0|1:0|1:0,0:0:0:0:
357,309,107685,6,0,P|308:320|289:359,1,83.9999974365235,4|2,3:1|0:0,0:0:0:0:
232,379,108114,2,0,P|183:348|185:297,1,83.9999974365235,8|2,1:0|0:0,0:0:0:0:
193,259,108542,1,2,3:2:0:0:
160,199,108757,1,2,0:0:0:0:
94,182,108971,2,0,P|46:195|11:203,1,83.9999974365235,8|10,1:0|0:0,0:0:0:0:
3,135,109400,6,0,P|17:67|63:33,2,125.999996154785,6|10|10,3:2|0:0|0:0,0:0:0:0:
66,158,110257,1,2,3:1:0:0:
154,57,110685,2,0,P|250:45|332:31,1,167.999994873047,8|6,1:0|3:2,0:0:0:0:
387,25,111328,5,10,0:0:0:0:
433,72,111542,1,8,1:0:0:0:
381,196,111971,2,0,P|305:213|244:226,2,125.999996154785,12|8|8,3:2|0:0|0:1,0:0:0:0:
441,226,112828,5,4,3:0:0:0:
441,226,113042,2,0,P|454:290|412:341,1,125.999996154785,2|2,1:0|1:0,0:0:0:0:
325,376,113685,2,2,P|295:297|257:222,1,167.999994873047,4|8,1:2|0:1,0:1:0:0:
177,107,114542,5,4,3:1:0:0:
29,39,121400,5,12,1:2:0:0:
106,103,121828,1,8,1:2:0:0:
130,200,122257,2,0,P|177:216|227:227,2,94.499997116089,8|10|10,1:2|1:2|1:2,0:0:0:0:
104,243,123114,5,8,1:3:0:0:
136,338,123542,1,10,1:2:0:0:
233,364,123971,2,0,P|250:295|253:262,2,94.499997116089,10|10|10,1:2|1:2|1:2,0:0:0:0:
283,369,124828,6,0,P|340:352|371:343,1,62.9999980773926,14|2,1:2|0:0,0:0:0:0:
392,338,125257,1,10,1:2:0:0:
428,244,125685,2,0,P|368:230|317:222,2,94.499997116089,10|10|10,1:2|1:2|1:2,0:0:0:0:
471,217,126542,2,0,P|464:166|459:134,1,62.9999980773926,2|8,1:2|1:2,0:0:0:0:
463,104,126971,2,0,P|421:72|395:53,1,62.9999980773926,10|8,1:2|1:2,0:0:0:0:
378,28,127400,6,0,P|327:35|255:43,2,94.499997116089,10|10|10,1:2|1:2|1:2,0:0:0:0:
256,192,128257,12,4,129971,0:2:0:0:
156,108,130828,5,2,1:2:0:0:
37,142,131257,2,0,P|30:194|55:231,1,77.0000023498536,8|10,1:0|0:0,0:0:0:0:
86,254,131685,2,0,P|145:234|210:217,1,115.50000352478,2|2,3:1|0:1,0:0:0:0:
284,248,132328,1,2,0:1:0:0:
284,248,132542,2,0,P|294:294|280:326,1,77.0000023498536,10|0,3:2|0:0,0:0:0:0:
241,365,132971,1,8,1:0:0:0:
362,346,133400,5,2,3:2:0:0:
421,331,133614,1,2,0:1:0:0:
480,317,133828,1,8,1:0:0:0:
415,212,134257,6,0,P|313:187|282:181,2,115.50000352478,10|10|10,3:2|0:2|3:2,0:2:0:0:
460,170,135114,6,0,P|445:114|430:58,1,115.50000352478,2|2,3:2|0:0,0:0:0:0:
357,10,135757,1,2,0:3:0:0:
357,10,135971,2,0,P|309:48|306:105,2,115.50000352478,2|8|4,3:0|1:0|3:0,0:0:0:0:
414,32,136828,6,0,P|419:88|388:135,1,115.50000352478,6|2,3:2|0:1,0:0:0:0:
306,99,137471,1,0,0:0:0:0:
306,99,137685,2,0,P|255:133|191:123,1,115.50000352478,10|10,3:2|0:1,0:0:0:0:
131,70,138328,1,10,0:0:0:0:
131,70,138542,2,0,P|62:85|-10:98,1,115.50000352478,2|2,3:2|0:1,0:0:0:0:
67,171,139185,6,0,B|111:191|104:255|104:255|58:269|32:320|57:374,1,231.000007049561,2|8,0:1|1:0,0:0:0:0:
113,367,140042,1,2,0:1:0:0:
162,329,140257,1,2,3:1:0:0:
266,264,140685,1,10,1:0:0:0:
354,349,141114,2,0,P|368:302|398:226,1,115.50000352478,10|0,1:0|0:0,0:0:0:0:
468,182,141757,6,2,B|421:144|438:77|438:77|421:145|353:148,1,231.000007049561,6|2,1:0|1:2,0:1:0:0:
301,174,142614,1,8,1:0:0:0:
267,122,142828,2,0,P|221:84|186:82,1,77.0000023498536,8|8,1:0|1:0,0:0:0:0:
166,33,143257,2,0,P|106:38|80:61,1,77.0000023498536,8|4,1:0|3:0,0:0:0:0:
56,96,143685,6,0,P|75:159|86:274,1,154.000004699707,2|2,1:0|0:3,0:0:0:0:
85,246,144542,2,0,P|148:227|263:216,1,154.000004699707,2|2,1:0|0:0,0:0:0:0:
235,216,145400,2,0,P|216:153|205:38,1,154.000004699707,2|2,1:0|0:3,0:0:0:0:
206,66,146257,2,0,P|143:85|28:96,1,154.000004699707,2|2,1:0|0:0,0:0:0:0:
40,218,147114,6,0,P|112:232|170:248,1,115.50000352478,4|2,1:2|1:0,0:0:0:0:
188,334,147757,1,2,1:0:0:0:
188,334,147971,2,0,P|260:348|318:364,1,115.50000352478,4|2,1:2|1:0,0:0:0:0:
381,315,148614,1,2,1:0:0:0:
381,315,148828,2,2,B|478:282|542:133|427:71|355:132|371:198|371:198|347:157|268:172|277:241|311:257,1,503.999984619141,6|0,0:0|0:0,0:1:0:0:
221,365,150542,6,0,P|179:333|126:342,1,90.9999958343508,4|10,3:1|0:0,0:0:0:0:
72,355,150971,1,8,1:0:0:0:
13,312,151185,1,2,0:0:0:0:
38,243,151400,2,0,P|48:172|48:135,1,90.9999958343508,10|2,3:2|0:0,0:0:0:0:
29,82,151828,2,0,P|80:57|117:82,1,90.9999958343508,8|8,1:0|0:0,0:0:0:0:
152,127,152257,6,0,B|218:103|224:163|288:136,2,136.499993751526,6|2|0,3:2|0:0|0:0,0:0:0:0:
128,192,153114,1,2,3:1:0:0:
265,227,153542,2,0,P|278:157|285:127,1,90.9999958343508,10|0,1:0|0:0,0:0:0:0:
335,87,153971,5,6,3:2:0:0:
396,73,154185,1,10,0:0:0:0:
444,114,154400,1,8,1:0:0:0:
502,237,154828,5,14,3:2:0:0:
484,297,155042,1,2,0:0:0:0:
424,318,155257,1,8,1:0:0:0:
305,364,155685,6,0,B|267:328|275:281|275:281|267:331|208:348,1,181.999991668702,4|8,3:2|1:0,0:0:0:0:
75,360,156542,2,0,P|63:297|55:265,1,90.9999958343508,8|8,1:0|1:0,0:0:0:0:
37,200,156971,2,0,P|26:155|18:110,1,90.9999958343508,4|0,3:0|3:0,0:0:0:0:
26,38,157400,6,0,P|70:17|113:38,1,90.9999958343508,4|10,3:1|0:0,0:0:0:0:
144,93,157828,2,0,P|188:114|231:93,1,90.9999958343508,8|2,1:0|0:0,0:0:0:0:
277,48,158257,1,10,3:2:0:0:
349,45,158471,1,2,0:0:0:0:
396,99,158685,2,0,P|406:165|416:204,1,90.9999958343508,8|10,1:0|0:0,0:0:0:0:
462,241,159114,6,0,P|405:248|359:311,2,136.499993751526,6|10|10,3:2|0:0|0:0,0:0:0:0:
481,311,159971,1,2,3:1:0:0:
340,348,160400,2,0,P|286:335|149:306,1,181.999991668702,8|6,1:0|3:2,0:0:0:0:
91,293,161042,5,8,0:0:0:0:
59,227,161257,2,0,P|44:180|69:130,1,90.9999958343508,8|2,1:0|0:0,0:0:0:0:
107,89,161685,2,0,P|96:39|1:22,1,136.499993751526,12|8,1:2|1:2,0:0:0:0:
17,121,162313,1,0,3:0:0:0:
17,121,162520,6,0,P|88:137|133:150,1,115.50000352478,12|6,1:0|1:2,0:0:0:0:
236,124,163161,2,0,P|284:110|325:98,1,77.0000023498536,6|6,1:2|1:2,0:0:0:0:
471,145,163829,5,12,3:1:0:0:
478,294,164251,2,0,P|414:276|377:268,1,90.9999958343508,6|10,3:2|0:0,0:0:0:0:
318,259,164679,1,8,1:0:0:0:
285,194,164893,1,2,0:0:0:0:
309,126,165108,2,0,P|288:78|231:73,1,90.9999958343508,10|2,3:2|0:0,0:0:0:0:
182,77,165536,2,0,P|135:75|112:29,1,90.9999958343508,8|10,1:0|0:0,0:0:0:0:
52,0,165965,6,0,P|11:58|26:130,2,136.499993751526,6|2|0,3:2|0:0|0:0,0:0:0:0:
123,12,166822,1,2,3:1:0:0:
99,155,167251,2,0,P|109:201|120:252,1,90.9999958343508,10|0,1:0|0:0,0:0:0:0:
135,305,167679,5,6,3:2:0:0:
197,319,167893,1,10,0:0:0:0:
259,333,168108,1,8,1:0:0:0:
388,267,168536,5,14,3:2:0:0:
450,253,168751,1,2,0:0:0:0:
512,239,168965,1,8,1:0:0:0:
507,107,169393,6,0,B|538:60|492:-48|390:39|448:74,1,181.999991668702,4|8,3:2|1:0,0:0:0:0:
354,160,170251,2,0,P|299:146|252:133,1,90.9999958343508,8|8,1:0|1:0,0:0:0:0:
224,77,170679,2,0,P|169:63|122:50,1,90.9999958343508,8|12,3:0|3:0,0:0:0:0:
80,25,171108,6,2,B|33:11|-20:75|41:156|94:130|88:119|133:132|131:182,1,231.000007049561,4|0,1:2|0:0,0:1:0:0:
123,227,171965,2,2,P|117:290|178:324,2,115.50000352478,4|0|0,1:2|1:0|1:0,0:1:0:0:
179,201,172822,6,2,P|255:188|303:181,1,115.50000352478,6|6,1:2|1:2,0:1:0:0:
374,256,173465,1,6,1:2:0:0:
374,256,173679,2,0,P|377:308|474:339,1,154.000004699707,0|10,1:0|1:2,0:0:0:0:
498,210,174536,5,10,1:0:0:0:
415,79,174965,1,10,1:0:0:0:
261,94,175393,1,10,1:0:0:0:
197,234,175822,1,10,1:0:0:0:
54,268,176251,1,0,3:0:0:0:
54,268,176465,2,0,P|28:220|49:148,1,115.50000352478,2|2,1:1|1:1,0:0:0:0:
113,104,177108,22,2,B|168:93|198:26|146:-13|120:10|112:41|112:41|94:18|47:27|56:84|113:104,1,280,6|0,1:0|3:0,0:1:0:0:
