osu file format v14

[General]
AudioFilename: audio.mp3
AudioLeadIn: 0
PreviewTime: 41232
Countdown: 0
SampleSet: Soft
StackLeniency: 0.3
Mode: 0
LetterboxInBreaks: 0
WidescreenStoryboard: 1

[Editor]
Bookmarks: 1375,15090,26875,28804,42518,56233,69947,87090,90518,100804,114518,129947,148804,150518,164233,177090,177947
DistanceSpacing: 0.8
BeatDivisor: 8
GridSize: 16
TimelineZoom: 1.8

[Metadata]
Title:Zecchou Sanka
TitleUnicode:絶頂讃歌
Artist:Wanuka
ArtistUnicode:和ぬか
Creator:soncak
Version:Insane
Source:
Tags:orgasm anthem nsfw explicit supav pop japanese jpop j-pop 100回嘔吐 100kaiouto 100kai Outo
BeatmapID:3820630
BeatmapSetID:1850079

[Difficulty]
HPDrainRate:4.6
CircleSize:4
OverallDifficulty:7.7
ApproachRate:9
SliderMultiplier:2.2
SliderTickRate:1

[Events]
//Background and Video events
0,0,"zecchou sanka.png",0,0
Video,0,"anthem.mp4"
//Break Periods
//Storyboard Layer 0 (Background)
//Storyboard Layer 1 (Fail)
//Storyboard Layer 2 (Pass)
//Storyboard Layer 3 (Foreground)
//Storyboard Layer 4 (Overlay)
//Storyboard Sound Samples

[TimingPoints]
1400,428.571428571429,4,2,1,85,1,0
1400,-66.6666666666667,4,2,1,85,0,1
1560,-66.6666666666667,4,2,1,5,0,1
1614,-66.6666666666667,4,2,1,85,0,1
1775,-66.6666666666667,4,2,1,5,0,1
1828,-66.6666666666667,4,2,1,85,0,1
2257,-83.3333333333333,4,2,1,85,0,1
3971,-100,4,2,1,85,0,1
4828,-74.0740740740741,4,2,1,85,0,1
4989,-74.0740740740741,4,2,1,5,0,1
5042,-74.0740740740741,4,2,1,85,0,1
5203,-74.0740740740741,4,2,1,5,0,1
5257,-74.0740740740741,4,2,1,85,0,1
6114,-83.3333333333333,4,2,1,85,0,1
8257,-66.6666666666667,4,2,1,85,0,1
8417,-66.6666666666667,4,2,1,5,0,1
8471,-66.6666666666667,4,2,1,85,0,1
8632,-66.6666666666667,4,2,1,5,0,1
8685,-66.6666666666667,4,2,1,85,0,1
9114,-83.3333333333333,4,2,1,85,0,1
10828,-100,4,2,1,85,0,1
11685,-74.0740740740741,4,2,1,85,0,1
13185,-166.666666666667,4,2,1,85,0,0
13614,-100,4,2,1,70,0,0
13828,-100,4,2,1,70,0,1
14042,-83.3333333333333,4,2,1,75,0,1
14257,-83.3333333333333,4,2,1,80,0,1
14471,-66.6666666666667,4,2,2,85,0,1
14685,-66.6666666666667,4,2,2,90,0,1
15114,-125,4,2,2,60,0,0
20685,-100,4,2,2,60,0,0
21114,-66.6666666666667,4,2,2,60,0,0
21971,-125,4,2,2,60,0,0
26900,-166.666666666667,4,2,1,60,0,0
27328,-100,4,2,1,65,0,0
27757,-80,4,2,1,70,0,0
27971,-80,4,2,2,75,0,0
28185,-66.6666666666667,4,2,2,80,0,0
28400,-200,4,2,2,85,0,0
28828,-100,4,2,1,80,0,0
30328,-100,4,2,1,70,0,0
41685,-100,4,2,1,75,0,1
42435,-100,4,2,1,75,0,0
42542,-60.6060606060606,4,2,1,85,0,1
42703,-60.6060606060606,4,2,1,5,0,1
42757,-60.6060606060606,4,2,1,85,0,1
42917,-60.6060606060606,4,2,1,5,0,1
42971,-60.6060606060606,4,2,1,85,0,1
43185,-83.3333333333333,4,2,1,85,0,1
43400,-66.6666666666667,4,2,1,85,0,1
44257,-83.3333333333333,4,2,1,85,0,1
48542,-83.3333333333333,4,2,2,85,0,1
49400,-60.6060606060606,4,2,1,85,0,1
49560,-60.6060606060606,4,2,1,5,0,1
49614,-60.6060606060606,4,2,1,85,0,1
49775,-60.6060606060606,4,2,1,5,0,1
49828,-60.6060606060606,4,2,1,85,0,1
50257,-66.6666666666667,4,2,1,85,0,1
50685,-83.3333333333333,4,2,1,85,0,1
54114,-83.3333333333333,4,2,2,85,0,1
54542,-100,4,2,1,85,0,0
54757,-74.0740740740741,4,2,1,85,0,1
55828,-100,4,2,1,70,0,0
57542,-83.3333333333333,4,2,1,70,0,0
57703,-83.3333333333333,4,2,1,5,0,0
57757,-83.3333333333333,4,2,1,70,0,0
58828,-66.6666666666667,4,2,1,70,0,0
59685,-83.3333333333333,4,2,1,70,0,0
62257,-83.3333333333333,4,2,2,70,0,0
62578,-83.3333333333333,4,2,1,70,0,0
63114,-74.0740740740741,4,2,1,70,0,0
63971,-83.3333333333333,4,2,1,70,0,0
68042,-133.333333333333,4,2,1,70,0,0
68471,-133.333333333333,4,2,1,70,0,0
68900,-90.9090909090909,4,2,1,70,0,0
69328,-66.6666666666667,4,2,2,70,0,0
69971,-125,4,2,2,60,0,0
75114,-83.3333333333333,4,2,1,70,0,0
75542,-83.3333333333333,4,2,1,60,0,0
75971,-83.3333333333333,4,2,1,75,0,0
76292,-83.3333333333333,4,2,2,75,0,0
76614,-83.3333333333333,4,2,2,60,0,0
76828,-100,4,2,2,65,0,0
82828,405.405405405405,4,2,2,70,1,0
82828,-100,4,2,2,70,0,0
83233,452.830188679245,4,2,2,70,1,0
83685,428.571428571429,4,2,1,70,1,0
83685,-166.666666666667,4,2,1,70,0,0
84542,-100,4,2,1,70,0,0
84970,-80,4,2,1,70,0,0
85185,-80,4,2,2,70,0,0
85613,-100,4,2,1,60,0,0
85827,-100,4,2,1,65,0,0
86042,-83.3333333333333,4,2,1,70,0,0
86256,-83.3333333333333,4,2,2,75,0,0
86470,-66.6666666666667,4,2,2,80,0,0
86685,-100,4,2,2,80,0,0
87542,-66.6666666666667,4,2,1,70,0,1
87970,-74.0740740740741,4,2,1,70,0,1
88399,-90.9090909090909,4,2,1,70,0,1
88827,-66.6666666666667,4,2,1,70,0,0
89256,-83.3333333333333,4,2,1,70,0,0
89577,-83.3333333333333,4,2,2,70,0,0
89685,413.793103448276,4,2,2,70,1,0
89685,-100,4,2,2,70,0,0
89995,-100,4,2,1,70,0,0
90098,-100,4,2,2,70,0,0
90305,-100,4,2,1,70,0,0
90512,461.538461538462,4,2,1,70,1,0
90973,428.571428571429,4,2,1,70,1,0
90973,-83.3333333333333,4,2,1,70,0,0
92258,428.571428571429,4,2,1,70,1,0
92258,-83.3333333333333,4,2,1,70,0,0
93328,-83.3333333333333,4,2,2,70,0,0
93971,428.571428571429,4,2,1,70,1,0
93971,-83.3333333333333,4,2,1,70,0,0
100828,-60.6060606060606,4,2,1,85,0,1
100989,-60.6060606060606,4,2,1,5,0,1
101042,-60.6060606060606,4,2,1,85,0,1
101203,-60.6060606060606,4,2,1,5,0,1
101257,-60.6060606060606,4,2,1,85,0,1
101685,-74.0740740740741,4,2,1,85,0,1
102114,-83.3333333333333,4,2,1,85,0,1
106828,-83.3333333333333,4,2,2,85,0,1
107685,-60.6060606060606,4,2,1,85,0,1
107846,-60.6060606060606,4,2,1,5,0,1
107900,-60.6060606060606,4,2,1,85,0,1
108060,-60.6060606060606,4,2,1,5,0,1
108114,-60.6060606060606,4,2,1,85,0,1
108542,-74.0740740740741,4,2,1,85,0,1
108971,-83.3333333333333,4,2,1,85,0,1
112400,-83.3333333333333,4,2,2,85,0,1
112721,-83.3333333333333,4,2,1,85,0,1
112828,-100,4,2,1,85,0,0
113042,-66.6666666666667,4,2,1,85,0,1
113364,-83.3333333333333,4,2,1,85,0,1
113685,-111.111111111111,4,2,1,85,0,1
114113,-100,4,2,1,85,0,0
114542,-111.111111111111,4,2,2,60,0,0
121400,-100,4,2,2,65,0,0
128257,-100,4,2,1,65,0,0
128685,-100,4,2,1,60,0,0
129114,-100,4,2,1,70,0,0
129542,-100,4,2,2,75,0,0
129971,-83.3333333333333,4,2,1,80,0,0
131257,-83.3333333333333,4,2,1,80,0,0
131417,-55.5555555555556,4,2,1,5,0,0
131471,-66.6666666666667,4,2,1,80,0,0
132542,-66.6666666666667,4,2,2,80,0,0
133185,-83.3333333333333,4,2,1,80,0,0
135971,-66.6666666666667,4,2,1,80,0,0
136185,-66.6666666666667,4,2,2,80,0,0
136828,-66.6666666666667,4,2,1,80,0,0
137685,-74.0740740740741,4,2,1,80,0,0
138328,-133.333333333333,4,2,1,80,0,0
138542,-83.3333333333333,4,2,1,80,0,0
139400,-83.3333333333333,4,2,2,80,0,0
140042,-83.3333333333333,4,2,1,80,0,0
140257,-66.6666666666667,4,2,1,80,0,0
141114,-66.6666666666667,4,2,2,80,0,0
141328,-100,4,2,1,80,0,0
141757,-133.333333333333,4,2,1,60,0,0
142185,-133.333333333333,4,2,1,60,0,0
142400,-133.333333333333,4,2,1,65,0,0
142614,-100,4,2,2,70,0,0
142828,-100,4,2,2,75,0,0
143042,-66.6666666666667,4,2,2,70,0,0
143471,-66.6666666666667,4,2,1,65,0,0
143685,-66.6666666666667,4,2,2,65,0,0
145400,-74.0740740740741,4,2,2,65,0,0
146900,-74.0740740740741,4,2,1,70,0,0
147114,-74.0740740740741,4,2,1,80,0,0
148828,-100,4,2,1,80,0,1
150328,-100,4,2,1,80,0,0
150542,-60.6060606060606,4,2,1,90,0,1
150703,-60.6060606060606,4,2,1,5,0,1
150757,-60.6060606060606,4,2,1,90,0,1
150917,-60.6060606060606,4,2,1,5,0,1
150971,-60.6060606060606,4,2,1,90,0,1
151400,-66.6666666666667,4,2,1,90,0,1
151828,-83.3333333333333,4,2,1,90,0,1
156542,-83.3333333333333,4,2,2,90,0,1
157400,-60.6060606060606,4,2,1,90,0,1
157560,-60.6060606060606,4,2,1,5,0,1
157614,-60.6060606060606,4,2,1,90,0,1
157775,-60.6060606060606,4,2,1,5,0,1
157828,-60.6060606060606,4,2,1,90,0,1
158042,-66.6666666666667,4,2,1,90,0,1
158257,-60.6060606060606,4,2,1,90,0,1
158685,-74.0740740740741,4,2,1,90,0,1
159971,-83.3333333333333,4,2,1,90,0,1
161685,422.535211267606,4,2,1,90,1,1
161685,-83.3333333333333,4,2,1,90,0,1
162107,413.793103448276,4,2,1,80,1,0
162107,-83.3333333333333,4,2,1,80,0,0
162520,408.163265306122,4,2,1,70,1,0
162520,-100,4,2,1,70,0,0
162826,447.761194029851,4,2,1,90,1,0
162826,-66.6666666666667,4,2,1,90,0,1
163161,468.75,4,2,1,90,1,1
163161,-66.6666666666667,4,2,1,90,0,1
163395,-66.6666666666667,4,2,1,90,0,0
163629,400,4,2,1,70,1,0
163729,-100,4,2,1,70,0,0
163829,-66.6666666666667,4,2,1,90,0,1
164251,428.571428571429,4,2,1,90,1,1
164251,-60.6060606060606,4,2,1,90,0,1
164411,-60.6060606060606,4,2,1,5,0,1
164465,-60.6060606060606,4,2,1,90,0,1
164626,-60.6060606060606,4,2,1,5,0,1
164679,-60.6060606060606,4,2,1,90,0,1
165108,-66.6666666666667,4,2,1,90,0,1
165536,-83.3333333333333,4,2,1,90,0,1
166822,-83.3333333333333,4,2,2,90,0,1
167465,-133.333333333333,4,2,2,90,0,1
167679,-83.3333333333333,4,2,1,90,0,1
170251,-83.3333333333333,4,2,2,90,0,1
170572,-83.3333333333333,4,2,1,90,0,1
171108,-133.333333333333,4,2,1,80,0,0
172822,-83.3333333333333,4,2,1,80,0,0
173893,-83.3333333333333,4,2,2,80,0,0
174215,-83.3333333333333,4,2,1,80,0,0
174536,-66.6666666666667,4,2,2,90,0,1
177108,-100,4,2,1,90,0,1
177965,-100,4,2,1,50,0,0

[Colours]
Combo1 : 255,204,51
Combo2 : 132,89,196
Combo3 : 223,139,0
Combo4 : 255,55,181

[HitObjects]
36,363,1400,6,0,P|74:317|130:284,1,123.750004720688,4|0,3:1|0:0,0:0:0:0:
145,285,1614,2,0,P|198:247|213:178,1,123.750004720688,2|0,0:0|0:0,0:0:0:0:
131,194,1828,6,0,P|116:141|82:116,1,82.5000031471254,8|0,1:0|0:0,0:0:0:0:
287,257,2042,2,0,P|335:231|361:186,1,82.5000031471254,2|0,0:0|0:0,0:0:0:0:
206,111,2257,6,0,P|200:63|177:29,1,65.9999979858399,2|0,3:2|0:0,0:0:0:0:
288,142,2471,2,0,P|314:120|332:77,1,65.9999979858399,2|10,0:0|0:0,0:0:0:0:
278,27,2685,6,0,P|318:11|352:18,1,65.9999979858399,8|0,1:0|0:0,0:0:0:0:
328,92,2900,2,0,P|361:118|372:151,1,65.9999979858399,10|0,0:0|0:0,0:0:0:0:
503,48,3114,6,0,P|464:101|448:165,1,131.99999597168,4|0,3:2|0:0,0:0:0:0:
388,223,3435,1,2,0:0:0:0:
379,245,3542,2,0,P|346:219|307:216,1,65.9999979858399,8|0,1:0|0:0,0:0:0:0:
261,153,3757,1,2,0:0:0:0:
313,296,3971,6,0,P|255:308|192:322,1,110,2|0,3:2|0:0,0:0:0:0:
115,368,4292,1,10,0:2:0:0:
124,350,4400,2,0,P|125:316|105:288,1,55,8|0,1:0|0:0,0:0:0:0:
68,234,4614,1,10,0:2:0:0:
204,357,4828,6,0,P|221:310|197:233,1,111.375000424862,6|0,3:2|0:0,0:0:0:0:
197,238,5042,2,0,P|156:216|139:145,1,111.375000424862,2|0,0:0|0:0,0:0:0:0:
68,108,5257,6,0,P|30:74|-11:77,1,74.2500002832413,8|0,1:0|0:0,0:0:0:0:
216,157,5471,2,0,P|237:120|228:77,1,74.2500002832413,2|0,0:0|0:0,0:0:0:0:
326,3,5685,6,0,P|313:60|361:136,1,148.500000566483,6|2,3:2|0:0,0:0:0:0:
506,127,6007,1,8,0:0:0:0:
500,147,6114,2,0,P|472:137|434:142,1,65.9999979858399,8|0,1:0|0:0,0:0:0:0:
388,215,6328,2,0,P|386:250|363:287,1,65.9999979858399,8|0,0:0|0:0,0:0:0:0:
444,380,6542,6,0,B|428:307|386:355|370:271,1,131.99999597168,6|8,3:2|0:0,0:0:0:0:
311,223,6864,1,2,0:0:0:0:
293,210,6971,2,0,P|252:219|223:224,1,65.9999979858399,8|0,1:2|0:0,0:0:0:0:
498,291,7185,1,2,0:0:0:0:
292,305,7400,6,0,P|270:318|234:334,3,43.9999986572266,10|2|2|2,3:2|0:3|0:3|0:3,0:0:0:0:
371,276,7828,1,8,1:0:0:0:
406,228,7935,1,2,1:2:0:0:
409,175,8042,1,10,1:2:0:0:
393,131,8150,1,2,1:2:0:0:
366,101,8257,6,0,P|314:65|230:83,1,123.750004720688,4|0,3:1|0:0,0:0:0:0:
243,84,8471,2,0,P|195:91|141:34,1,123.750004720688,2|0,0:0|0:0,0:0:0:0:
76,0,8685,6,0,P|52:-10|-3:6,1,82.5000031471254,8|0,1:0|0:0,0:0:0:0:
144,161,8900,2,0,P|132:209|148:246,1,82.5000031471254,2|0,0:0|0:0,0:0:0:0:
71,97,9114,6,0,P|29:126|20:166,1,65.9999979858399,2|0,3:2|0:0,0:0:0:0:
153,246,9328,2,0,P|191:266|217:260,1,65.9999979858399,2|8,0:0|0:0,0:0:0:0:
43,261,9542,6,0,P|25:302|30:346,1,65.9999979858399,8|0,1:0|0:0,0:0:0:0:
103,312,9757,2,0,P|129:348|170:365,1,65.9999979858399,8|0,0:0|0:0,0:0:0:0:
262,326,9971,6,0,P|320:305|410:290,1,131.99999597168,6|0,3:2|0:0,0:0:0:0:
461,338,10292,1,2,0:0:0:0:
486,328,10400,2,0,P|510:292|504:255,1,65.9999979858399,8|0,1:0|0:0,0:0:0:0:
365,213,10614,1,2,0:0:0:0:
432,149,10828,6,0,P|371:132|311:130,1,110,2|0,3:2|0:0,0:0:0:0:
249,156,11150,1,10,0:0:0:0:
233,144,11257,2,0,P|228:114|241:83,1,55,8|0,1:0|0:0,0:0:0:0:
354,45,11471,1,10,0:0:0:0:
146,139,11685,6,0,B|135:66|70:103|52:26,1,148.500000566483,2|8,3:2|0:0,0:0:0:0:
146,139,12114,2,0,B|119:70|193:69|170:-5,1,148.500000566483,8|0,1:0|0:0,0:0:0:0:
0,187,12542,6,0,P|27:164|64:158,1,74.2500002832413,8|0,1:2|0:0,0:0:0:0:
223,122,12757,2,0,P|230:182|245:284,1,148.500000566483,8|0,1:0|3:0,0:0:0:0:
429,377,13185,6,0,P|432:357|444:278,1,98.9999969787599,4|0,0:0|0:0,0:0:0:0:
453,259,13614,6,0,P|451:229|421:199,1,55,2|0,1:2|0:0,0:0:0:0:
430,189,13828,2,0,P|403:175|362:186,1,55,2|0,1:2|0:0,0:0:0:0:
366,261,14042,6,0,P|333:278|291:264,1,65.9999979858399,8|0,1:0|0:0,0:0:0:0:
282,294,14257,2,0,P|250:273|241:230,1,65.9999979858399,8|0,1:0|0:0,0:0:0:0:
263,173,14471,6,0,P|234:124|188:115,1,82.5000031471254,8|0,1:0|0:0,0:0:0:0:
112,0,14685,2,0,P|87:32|87:73,1,82.5000031471254,8|0,1:0|0:0,0:0:0:0:
237,44,14900,6,0,P|196:38|161:58,1,82.5000031471254,8|0,1:0|0:0,0:0:0:0:
14,121,15114,6,0,P|54:143|76:223,1,132,4|2,3:2|0:0,0:0:0:0:
21,280,15542,1,10,3:0:0:0:
140,365,15757,1,2,0:0:0:0:
132,354,15971,6,0,P|164:324|248:320,1,132,2|2,3:2|0:0,0:0:0:0:
318,367,16400,1,2,3:0:0:0:
333,365,16614,2,0,P|353:335|352:309,1,44,2|0,0:0|0:0,0:0:0:0:
436,241,16828,5,2,3:2:0:0:
502,290,17042,1,2,0:0:0:0:
512,309,17150,1,2,0:0:0:0:
509,330,17257,1,10,3:0:0:0:
430,322,17471,1,2,0:0:0:0:
358,248,17685,5,0,3:2:0:0:
424,202,17900,2,0,P|451:203|472:221,2,44,0|0|2,0:0|0:0|3:0,0:0:0:0:
436,240,18328,1,0,0:0:0:0:
500,136,18542,6,0,P|474:123|412:122,1,88,2|2,3:2|0:0,0:0:0:0:
349,169,18864,1,2,0:0:0:0:
331,166,18971,2,0,P|325:141|334:162,1,88,10|0,3:0|0:0,0:0:0:0:
265,36,19400,6,0,P|289:19|268:40,1,88,2|0,3:2|0:0,0:0:0:0:
227,110,19721,1,0,0:0:0:0:
213,101,19828,2,0,P|173:91|119:82,1,88,2|0,3:0|0:0,0:0:0:0:
12,125,20257,6,0,P|46:128|95:222,1,132,2|0,3:2|0:0,0:0:0:0:
107,225,20685,2,0,P|166:210|208:111,1,165,10|0,3:0|0:0,0:0:0:0:
213,101,21114,6,0,P|264:90|302:85,1,82.5000031471254,2|0,3:2|0:0,0:0:0:0:
441,62,21328,1,2,0:3:0:0:
363,245,21542,2,0,P|299:231|187:207,1,165.000006294251,6|0,3:2|0:0,0:0:0:0:
484,383,21971,6,0,P|483:344|438:259,1,132,4|2,3:1|0:0,0:0:0:0:
369,227,22400,1,10,3:0:0:0:
431,282,22614,1,2,0:0:0:0:
316,289,22828,6,0,P|290:250|312:160,1,132,2|2,3:2|0:0,0:0:0:0:
368,118,23257,1,2,3:0:0:0:
287,163,23471,1,2,0:0:0:0:
224,8,23685,5,2,3:2:0:0:
198,148,23900,2,0,P|176:126|151:114,1,44,2|2,0:0|0:0,0:0:0:0:
88,86,24114,1,10,3:0:0:0:
128,192,24328,6,0,P|64:199|26:205,1,88,2|0,0:0|3:0,0:0:0:0:
153,317,24757,1,2,0:0:0:0:
148,304,24864,1,0,0:0:0:0:
161,306,24971,1,2,3:0:0:0:
210,375,25185,6,0,P|194:328|214:243,1,132,2|0,0:0|0:0,0:0:0:0:
221,242,25614,2,0,P|263:252|282:257,1,44,2|0,0:0|0:0,0:0:0:0:
346,276,25828,1,10,3:0:0:0:
325,194,26042,1,0,0:0:0:0:
366,267,26257,6,0,P|394:243|406:190,1,88,2|0,3:2|0:0,0:0:0:0:
361,76,26685,2,0,P|365:103|372:132,1,44,2|0,3:0|0:0,0:0:0:0:
512,285,26900,6,0,P|481:286|433:336,1,98.9999969787599,4|0,1:0|0:0,0:0:0:0:
416,384,27328,2,0,P|419:357|423:330,1,55,2|0,1:2|0:0,0:0:0:0:
337,370,27542,2,0,P|340:343|344:316,1,55,10|0,1:2|0:0,0:0:0:0:
333,281,27757,6,0,P|324:231|317:201,1,68.75,8|0,1:0|0:0,0:0:0:0:
468,252,27971,2,0,P|459:202|452:172,1,68.75,8|0,1:0|0:0,0:0:0:0:
421,26,28185,6,0,P|413:92|406:136,1,82.5000031471254,8|0,1:0|0:0,0:0:0:0:
240,8,28400,2,0,P|232:74|225:118,1,82.5000031471254,8|2,1:0|0:0,0:0:0:0:
221,106,28828,6,0,P|166:97|100:133,1,110,6|2,3:2|0:3,0:0:0:0:
66,177,29150,1,0,0:0:0:0:
43,160,29257,2,0,P|34:130|41:98,1,55,10|0,1:2|0:0,0:0:0:0:
124,62,29471,2,0,P|118:104|116:130,1,55,0|8,0:0|0:1,0:0:0:0:
0,230,29685,6,0,P|45:212|74:301,1,165,2|10,3:2|0:0,0:0:0:0:
173,384,30114,1,8,1:0:0:0:
60,312,30328,2,0,P|77:337|109:348,1,55,10|0,0:0|0:0,0:0:0:0:
247,347,30542,6,0,P|259:286|274:173,1,165,2|0,3:2|0:0,0:0:0:0:
271,108,30971,1,2,1:2:0:0:
286,85,31078,1,0,0:0:0:0:
274,54,31185,1,0,0:0:0:0:
292,20,31292,1,0,0:0:0:0:
335,12,31400,6,0,B|422:2|390:96|479:79,1,165,14|10,3:2|0:0,0:0:0:0:
348,144,31828,1,2,1:2:0:0:
484,89,32042,2,0,P|474:126|470:162,1,55,10|0,0:0|0:0,0:0:0:0:
445,234,32257,5,2,3:2:0:0:
414,221,32364,1,2,0:0:0:0:
375,226,32471,1,10,0:2:0:0:
343,256,32578,1,2,0:0:0:0:
331,303,32685,2,0,P|310:339|240:343,1,110,8|0,1:0|0:0,0:0:0:0:
136,157,33114,5,10,3:2:0:0:
167,144,33221,1,2,0:0:0:0:
206,149,33328,1,2,0:0:0:0:
238,179,33435,1,10,0:0:0:0:
250,226,33542,2,0,P|236:257|202:270,1,55,8|0,1:0|0:0,0:0:0:0:
99,231,33757,1,8,0:0:0:0:
166,335,33971,5,2,3:2:0:0:
16,380,34185,1,8,0:0:0:0:
152,320,34400,1,8,1:0:0:0:
62,298,34614,6,0,P|75:252|80:227,1,55,0|2,0:0|0:0,0:0:0:0:
11,117,34828,2,0,P|44:151|63:168,1,55,2|0,1:2|0:0,0:0:0:0:
193,163,35042,1,2,0:0:0:0:
166,169,35149,1,8,1:2:0:0:
139,176,35256,1,2,1:2:0:0:
113,91,35471,1,8,1:0:0:0:
231,21,35685,6,0,P|290:44|342:63,1,110,6|2,3:2|0:3,0:0:0:0:
400,109,36007,1,0,0:0:0:0:
421,85,36114,2,0,P|415:51|407:17,1,55,10|0,1:2|0:0,0:0:0:0:
512,11,36328,2,0,P|502:53|500:75,1,55,0|0,0:0|0:0,0:0:0:0:
485,157,36542,6,0,B|473:185|474:214|474:214|458:191|424:181,1,110,2|0,3:2|0:0,0:0:0:0:
353,184,36864,1,10,0:0:0:0:
333,174,36971,1,8,1:0:0:0:
402,260,37185,1,10,0:0:0:0:
301,384,37400,6,0,P|296:315|259:213,1,165,2|0,3:2|0:0,0:0:0:0:
261,145,37828,1,10,1:2:0:0:
243,110,37935,1,0,0:0:0:0:
252,67,38042,1,2,0:0:0:0:
235,19,38150,1,2,0:0:0:0:
185,18,38257,6,0,P|123:30|112:94,1,110,2|0,3:2|0:0,0:0:0:0:
101,156,38578,1,8,0:0:0:0:
123,161,38685,2,0,P|151:140|182:119,1,55,2|0,1:2|0:0,0:0:0:0:
261,145,38900,1,10,0:0:0:0:
265,292,39114,6,0,P|279:246|285:219,1,55,6|0,1:2|0:0,0:0:0:0:
364,245,39328,1,8,0:0:0:0:
369,224,39435,2,0,P|346:181|331:158,1,55,2|8,1:2|0:0,0:0:0:0:
407,122,39650,1,0,0:0:0:0:
395,103,39757,2,0,P|349:89|321:83,1,55,2|0,3:2|0:0,0:0:0:0:
168,43,39971,6,0,P|204:49|253:113,1,110,8|0,1:0|0:0,0:0:0:0:
292,9,40292,2,0,P|255:49|251:103,1,110,8|0,1:0|0:0,0:0:0:0:
257,125,40614,2,0,P|266:157|259:187,1,55,10|0,1:2|0:0,0:0:0:0:
237,253,40828,1,4,1:3:0:0:
29,338,41685,6,0,P|24:324|34:333,11,36.6666666666667,2|2|2|2|2|2|2|2|2|2|2|2,0:3|0:3|0:3|0:3|0:3|0:3|0:3|0:3|0:3|0:3|0:3|0:3,0:0:0:0:
101,374,42542,6,0,P|118:312|80:237,1,136.125001298189,4|0,3:1|0:0,0:0:0:0:
90,229,42757,2,0,P|62:184|90:105,1,136.125001298189,2|0,0:0|0:0,0:0:0:0:
109,101,42971,2,0,P|138:66|128:7,1,90.7500008654595,8|0,1:0|0:0,0:0:0:0:
11,2,43185,2,0,P|43:10|59:38,1,65.9999979858399,2|2,0:0|0:0,0:0:0:0:
178,152,43400,6,0,P|231:136|300:45,1,165.000006294251,2|0,3:2|0:0,0:0:0:0:
396,19,43721,1,8,0:0:0:0:
475,44,43828,2,0,P|496:82|484:125,1,82.5000031471254,8|0,1:0|0:0,0:0:0:0:
488,118,44042,2,0,P|467:80|479:37,1,82.5000031471254,10|0,0:0|0:0,0:0:0:0:
295,135,44257,6,0,P|368:150|429:168,1,131.99999597168,6|0,3:2|0:0,0:0:0:0:
447,187,44578,1,2,0:0:0:0:
439,264,44685,2,0,P|407:260|384:236,1,65.9999979858399,8|0,1:0|0:0,0:0:0:0:
375,59,44900,1,2,0:0:0:0:
295,135,45114,6,0,P|222:120|161:102,1,131.99999597168,2|0,3:1|0:0,0:0:0:0:
143,83,45435,1,10,0:1:0:0:
96,156,45542,2,0,P|51:127|81:50,1,131.99999597168,8|10,1:0|0:0,0:0:0:0:
12,253,45971,5,6,3:2:0:0:
42,240,46078,1,2,0:0:0:0:
80,246,46185,1,10,0:0:0:0:
122,229,46292,1,2,0:0:0:0:
174,239,46400,2,0,P|235:226|262:217,1,65.9999979858399,10|0,1:2|0:0,0:0:0:0:
240,140,46614,2,0,P|207:145|175:154,1,65.9999979858399,0|0,0:0|0:0,0:0:0:0:
222,324,46828,5,14,3:2:0:0:
252,337,46935,1,2,0:0:0:0:
290,331,47042,1,2,0:0:0:0:
332,348,47149,1,10,0:0:0:0:
384,338,47257,2,0,P|445:351|522:371,1,131.99999597168,8|8,1:0|0:0,0:0:0:0:
496,283,47578,1,0,0:0:0:0:
472,277,47685,5,4,3:0:0:0:
300,169,47900,2,0,P|342:177|371:183,1,65.9999979858399,8|0,0:0|0:0,0:0:0:0:
446,195,48114,1,8,1:2:0:0:
387,265,48328,1,0,0:0:0:0:
266,15,48542,5,8,1:0:0:0:
277,66,48650,1,8,1:0:0:0:
288,117,48757,1,8,1:0:0:0:
156,160,48971,5,8,1:0:0:0:
141,95,49078,1,8,1:0:0:0:
126,30,49185,1,8,1:0:0:0:
119,18,49400,6,0,P|59:12|24:76,1,136.125001298189,4|0,3:1|0:0,0:0:0:0:
5,79,49614,2,0,P|29:133|102:132,1,136.125001298189,2|0,0:0|0:0,0:0:0:0:
109,153,49828,2,0,P|164:133|213:120,1,90.7500008654595,8|0,1:0|0:0,0:0:0:0:
300,169,50042,2,0,P|309:217|251:240,1,90.7500008654595,2|0,0:0|0:0,0:0:0:0:
109,316,50257,6,0,P|107:262|207:240,1,165.000006294251,2|2,3:2|0:0,0:0:0:0:
232,312,50578,1,10,0:0:0:0:
215,319,50685,2,0,P|210:355|204:395,1,65.9999979858399,8|0,1:0|0:0,0:0:0:0:
280,241,50900,2,0,P|312:236|345:231,1,65.9999979858399,10|0,0:0|0:0,0:0:0:0:
422,359,51114,6,0,P|419:295|448:224,1,131.99999597168,6|0,3:2|0:0,0:0:0:0:
460,226,51435,1,2,0:0:0:0:
510,153,51542,2,0,P|513:119|487:84,1,65.9999979858399,8|0,1:0|0:0,0:0:0:0:
428,149,51757,2,0,P|400:129|356:134,1,65.9999979858399,2|0,0:0|0:0,0:0:0:0:
328,30,51971,6,0,P|309:71|221:84,1,131.99999597168,2|0,3:1|0:0,0:0:0:0:
25,219,52400,2,0,P|14:153|-7:68,1,131.99999597168,8|10,1:0|0:0,0:0:0:0:
99,168,52721,1,0,0:0:0:0:
99,147,52828,6,0,P|91:110|81:71,1,65.9999979858399,6|2,3:2|0:0,0:0:0:0:
164,64,53042,2,0,P|171:96|177:128,1,65.9999979858399,10|2,0:0|0:0,0:0:0:0:
101,255,53257,2,0,B|179:267|130:331|216:332,1,131.99999597168,8|2,1:2|0:0,0:0:0:0:
269,376,53578,1,0,0:0:0:0:
291,328,53685,5,14,3:2:0:0:
328,301,53792,1,0,0:0:0:0:
367,297,53900,2,0,P|379:270|375:241,2,43.9999986572266,2|2|2,0:3|0:3|0:3,0:0:0:0:
400,175,54114,2,0,P|450:207|458:246,1,65.9999979858399,8|8,1:0|1:0,0:0:0:0:
509,272,54328,1,4,3:0:0:0:
269,376,54542,1,4,1:2:0:0:
248,296,54757,6,0,P|219:248|245:164,1,148.500000566483,2|0,1:0|0:0,0:0:0:0:
334,127,55078,2,0,P|314:185|244:163,1,148.500000566483,2|0,1:0|0:0,0:0:0:0:
244,163,55400,2,0,P|254:103|262:2,1,148.500000566483,6|0,1:2|0:0,0:0:0:0:
86,46,55828,5,2,0:0:0:0:
98,42,55935,1,2,0:0:0:0:
98,30,56042,1,2,0:0:0:0:
86,28,56150,1,2,0:0:0:0:
80,36,56257,6,2,B|67:21|47:13|47:13|137:12|149:118|149:118|76:147|133:236|3:242|3:242|43:206|-13:158|68:88|120:126,1,605,6|0,3:1|0:0,0:1:0:0:
180,191,57542,2,0,P|235:190|279:138,1,98.9999969787599,8|0,1:0|0:0,0:0:0:0:
305,117,57757,2,0,P|265:134|259:171,1,65.9999979858399,2|0,0:0|0:0,0:0:0:0:
294,248,57971,6,0,B|360:260|326:317|400:330,1,131.99999597168,2|10,3:2|0:0,0:0:0:0:
414,347,58292,2,0,P|431:287|493:275,1,131.99999597168,2|0,0:0|0:0,0:0:0:0:
497,357,58614,1,2,0:0:0:0:
506,175,58828,6,0,B|469:157|469:106|469:106|460:155|416:171,1,165.000006294251,2|0,3:1|0:0,0:0:0:0:
348,212,59150,1,2,0:1:0:0:
341,184,59257,2,0,P|317:166|261:166,2,82.5000031471254,8|2|0,1:0|0:0|0:0,0:0:0:0:
260,244,59685,5,2,3:2:0:0:
227,247,59792,1,2,0:0:0:0:
191,265,59900,1,10,0:0:0:0:
162,300,60007,1,2,0:0:0:0:
141,348,60114,2,0,P|97:381|27:357,1,131.99999597168,8|0,1:0|0:0,0:0:0:0:
2,242,60542,5,2,3:2:0:0:
30,258,60650,1,2,0:0:0:0:
69,255,60757,1,2,0:0:0:0:
108,230,60864,1,2,0:0:0:0:
123,179,60971,2,0,P|114:135|79:109,1,65.9999979858399,8|0,1:0|0:0,0:0:0:0:
198,82,61185,1,0,0:0:0:0:
197,207,61400,6,0,B|212:132|269:177|273:86,1,131.99999597168,0|10,3:0|0:0,0:0:0:0:
245,2,61721,1,0,0:0:0:0:
266,13,61828,2,0,P|274:50|284:85,1,65.9999979858399,8|0,1:0|0:0,0:0:0:0:
346,127,62042,1,2,0:0:0:0:
512,41,62257,5,8,1:0:0:0:
502,17,62364,2,0,P|467:16|413:91,1,131.99999597168,0|8,3:0|3:0,0:0:0:0:
347,140,62685,2,0,P|387:166|390:200,2,65.9999979858399,8|0|4,3:0|0:0|3:0,0:0:0:0:
512,210,63114,6,0,B|430:227|476:252|368:269,1,148.500000566483,6|0,3:2|0:0,0:0:0:0:
311,219,63435,1,2,0:1:0:0:
290,213,63542,2,0,P|270:249|292:301,1,74.2500002832413,8|0,1:0|0:0,0:0:0:0:
335,339,63757,1,2,0:0:0:0:
306,197,63971,6,0,B|237:181|279:144|183:131,1,131.99999597168,2|0,3:2|0:0,0:0:0:0:
114,143,64292,1,2,0:1:0:0:
104,122,64400,2,0,P|110:93|149:74,1,65.9999979858399,8|0,1:0|0:0,0:0:0:0:
193,153,64614,1,2,0:0:0:0:
64,232,64828,6,0,P|16:243|-22:253,1,65.9999979858399,2|0,3:2|0:0,0:0:0:0:
131,285,65042,1,10,0:0:0:0:
159,293,65150,1,2,0:1:0:0:
125,302,65257,1,8,1:0:0:0:
153,310,65365,1,2,0:0:0:0:
135,321,65471,2,0,P|145:360|173:381,1,65.9999979858399,2|0,0:0|0:0,0:0:0:0:
240,292,65685,6,0,P|233:244|161:209,1,131.99999597168,2|0,3:2|0:0,0:0:0:0:
356,343,66114,1,8,1:0:0:0:
356,326,66221,1,2,0:0:0:0:
370,334,66328,1,0,0:0:0:0:
512,257,66542,6,0,B|474:225|484:167|484:167|472:225|421:242,1,197.99999395752,2|0,3:2|0:0,0:0:0:0:
416,256,66971,2,0,B|344:245|384:200|306:192,1,131.99999597168,8|0,1:0|0:0,0:0:0:0:
235,143,67292,5,0,0:0:0:0:
216,132,67400,2,0,P|197:92|213:53,1,65.9999979858399,8|0,3:1|0:0,0:0:0:0:
204,216,67614,2,0,P|162:201|146:162,1,65.9999979858399,8|0,3:1|0:0,0:0:0:0:
254,283,67828,2,0,P|214:302|175:286,1,65.9999979858399,8|0,3:0|0:0,0:0:0:0:
0,318,68042,6,0,P|38:300|126:271,1,123.750004720688,4|0,1:0|0:0,0:0:0:0:
127,258,68471,6,0,P|133:226|137:207,1,41.2500015735627,0|0,1:0|0:0,0:0:0:0:
175,151,68685,2,0,P|155:177|143:192,1,41.2500015735627,0|0,1:0|0:0,0:0:0:0:
57,233,68900,6,0,P|85:218|115:201,1,60.5000018463135,8|0,1:0|0:0,0:0:0:0:
248,195,69114,2,0,P|215:195|181:197,1,60.5000018463135,8|0,1:0|0:0,0:0:0:0:
49,96,69328,6,0,P|78:109|125:129,1,82.5000031471254,8|0,1:0|0:0,0:0:0:0:
216,334,69542,2,0,P|195:308|161:270,1,82.5000031471254,8|0,1:0|0:0,0:0:0:0:
182,40,69757,6,0,P|189:71|202:120,1,82.5000031471254,8|0,1:0|0:0,0:0:0:0:
282,278,69971,6,0,P|318:270|398:204,1,132,6|2,3:2|0:0,0:0:0:0:
512,178,70400,1,10,3:0:0:0:
437,140,70614,1,2,0:0:0:0:
448,127,70828,6,0,P|422:94|400:0,1,132,2|2,3:2|0:0,0:0:0:0:
284,16,71257,1,2,3:0:0:0:
334,96,71471,1,2,0:0:0:0:
278,31,71685,6,0,P|243:26|223:13,1,44,2|0,3:2|0:0,0:0:0:0:
143,14,71900,1,2,0:0:0:0:
143,0,72007,1,2,0:0:0:0:
154,7,72114,1,10,3:0:0:0:
221,103,72328,1,2,0:0:0:0:
135,97,72542,5,0,3:0:0:0:
63,181,72757,2,0,P|44:193|16:192,2,44,2|0|2,0:0|0:0|3:0,0:0:0:0:
51,90,73185,1,0,0:0:0:0:
82,167,73400,6,0,P|103:209|96:254,1,88,2|2,3:2|0:0,0:0:0:0:
9,329,73721,1,0,0:0:0:0:
8,304,73828,2,0,P|34:281|91:280,1,88,10|0,3:0|0:0,0:0:0:0:
192,384,74257,6,0,P|183:343|171:289,1,88,2|0,3:2|0:0,0:0:0:0:
241,244,74578,1,0,0:0:0:0:
256,255,74685,2,0,P|265:214|277:160,1,88,2|0,3:0|0:0,0:0:0:0:
472,38,75114,6,0,P|428:22|365:88,1,131.99999597168,4|0,1:2|0:0,0:0:0:0:
412,173,75435,1,0,1:0:0:0:
483,141,75542,6,0,P|432:125|282:87,1,197.99999395752,4|0,3:0|0:0,0:0:0:0:
270,92,75971,2,0,P|243:62|236:20,1,65.9999979858399,8|0,1:0|0:0,0:0:0:0:
125,13,76185,5,8,3:0:0:0:
71,14,76293,1,8,0:1:0:0:
49,39,76400,1,4,0:3:0:0:
171,110,76614,2,0,P|133:97|97:89,1,65.9999979858399,8|0,1:0|0:0,0:0:0:0:
15,244,76828,6,0,P|41:205|29:122,1,110,6|0,3:2|0:0,0:0:0:0:
127,192,77150,1,10,0:0:0:0:
142,171,77257,2,0,P|137:138|108:113,1,55,8|0,3:1|0:0,0:0:0:0:
195,74,77471,1,10,0:0:0:0:
277,126,77685,6,0,P|282:70|330:28,1,110,2|0,3:0|0:0,0:0:0:0:
357,109,78007,1,10,0:0:0:0:
379,100,78114,2,0,P|406:104|433:134,1,55,8|0,3:1|0:0,0:0:0:0:
381,189,78328,1,10,0:0:0:0:
501,204,78542,6,0,P|446:212|394:255,1,110,2|2,3:0|0:0,0:0:0:0:
395,268,78864,1,10,0:0:0:0:
340,328,78971,2,0,P|320:303|315:264,1,55,8|0,3:1|0:0,0:0:0:0:
283,163,79185,2,0,P|247:207|239:268,1,110,10|2,0:0|3:0,0:0:0:0:
160,384,79614,1,2,0:0:0:0:
160,370,79721,1,2,0:0:0:0:
171,377,79828,5,8,3:1:0:0:
206,293,80042,2,0,B|120:284|159:365|58:349,1,165,2|0,0:0|0:0,0:0:0:0:
49,360,80471,2,0,P|40:315|30:294,1,55,0|8,0:0|0:0,0:0:0:0:
0,233,80685,1,8,3:1:0:0:
120,284,80900,1,8,0:0:0:0:
80,199,81114,6,0,P|76:153|170:89,1,165,2|2,3:0|0:0,0:0:0:0:
183,85,81542,2,0,P|203:48|196:17,1,55,8|0,3:1|0:0,0:0:0:0:
159,171,81757,2,0,P|207:173|256:124,1,110,2|2,0:0|3:0,0:0:0:0:
322,25,82185,5,2,0:0:0:0:
322,11,82292,1,10,0:0:0:0:
333,18,82400,1,8,3:1:0:0:
330,102,82614,2,0,P|335:131|342:167,1,55,10|8,0:0|0:1,0:0:0:0:
504,320,82828,6,0,P|501:280|436:241,1,110,6|8,3:2|0:1,0:0:0:0:
371,248,83132,1,8,0:1:0:0:
364,228,83233,2,0,P|375:195|404:177,1,55,0|4,0:0|0:3,0:0:0:0:
321,308,83459,2,0,P|298:281|297:247,1,55,4|4,3:0|3:0,0:0:0:0:
73,305,83685,6,0,P|72:251|216:192,1,230.99999295044,4|0,0:0|0:0,0:0:0:0:
290,185,84542,2,0,P|302:156|287:114,1,55,4|0,0:0|0:0,0:0:0:0:
208,271,84757,2,0,P|205:287|195:316,2,36.6666666666667,2|2|2,3:0|3:0|3:0,0:0:0:0:
205,324,84970,6,0,P|250:359|289:353,1,68.75,2|0,3:0|0:0,0:0:0:0:
419,237,85185,2,0,P|353:249|320:307,1,137.5,8|0,1:0|0:0,0:0:0:0:
498,373,85613,6,0,P|456:382|427:388,1,55,2|0,1:2|0:0,0:0:0:0:
483,302,85827,2,0,P|441:311|412:317,1,55,10|0,1:2|0:0,0:0:0:0:
278,281,86042,6,0,P|311:287|344:292,1,65.9999979858399,8|0,1:0|0:0,0:0:0:0:
270,191,86256,2,0,P|302:196|335:201,1,65.9999979858399,8|0,1:0|0:0,0:0:0:0:
509,123,86470,6,0,P|455:135|412:149,1,82.5000031471254,8|0,1:0|0:0,0:0:0:0:
494,3,86685,2,0,P|435:15|329:42,1,165,12|0,1:2|0:0,0:0:0:0:
312,47,87113,1,0,0:0:0:0:
312,47,87542,6,0,P|280:14|225:135,1,247.500009441376,4|0,1:2|0:0,0:0:0:0:
229,150,87970,6,0,P|286:128|296:245,1,222.750000849724,4|0,1:2|0:0,0:0:0:0:
279,254,88399,6,0,P|238:246|241:351,1,181.500005538941,4|0,1:2|0:0,0:0:0:0:
250,365,88827,5,0,3:0:0:0:
321,324,88935,1,8,1:0:0:0:
349,335,89042,2,0,P|384:329|432:322,1,82.5000031471254,8|8,1:0|1:0,0:0:0:0:
360,209,89256,5,0,3:0:0:0:
306,178,89363,1,8,1:0:0:0:
278,191,89470,2,0,P|248:185|203:179,1,65.9999979858399,8|0,1:0|1:0,0:0:0:0:
270,62,89685,5,8,1:0:0:0:
315,30,89788,1,8,1:0:0:0:
361,48,89891,1,8,1:0:0:0:
400,28,89995,1,4,1:2:0:0:
436,38,90098,2,0,P|469:34|498:29,1,55,2|0,0:0|0:0,0:0:0:0:
502,107,90305,2,0,P|474:111|447:114,1,55,4|4,1:3|1:3,0:0:0:0:
258,158,90512,5,4,3:1:0:0:
284,138,90627,1,2,0:0:0:0:
323,134,90742,1,2,0:0:0:0:
365,151,90858,1,2,0:0:0:0:
397,192,90973,2,0,P|404:248|392:270,1,65.9999979858399,8|0,1:0|0:0,0:0:0:0:
240,252,91187,1,0,0:0:0:0:
218,88,91401,5,2,3:2:0:0:
194,65,91508,1,2,0:0:0:0:
155,58,91614,1,2,0:0:0:0:
111,74,91723,1,2,0:0:0:0:
81,117,91830,2,0,P|74:171|134:222,1,131.99999597168,8|2,1:0|0:0,0:0:0:0:
250,240,92258,5,2,3:2:0:0:
106,301,92472,1,2,0:0:0:0:
255,258,92686,1,10,1:2:0:0:
282,384,92900,6,0,P|284:356|314:322,1,65.9999979858399,0|8,0:0|0:0,0:0:0:0:
337,248,93115,2,0,P|362:235|406:244,1,65.9999979858399,2|0,3:2|0:0,0:0:0:0:
476,285,93329,1,8,1:2:0:0:
407,340,93543,1,8,1:0:0:0:
388,336,93650,1,8,1:0:0:0:
401,321,93757,1,8,1:0:0:0:
472,184,93971,6,0,P|410:160|347:141,1,131.99999597168,4|2,3:1|0:3,0:0:0:0:
274,181,94292,1,2,0:0:0:0:
262,156,94400,2,0,P|269:123|273:91,1,65.9999979858399,8|0,1:2|0:1,0:0:0:0:
248,8,94614,2,0,P|207:28|176:37,1,65.9999979858399,0|8,0:0|1:0,0:0:0:0:
15,66,94828,6,0,P|65:46|120:158,1,197.99999395752,2|10,3:2|0:0,0:0:0:0:
8,204,95257,1,0,1:0:0:0:
110,168,95471,2,0,P|103:213|100:239,1,65.9999979858399,10|0,0:0|0:0,0:0:0:0:
245,384,95685,6,0,P|239:328|196:192,1,197.99999395752,2|0,3:2|0:0,0:0:0:0:
212,163,96114,1,10,1:2:0:0:
202,124,96221,1,2,0:0:0:0:
221,82,96328,1,2,0:0:0:0:
203,32,96435,1,2,0:0:0:0:
254,3,96542,6,0,P|312:11|333:75,1,131.99999597168,2|0,3:2|0:0,0:0:0:0:
362,158,96864,1,8,0:0:0:0:
380,148,96971,2,0,P|412:124|416:89,1,65.9999979858399,2|0,1:2|0:0,0:0:0:0:
488,56,97185,1,10,0:0:0:0:
512,198,97400,6,0,P|453:211|430:221,1,65.9999979858399,6|0,3:2|0:0,0:0:0:0:
313,247,97614,1,10,0:0:0:0:
313,230,97721,1,2,0:0:0:0:
327,238,97828,2,0,P|332:274|314:304,1,65.9999979858399,8|0,1:0|0:0,0:0:0:0:
226,289,98042,2,0,P|221:253|239:223,1,65.9999979858399,2|0,0:0|0:0,0:0:0:0:
289,134,98257,6,0,P|241:109|211:41,1,131.99999597168,8|0,1:0|0:0,0:0:0:0:
159,150,98578,2,0,P|204:103|210:39,1,131.99999597168,8|0,1:0|0:0,0:0:0:0:
210,39,98900,2,0,P|198:9|156:0,1,65.9999979858399,10|0,0:0|0:0,0:0:0:0:
35,180,99114,1,4,3:0:0:0:
230,349,99971,6,0,P|229:337|234:351,5,43.9999986572266,2|2|2|2|2|2,0:3|0:3|0:3|0:3|0:3|0:3,0:0:0:0:
244,375,100400,6,0,P|259:332|237:296,1,65.9999979858399,8|0,3:0|0:0,0:0:0:0:
206,247,100614,2,0,P|191:204|212:168,1,65.9999979858399,4|0,3:0|0:0,0:0:0:0:
239,29,100828,6,0,P|295:22|338:94,1,136.125001298189,4|0,3:1|0:0,0:0:0:0:
336,98,101042,2,0,P|380:152|454:158,1,136.125001298189,2|0,0:0|0:0,0:0:0:0:
464,157,101257,2,0,P|492:120|484:70,1,90.7500008654595,8|0,1:0|0:0,0:0:0:0:
279,173,101471,2,0,P|273:219|305:258,1,90.7500008654595,2|2,0:0|0:0,0:0:0:0:
474,237,101685,6,0,P|496:273|483:322,1,74.2500002832413,2|0,3:2|0:0,0:0:0:0:
366,345,101900,2,0,P|398:327|414:294,1,74.2500002832413,0|8,0:0|0:0,0:0:0:0:
442,161,102114,2,0,P|442:124|418:97,1,65.9999979858399,8|0,1:0|0:0,0:0:0:0:
425,101,102328,2,0,P|424:137|448:164,1,65.9999979858399,10|0,0:0|0:0,0:0:0:0:
357,204,102542,6,0,P|298:188|210:162,1,131.99999597168,6|0,3:2|0:0,0:0:0:0:
208,177,102864,1,2,0:0:0:0:
181,101,102971,2,0,P|208:83|241:84,1,65.9999979858399,8|0,1:0|0:0,0:0:0:0:
246,253,103185,1,2,0:0:0:0:
17,281,103400,6,0,P|68:266|162:238,1,131.99999597168,2|0,3:1|0:0,0:0:0:0:
165,248,103721,1,10,0:1:0:0:
93,169,103828,2,0,P|100:136|106:99,1,65.9999979858399,8|0,1:0|0:0,0:0:0:0:
29,91,104042,2,0,P|22:123|16:155,1,65.9999979858399,8|0,0:0|0:0,0:0:0:0:
147,337,104257,5,6,3:2:0:0:
185,346,104364,1,2,0:0:0:0:
220,316,104471,1,10,0:0:0:0:
271,328,104578,1,2,0:0:0:0:
313,286,104685,2,0,P|365:271|391:290,1,65.9999979858399,8|0,1:0|0:0,0:0:0:0:
409,351,104900,2,0,P|461:366|487:347,1,65.9999979858399,0|0,0:0|0:0,0:0:0:0:
485,139,105114,5,14,3:2:0:0:
447,130,105221,1,2,0:0:0:0:
412,160,105328,1,2,0:0:0:0:
361,148,105435,1,10,0:0:0:0:
319,190,105542,2,0,P|279:201|225:125,1,131.99999597168,8|8,1:0|0:0,0:0:0:0:
271,48,105864,1,0,0:0:0:0:
283,83,105971,5,0,3:0:0:0:
185,5,106185,2,0,P|181:42|169:75,1,65.9999979858399,10|2,0:0|0:0,0:0:0:0:
114,127,106400,1,8,1:0:0:0:
96,0,106614,1,2,0:0:0:0:
0,160,106828,5,8,1:0:0:0:
41,127,106935,1,8,1:0:0:0:
90,145,107042,1,8,1:0:0:0:
180,253,107257,5,8,1:0:0:0:
225,300,107364,1,8,1:0:0:0:
289,288,107471,1,8,1:0:0:0:
316,373,107685,6,0,P|320:310|375:257,1,136.125001298189,4|0,3:1|0:0,0:0:0:0:
388,263,107900,2,0,P|430:235|443:137,1,136.125001298189,2|0,0:0|0:0,0:0:0:0:
427,82,108114,2,0,P|432:49|478:12,1,90.7500008654595,8|0,1:0|0:0,0:0:0:0:
247,175,108328,2,0,P|215:162|189:110,1,90.7500008654595,2|0,0:0|0:0,0:0:0:0:
371,174,108542,6,0,P|346:140|295:135,1,74.2500002832413,2|0,3:2|0:0,0:0:0:0:
285,59,108757,2,0,P|283:24|304:-8,1,74.2500002832413,2|8,0:0|0:0,0:0:0:0:
420,23,108971,2,0,P|391:47|350:41,1,65.9999979858399,8|0,1:0|0:0,0:0:0:0:
363,47,109185,2,0,P|392:23|433:29,1,65.9999979858399,10|0,0:0|0:0,0:0:0:0:
237,128,109400,5,6,3:2:0:0:
204,133,109507,1,0,0:0:0:0:
171,110,109614,1,10,0:0:0:0:
124,111,109721,1,2,0:0:0:0:
95,66,109828,2,0,P|67:37|21:36,1,65.9999979858399,8|0,1:0|0:0,0:0:0:0:
0,179,110042,2,0,P|31:186|62:175,1,65.9999979858399,2|0,0:0|0:0,0:0:0:0:
171,110,110257,6,0,P|143:186|158:241,1,131.99999597168,2|0,3:1|0:0,0:0:0:0:
284,362,110685,2,0,P|292:313|378:297,1,131.99999597168,8|10,1:0|0:0,0:0:0:0:
426,343,111007,1,2,0:0:0:0:
443,352,111114,6,0,P|474:320|470:283,1,65.9999979858399,6|2,3:2|0:0,0:0:0:0:
511,225,111328,1,10,0:0:0:0:
378,197,111542,2,0,P|325:185|243:169,1,131.99999597168,8|2,1:0|0:0,0:0:0:0:
204,102,111864,1,2,0:0:0:0:
223,77,111971,6,0,P|266:87|306:94,1,65.9999979858399,12|0,3:2|0:0,0:0:0:0:
312,268,112185,2,0,P|269:258|229:251,1,65.9999979858399,0|8,3:1|0:0,0:0:0:0:
129,160,112400,1,8,0:1:0:0:
143,151,112507,1,8,0:1:0:0:
129,143,112614,1,8,0:1:0:0:
76,150,112721,1,4,3:0:0:0:
31,184,112828,1,4,3:0:0:0:
215,92,113042,6,0,B|185:66|205:14|205:14|236:59|215:92,1,165.000006294251,2|0,1:0|0:0,0:0:0:0:
321,103,113364,6,0,B|318:71|359:53|359:53|352:96|321:103,1,131.99999597168,2|0,1:0|0:0,0:0:0:0:
348,186,113685,6,0,B|370:172|394:190|394:190|367:204|347:186,1,98.9999969787599,4|0,1:2|0:0,0:0:0:0:
257,168,114114,5,8,0:1:0:0:
266,210,114221,1,8,0:1:0:0:
244,248,114328,1,4,0:3:0:0:
48,359,114542,5,4,3:1:0:0:
52,339,114971,1,0,3:0:0:0:
67,264,115400,6,0,P|90:247|193:282,1,148.49999546814,2|2,3:0|0:3,0:0:0:0:
127,363,115828,1,0,3:0:0:0:
199,300,116042,1,2,0:3:0:0:
332,343,116257,5,4,3:2:0:0:
351,338,116685,1,2,3:2:0:0:
428,370,117114,6,0,P|429:324|476:228,1,148.49999546814,2|2,3:0|0:3,0:0:0:0:
480,214,117542,1,0,3:0:0:0:
483,312,117757,1,2,0:3:0:0:
412,179,117971,6,0,P|398:163|396:124,3,49.4999984893799,8|0|0|0,3:0|0:0|0:0|0:0,0:0:0:0:
400,108,118400,1,0,3:0:0:0:
434,31,118828,6,0,P|403:24|318:91,1,148.49999546814,2|2,3:0|0:3,0:0:0:0:
334,211,119257,1,0,3:0:0:0:
298,103,119471,1,2,0:3:0:0:
227,58,119685,6,0,P|188:50|123:36,1,98.9999969787599,4|0,3:2|0:0,0:0:0:0:
168,128,120114,2,0,P|129:120|64:106,1,98.9999969787599,0|0,3:0|0:0,0:0:0:0:
227,58,120542,6,0,P|204:113|229:205,1,148.49999546814,2|2,3:0|0:3,0:0:0:0:
220,216,120971,1,0,0:0:0:0:
329,235,121185,1,2,0:3:0:0:
206,384,121400,6,0,P|174:365|134:361,3,55,12|0|0|0,1:2|0:0|1:0|1:0,0:0:0:0:
157,272,121828,2,0,P|120:281|89:306,3,55,8|0|0|0,1:2|1:0|1:0|1:0,0:0:0:0:
81,310,122257,6,0,P|66:276|84:198,1,110,8|0,1:2|0:0,0:0:0:0:
90,188,122578,1,10,1:2:0:0:
159,150,122685,2,0,P|167:123|158:85,1,55,0|0,0:0|0:0,0:0:0:0:
230,49,122900,2,0,P|210:28|173:17,1,55,10|0,1:2|0:0,0:0:0:0:
13,15,123114,6,0,P|18:61|20:88,3,55,8|0|8|0,1:3|1:0|1:2|1:0,0:0:0:0:
128,65,123542,2,0,P|133:111|135:138,3,55,10|0|0|0,1:2|1:0|1:0|1:0,0:0:0:0:
203,173,123971,6,0,P|212:119|238:47,1,110,10|0,1:2|0:0,0:0:0:0:
243,43,124292,1,10,1:2:0:0:
304,111,124400,2,0,P|333:102|359:95,1,55,0|0,0:0|0:0,0:0:0:0:
415,36,124614,2,0,P|444:27|470:20,1,55,10|0,1:2|0:0,0:0:0:0:
472,108,124828,5,14,1:2:0:0:
444,116,124936,1,2,1:2:0:0:
478,125,125043,1,2,1:2:0:0:
450,133,125149,1,2,1:2:0:0:
468,144,125257,2,0,P|450:196|435:306,1,165,10|0,1:2|1:0,0:0:0:0:
397,374,125685,6,0,P|372:356|362:272,1,110,10|0,1:2|0:0,0:0:0:0:
347,262,126007,2,0,P|311:262|271:321,1,110,10|0,1:2|0:0,0:0:0:0:
258,329,126328,2,0,P|226:314|197:310,1,55,10|2,1:2|0:0,0:0:0:0:
93,242,126542,6,0,P|62:251|34:256,3,55,2|0|8|0,1:2|1:0|1:2|1:0,0:0:0:0:
78,162,126971,2,0,P|47:171|19:176,3,55,10|0|8|0,1:2|1:0|1:2|1:0,0:0:0:0:
154,187,127400,6,0,P|167:150|160:72,1,110,10|0,1:2|0:0,0:0:0:0:
261,51,127721,2,0,P|241:26|214:17,1,55,10|0,1:2|0:0,0:0:0:0:
327,100,127935,1,0,0:0:0:0:
347,86,128042,2,0,P|358:56|352:28,1,55,10|0,1:2|0:0,0:0:0:0:
507,81,128256,6,0,P|480:85|464:94,5,36.6666666666667,6|2|2|2|2|2,0:2|0:3|0:3|0:3|0:3|0:3,0:0:0:0:
410,155,128685,6,0,P|403:202|397:236,1,55,8|8,3:0|3:0,0:0:0:0:
424,157,128900,2,0,P|417:204|411:238,1,55,4|0,3:0|3:0,0:0:0:0:
478,330,129114,5,0,1:0:0:0:
445,300,129221,1,0,1:0:0:0:
402,290,129328,1,8,1:2:0:0:
361,308,129435,1,8,1:2:0:0:
339,346,129542,5,8,1:2:0:0:
285,375,129650,1,8,1:0:0:0:
226,361,129757,1,8,1:0:0:0:
184,316,129864,1,8,1:0:0:0:
189,255,129971,22,2,B|204:156|94:123|94:148|-5:175|-53:40|63:-24|107:61|107:61|125:-25|218:-46|289:63|201:113|193:74|138:124|168:191,1,725.999977844239,6|8,1:0|0:0,0:1:0:0:
111,237,131257,2,0,P|77:280|81:351,1,98.9999969787599,8|0,1:0|0:0,0:0:0:0:
74,346,131471,2,0,P|126:350|153:377,1,82.5000031471254,10|0,0:0|0:0,0:0:0:0:
333,233,131685,6,0,B|350:189|291:130|227:152|252:235|292:197,1,165.000006294251,2|2,3:1|0:0,0:0:0:0:
266,376,132007,2,0,P|272:328|354:247,1,165.000006294251,2|2,0:1|0:0,0:0:0:0:
443,254,132328,2,0,P|409:274|369:266,1,82.5000031471254,2|0,0:1|0:0,0:0:0:0:
445,91,132542,6,0,P|461:53|461:11,2,82.5000031471254,10|8|0,3:2|0:1|0:0,0:0:0:0:
387,166,132864,1,10,0:0:0:0:
398,187,132971,1,8,1:0:0:0:
445,91,133185,2,0,P|410:72|383:72,1,65.9999979858399,8|2,0:2|0:0,0:0:0:0:
275,93,133400,5,2,3:2:0:0:
249,71,133507,1,2,0:0:0:0:
212,56,133614,1,2,0:1:0:0:
166,50,133721,1,2,0:0:0:0:
115,64,133828,2,0,P|73:70|38:-10,1,131.99999597168,8|0,1:0|0:0,0:0:0:0:
212,153,134257,5,10,3:2:0:0:
178,146,134364,1,2,0:0:0:0:
138,152,134471,1,2,0:1:0:0:
96,170,134578,1,10,0:0:0:0:
58,207,134685,2,0,P|18:211|-8:172,1,65.9999979858399,8|0,1:0|0:0,0:0:0:0:
134,242,134900,2,0,P|117:279|70:282,1,65.9999979858399,10|0,0:0|0:0,0:0:0:0:
202,383,135114,6,0,P|196:323|282:208,1,197.99999395752,2|2,3:2|0:0,0:0:0:0:
291,213,135542,1,8,1:0:0:0:
283,320,135757,2,0,P|320:331|350:342,1,65.9999979858399,2|0,0:3|0:0,0:0:0:0:
512,177,135971,5,2,3:0:0:0:
495,158,136078,2,0,P|451:174|437:222,1,82.5000031471254,2|8,0:3|1:0,0:0:0:0:
410,285,136292,5,8,1:0:0:0:
456,303,136400,1,4,3:0:0:0:
431,336,136507,1,8,3:1:0:0:
456,357,136614,1,4,3:0:0:0:
436,204,136828,6,0,P|436:150|358:67,1,165.000006294251,6|8,3:2|0:0,0:0:0:0:
288,80,137150,1,2,0:1:0:0:
265,71,137257,2,0,P|247:31|254:-7,1,82.5000031471254,8|0,1:0|0:0,0:0:0:0:
166,1,137471,1,0,0:0:0:0:
335,152,137685,6,0,P|298:123|192:126,1,148.500000566483,10|0,3:2|0:0,0:0:0:0:
155,187,138007,1,10,0:1:0:0:
133,196,138114,2,0,P|99:174|90:130,1,74.2500002832413,0|0,1:0|0:0,0:0:0:0:
137,36,138328,2,0,P|134:65|130:91,1,41.2500015735627,10|0,0:0|0:0,0:0:0:0:
5,259,138542,6,0,P|47:223|129:220,1,131.99999597168,2|8,3:2|0:0,0:0:0:0:
188,264,138864,1,2,0:1:0:0:
188,303,138971,1,8,1:2:0:0:
211,342,139078,1,2,0:0:0:0:
260,360,139185,2,0,P|270:319|283:284,1,65.9999979858399,2|0,0:1|0:0,0:0:0:0:
349,248,139400,6,0,P|384:239|417:237,2,65.9999979858399,2|8|0,3:2|1:0|0:0,0:0:0:0:
380,350,139721,1,2,0:0:0:0:
396,375,139828,1,8,1:0:0:0:
344,237,140042,2,0,P|379:228|412:226,1,65.9999979858399,2|0,0:1|0:0,0:0:0:0:
487,175,140257,6,0,P|494:127|393:82,1,165.000006294251,2|8,3:1|0:0,0:0:0:0:
389,91,140578,1,2,0:0:0:0:
323,152,140685,2,0,P|248:131|240:53,1,165.000006294251,10|0,1:0|0:0,0:0:0:0:
236,30,141114,6,0,P|182:45|127:63,1,82.5000031471254,10|0,1:0|0:0,0:0:0:0:
37,92,141328,2,0,P|33:72|25:48,3,36.6666666666667,2|2|2|2,1:3|1:3|1:3|1:3,0:0:0:0:
211,226,141757,6,0,P|244:237|331:266,1,123.750004720688,6|0,1:0|0:0,0:0:0:0:
473,318,142185,6,0,P|471:348|453:373,1,41.2500015735627,2|0,1:2|0:0,0:0:0:0:
436,334,142400,2,0,P|419:358|391:371,1,41.2500015735627,2|0,1:2|0:0,0:0:0:0:
368,301,142614,6,0,P|338:301|310:277,1,55,8|0,1:0|0:0,0:0:0:0:
321,214,142828,2,0,P|299:192|296:156,1,55,8|0,1:0|0:3,0:0:0:0:
349,94,143042,6,0,P|372:39|425:24,1,82.5000031471254,8|0,1:0|0:0,0:0:0:0:
474,32,143257,1,8,1:0:0:0:
474,15,143364,1,4,1:3:0:0:
488,23,143471,1,4,3:0:0:0:
512,116,143685,6,0,P|450:106|420:99,1,82.5000031471254,2|0,1:0|0:0,0:0:0:0:
268,23,143900,1,2,0:3:0:0:
259,21,144007,1,2,0:0:0:0:
250,19,144114,1,2,0:3:0:0:
241,17,144221,1,2,0:0:0:0:
232,15,144328,1,2,0:0:0:0:
0,151,144542,6,0,P|62:141|92:134,1,82.5000031471254,2|0,1:0|0:0,0:0:0:0:
227,106,144757,1,0,0:0:0:0:
236,104,144864,1,2,0:3:0:0:
245,102,144971,1,2,0:0:0:0:
303,163,145185,1,2,0:3:0:0:
457,219,145400,6,0,P|395:209|365:202,1,74.2500002832413,2|0,1:0|0:0,0:0:0:0:
225,189,145614,1,2,0:3:0:0:
216,187,145721,1,2,0:0:0:0:
207,185,145828,1,2,0:3:0:0:
198,183,145935,1,2,0:0:0:0:
189,181,146042,1,2,0:0:0:0:
33,256,146257,6,0,P|95:246|125:239,1,74.2500002832413,2|0,1:0|0:0,0:0:0:0:
256,266,146471,1,0,0:0:0:0:
265,264,146578,1,2,0:3:0:0:
274,262,146685,1,2,0:0:0:0:
220,339,146900,1,2,0:0:0:0:
459,368,147114,6,0,P|449:275|441:203,1,148.500000566483,4|0,1:2|0:0,0:0:0:0:
377,345,147435,2,0,P|367:252|359:180,1,148.500000566483,2|0,1:0|0:0,0:0:0:0:
286,248,147757,2,0,P|283:211|278:174,1,74.2500002832413,2|0,1:0|0:0,0:0:0:0:
215,0,147971,6,0,P|205:93|197:165,1,148.500000566483,4|0,1:2|0:0,0:0:0:0:
133,23,148292,2,0,P|123:116|115:188,1,148.500000566483,2|0,1:0|0:0,0:0:0:0:
42,119,148614,2,0,P|38:155|33:192,1,74.2500002832413,2|0,1:0|0:0,0:0:0:0:
27,276,148828,1,6,0:0:0:0:
256,192,148935,12,0,150114,0:0:0:0:
470,357,150542,6,0,B|453:275|409:321|390:231,1,136.125001298189,4|0,3:1|0:0,0:0:0:0:
379,239,150757,2,0,P|400:171|364:112,1,136.125001298189,10|0,0:0|0:0,0:0:0:0:
409,34,150971,2,0,P|439:9|497:17,1,90.7500008654595,8|0,1:0|0:0,0:0:0:0:
248,94,151185,2,0,P|211:80|189:26,1,90.7500008654595,2|0,0:0|0:0,0:0:0:0:
362,101,151400,6,0,P|290:112|215:172,1,165.000006294251,10|2,3:2|0:0,0:0:0:0:
130,204,151721,1,8,0:0:0:0:
54,170,151828,2,0,P|39:144|45:105,1,65.9999979858399,8|0,1:0|0:0,0:0:0:0:
42,109,152042,2,0,P|57:135|51:174,1,65.9999979858399,8|0,0:0|0:0,0:0:0:0:
130,204,152257,6,0,P|206:220|284:238,1,131.99999597168,6|0,3:2|0:0,0:0:0:0:
284,238,152578,1,2,0:0:0:0:
363,250,152685,2,0,P|364:217|348:188,1,65.9999979858399,8|0,1:0|0:0,0:0:0:0:
390,326,152900,2,0,P|419:309|436:281,1,65.9999979858399,2|0,0:0|0:0,0:0:0:0:
506,73,153114,6,0,P|466:68|420:154,1,131.99999597168,2|0,3:1|0:0,0:0:0:0:
426,158,153435,1,10,0:1:0:0:
363,250,153542,2,0,P|298:264|234:278,1,131.99999597168,8|8,1:0|0:0,0:0:0:0:
41,374,153971,5,6,3:2:0:0:
68,345,154078,1,2,0:0:0:0:
92,305,154185,1,10,0:0:0:0:
103,254,154292,1,2,0:0:0:0:
99,193,154400,2,0,P|90:154|80:126,1,65.9999979858399,8|0,1:0|0:0,0:0:0:0:
5,158,154614,2,0,P|15:189|22:221,1,65.9999979858399,0|0,0:0|0:0,0:0:0:0:
185,284,154828,5,14,3:2:0:0:
199,247,154935,1,2,0:0:0:0:
207,201,155042,1,2,0:0:0:0:
199,148,155149,1,10,0:0:0:0:
173,93,155257,2,0,P|150:59|69:5,1,131.99999597168,8|8,1:0|0:0,0:0:0:0:
15,54,155578,1,2,0:0:0:0:
19,79,155685,1,4,3:2:0:0:
101,15,155900,6,0,P|99:61|96:94,1,65.9999979858399,10|0,0:0|0:0,0:0:0:0:
53,155,156114,1,8,1:0:0:0:
200,15,156328,1,2,0:0:0:0:
130,206,156542,5,8,1:0:0:0:
174,176,156650,1,8,1:0:0:0:
225,163,156757,1,8,1:0:0:0:
276,171,156864,1,8,1:0:0:0:
322,195,156971,5,4,3:0:0:0:
361,247,157078,1,4,3:0:0:0:
425,261,157185,1,0,3:0:0:0:
478,222,157292,1,0,3:0:0:0:
484,155,157400,6,0,P|423:126|422:56,1,136.125001298189,4|0,3:1|0:0,0:0:0:0:
428,46,157614,2,0,P|379:28|304:78,1,136.125001298189,10|0,0:0|0:0,0:0:0:0:
252,120,157828,6,0,P|266:169|279:215,1,90.7500008654595,8|0,1:0|0:0,0:0:0:0:
317,360,158042,2,0,P|307:320|318:281,1,82.5000031471254,2|0,0:0|0:0,0:0:0:0:
455,269,158257,6,0,P|384:279|315:393,1,181.500001730919,10|2,3:2|0:0,0:0:0:0:
236,296,158578,1,10,0:0:0:0:
168,253,158685,2,0,P|134:279|94:281,1,74.2500002832413,8|0,1:0|0:0,0:0:0:0:
104,284,158900,2,0,P|143:299|165:333,1,74.2500002832413,10|0,0:0|0:0,0:0:0:0:
89,366,159114,5,6,3:2:0:0:
69,334,159221,1,0,0:0:0:0:
78,290,159328,1,0,0:0:0:0:
47,248,159435,1,2,0:0:0:0:
57,189,159542,2,0,P|51:148|30:120,1,74.2500002832413,8|2,1:0|0:0,0:0:0:0:
129,11,159757,2,0,P|108:41|104:78,1,74.2500002832413,2|0,0:0|0:0,0:0:0:0:
138,154,159971,6,0,P|179:128|275:114,1,131.99999597168,2|0,3:1|0:0,0:0:0:0:
502,201,160400,2,0,P|455:189|363:157,1,131.99999597168,8|10,1:0|0:0,0:0:0:0:
356,148,160721,1,2,0:0:0:0:
346,242,160828,2,0,P|356:278|361:307,1,65.9999979858399,6|0,3:2|0:0,0:0:0:0:
442,282,161042,2,0,P|432:250|427:217,1,65.9999979858399,8|0,0:0|0:0,0:0:0:0:
370,21,161257,6,0,P|327:22|298:108,1,131.99999597168,8|2,1:0|0:0,0:0:0:0:
225,150,161578,1,0,0:0:0:0:
180,120,161685,1,12,1:2:0:0:
133,117,161790,1,8,1:3:0:0:
96,132,161896,2,0,P|80:114|74:70,1,65.9999979858399,8|8,1:3|1:3,0:0:0:0:
62,207,162107,2,0,P|31:220|0:228,1,65.9999979858399,2|0,3:2|3:2,0:0:0:0:
5,243,162313,2,0,P|36:230|68:223,1,65.9999979858399,2|0,3:2|3:2,0:0:0:0:
147,236,162520,6,0,P|191:277|183:325,1,110,12|0,1:0|0:0,0:0:0:0:
252,378,162826,6,0,P|330:323|326:239,1,165.000006294251,6|0,1:2|0:0,0:0:0:0:
345,238,163161,2,0,P|393:244|421:282,1,82.5000031471254,6|0,1:2|0:0,0:0:0:0:
485,310,163395,1,6,1:2:0:0:
498,184,163729,6,0,P|492:204|492:218,1,27.5,0|0,3:0|3:0,0:0:0:0:
498,184,163829,2,0,P|411:164|290:56,1,247.500009441376,12|0,3:1|0:0,0:0:0:0:
240,2,164251,6,0,P|186:18|153:95,1,136.125001298189,6|0,3:2|0:0,0:0:0:0:
149,105,164465,2,0,P|156:173|112:220,1,136.125001298189,10|0,0:0|0:0,0:0:0:0:
35,216,164679,2,0,P|9:262|18:297,1,90.7500008654595,8|0,1:0|0:0,0:0:0:0:
274,199,164893,2,0,P|230:206|194:182,1,90.7500008654595,2|0,0:0|0:0,0:0:0:0:
79,140,165108,6,0,P|84:222|129:301,1,165.000006294251,10|2,3:2|0:0,0:0:0:0:
204,335,165429,1,10,0:0:0:0:
287,319,165536,2,0,P|307:350|304:381,1,65.9999979858399,8|0,1:0|0:0,0:0:0:0:
305,377,165751,2,0,P|286:350|286:318,1,65.9999979858399,10|0,0:0|0:0,0:0:0:0:
292,235,165965,6,0,P|377:247|430:258,1,131.99999597168,6|0,3:2|0:0,0:0:0:0:
442,269,166286,1,2,0:0:0:0:
496,206,166393,2,0,P|514:176|509:137,1,65.9999979858399,8|0,1:0|0:0,0:0:0:0:
433,157,166608,2,0,P|405:139|372:140,1,65.9999979858399,2|0,0:0|0:0,0:0:0:0:
218,205,166822,5,2,3:1:0:0:
209,214,166929,1,8,0:1:0:0:
197,221,167036,1,0,0:0:0:0:
184,224,167143,1,2,0:1:0:0:
170,222,167251,1,10,1:0:0:0:
333,207,167465,2,0,P|299:200|281:198,1,41.2500015735627,2|0,0:0|0:0,0:0:0:0:
106,277,167679,5,6,3:2:0:0:
74,252,167786,1,2,0:0:0:0:
54,209,167893,1,10,0:0:0:0:
61,156,168001,1,2,0:0:0:0:
101,112,168108,2,0,P|124:79|122:41,1,65.9999979858399,8|0,1:0|0:0,0:0:0:0:
49,20,168322,2,0,P|26:53|28:91,1,65.9999979858399,2|0,0:0|0:0,0:0:0:0:
145,193,168536,5,14,3:2:0:0:
171,163,168643,1,2,0:0:0:0:
214,147,168751,1,2,0:0:0:0:
266,150,168858,1,10,0:0:0:0:
317,179,168965,2,0,P|362:170|407:85,1,131.99999597168,8|8,1:0|0:0,0:0:0:0:
349,16,169286,1,2,0:0:0:0:
341,48,169393,5,4,3:2:0:0:
490,5,169608,2,0,P|454:2|431:19,1,65.9999979858399,10|0,0:0|0:0,0:0:0:0:
407,101,169822,1,8,1:0:0:0:
508,175,170036,1,2,0:0:0:0:
430,267,170251,5,8,1:0:0:0:
364,256,170358,1,8,1:0:0:0:
298,263,170465,1,8,1:0:0:0:
242,298,170572,1,0,1:0:0:0:
212,356,170679,21,8,3:0:0:0:
179,351,170786,1,8,3:0:0:0:
215,337,170893,1,12,3:0:0:0:
182,332,171000,1,12,3:0:0:0:
154,337,171108,6,0,B|151:280|95:270|90:298|-17:257|23:146|109:143|132:185,1,288.750011014939,4|0,1:2|0:0,0:0:0:0:
154,337,171965,2,0,B|138:282|189:255|202:280|292:208|219:115|136:139|127:185,1,288.750011014939,4|0,1:2|0:0,0:0:0:0:
231,170,172822,6,0,P|286:160|325:78,1,131.99999597168,6|0,1:2|0:0,0:0:0:0:
414,135,173143,2,0,P|377:92|287:99,1,131.99999597168,6|0,1:2|0:0,0:0:0:0:
282,15,173465,2,0,P|274:52|293:85,1,65.9999979858399,6|0,1:2|0:0,0:0:0:0:
357,197,173679,5,0,1:0:0:0:
409,222,173786,1,0,1:0:0:0:
461,215,173893,1,8,1:0:0:0:
499,240,174001,1,8,1:0:0:0:
491,257,174108,6,0,P|499:293|506:322,1,65.9999979858399,10|4,1:2|3:0,0:0:0:0:
432,370,174322,2,0,P|424:337|417:305,1,65.9999979858399,8|8,3:0|3:0,0:0:0:0:
413,129,174536,6,0,P|421:82|437:41,1,82.5000031471254,10|0,1:0|0:0,0:0:0:0:
322,87,174751,1,10,1:2:0:0:
290,120,174858,1,10,1:2:0:0:
277,104,174965,6,0,P|260:59|253:15,1,82.5000031471254,10|0,1:0|0:0,0:0:0:0:
197,143,175179,1,10,1:2:0:0:
158,197,175286,1,10,1:2:0:0:
132,197,175393,6,0,P|95:166|67:132,1,82.5000031471254,10|0,1:0|0:0,0:0:0:0:
122,280,175608,1,10,1:2:0:0:
148,359,175715,1,10,1:2:0:0:
115,384,175822,6,0,P|68:376|27:360,1,82.5000031471254,10|0,1:0|0:0,0:0:0:0:
228,290,176036,1,10,1:2:0:0:
231,283,176143,1,10,1:2:0:0:
236,289,176251,1,0,3:0:0:0:
310,106,176465,6,0,P|354:85|467:56,1,165.000006294251,2|0,1:1|0:0,0:0:0:0:
368,21,176786,2,0,P|373:87|412:181,1,165.000006294251,2|0,1:1|0:0,0:0:0:0:
444,136,177108,2,2,B|485:252|360:323|287:223|327:103|447:104|512:139|510:232,1,440,6|0,1:0|3:0,0:1:0:0:
