osu file format v14

[General]
AudioFilename: audio.ogg
AudioLeadIn: 0
PreviewTime: 146129
Countdown: 0
SampleSet: Soft
StackLeniency: 0.2
Mode: 0
LetterboxInBreaks: 0
WidescreenStoryboard: 0

[Editor]
Bookmarks: 9597,23611,37626,51640,65655,72662,86677,100692,114706,128721,142735,146239,153246,160254,174268,188283,191786,205801
DistanceSpacing: 1.3
BeatDivisor: 8
GridSize: 8
TimelineZoom: 2

[Metadata]
Title:Brownie
TitleUnicode:ブラウニー
Artist:Wanuka
ArtistUnicode:和ぬか
Creator:soncak
Version:Tomfoolery
Source:
Tags:japanese pop jpop j-pop 100kai outo 100回嘔吐 100kaiouto aonisai greenhorn 青二才 bars247 chills
BeatmapID:3978078
BeatmapSetID:1912417

[Difficulty]
HPDrainRate:5.3
CircleSize:3.8
OverallDifficulty:8.9
ApproachRate:9.4
SliderMultiplier:2.5
SliderTickRate:1

[Events]
//Background and Video events
0,0,"brownie.jpg",0,0
Video,380,"brownie.mp4"
//Break Periods
//Storyboard Layer 0 (Background)
//Storyboard Layer 1 (Fail)
//Storyboard Layer 2 (Pass)
//Storyboard Layer 3 (Foreground)
//Storyboard Layer 4 (Overlay)
//Storyboard Sound Samples

[TimingPoints]
844,437.956204379562,4,2,1,60,1,0
844,-333.333333333333,4,2,1,60,0,0
3471,-500,4,2,1,60,0,0
5223,-333.333333333333,4,2,1,60,0,0
6975,-153.846153846154,4,2,1,60,0,0
8946,-100,4,2,1,60,0,0
9165,-125,4,2,1,60,0,0
9603,-125,4,2,1,55,0,0
12668,-100,4,2,1,55,0,0
12723,-100,4,2,1,40,0,0
13106,-133.333333333333,4,2,1,55,0,0
13544,-83.3333333333333,4,2,1,55,0,0
14858,-125,4,2,1,55,0,0
15296,-100,4,2,1,55,0,0
16172,-66.6666666666667,4,2,1,55,0,0
19676,-100,4,2,1,55,0,0
19730,-100,4,2,1,40,0,0
20114,-111.111111111111,4,2,1,55,0,0
20552,-66.6666666666667,4,2,1,55,0,0
21865,-55.5555555555556,4,2,1,65,0,0
22303,-66.6666666666667,4,2,1,60,0,0
22741,-133.333333333333,4,2,1,55,0,0
23179,-100,4,2,1,50,0,0
23617,-100,4,2,1,60,0,0
26245,-133.333333333333,4,2,1,60,0,0
26683,-100,4,2,1,60,0,0
27559,-66.6666666666667,4,2,1,60,0,0
27997,-166.666666666667,4,2,1,60,0,0
28873,-66.6666666666667,4,2,1,60,0,0
29311,-125,4,2,1,60,0,0
29749,-200,4,2,1,60,0,0
30187,-55.5555555555556,4,2,1,65,0,0
30625,-100,4,2,1,65,0,0
33690,-133.333333333333,4,2,1,65,0,0
34566,-100,4,2,1,65,0,0
35880,-55.5555555555556,4,2,1,70,0,0
36318,-66.6666666666667,4,2,1,65,0,0
36756,-83.3333333333333,4,2,1,60,0,0
37194,-100,4,2,1,30,0,0
37632,-100,4,2,4,55,0,0
44639,-83.3333333333333,4,2,4,55,0,0
44858,-83.3333333333333,4,2,4,65,0,0
47924,-133.333333333333,4,2,4,65,0,0
48143,-83.3333333333333,4,2,4,65,0,0
49457,-66.6666666666667,4,2,4,65,0,0
49895,-66.6666666666667,4,2,1,40,0,0
51646,-50,4,2,2,85,0,1
52303,-66.6666666666667,4,2,2,85,0,1
52522,-100,4,2,2,85,0,1
52960,-66.6666666666667,4,2,2,85,0,1
53179,-66.6666666666667,4,2,3,85,0,1
53398,-66.6666666666667,4,2,2,85,0,1
53617,-44.4444444444445,4,2,2,85,0,1
54055,-133.333333333333,4,2,2,85,0,1
54493,-100,4,2,2,85,0,1
55150,-50,4,2,2,85,0,1
55369,-33.3333333333333,4,2,2,85,0,1
55588,-100,4,2,2,85,0,1
56464,-66.6666666666667,4,2,2,85,0,1
56683,-66.6666666666667,4,2,3,85,0,1
56902,-66.6666666666667,4,2,2,85,0,1
57340,-100,4,2,2,85,0,1
58654,-50,4,2,2,85,0,1
59311,-66.6666666666667,4,2,2,85,0,1
59530,-100,4,2,2,85,0,1
59968,-66.6666666666667,4,2,2,85,0,1
60187,-66.6666666666667,4,2,3,85,0,1
60406,-66.6666666666667,4,2,2,85,0,1
60625,-66.6666666666667,4,2,2,85,0,1
60843,-50,4,2,2,85,0,1
61062,-66.6666666666667,4,2,2,85,0,1
62157,-50,4,2,2,85,0,1
62376,-33.3333333333333,4,2,2,85,0,1
62595,-66.6666666666667,4,2,2,85,0,1
63252,-44.4444444444445,4,2,2,85,0,1
63690,-100,4,2,2,85,0,1
64785,-33.3333333333333,4,2,2,85,0,1
65004,-44.4444444444445,4,2,2,85,0,1
65223,-133.333333333333,4,2,2,85,0,1
65661,-100,4,2,1,55,0,0
72668,-200,4,2,1,60,0,0
75296,-100,4,2,1,60,0,0
75734,-133.333333333333,4,2,1,60,0,0
76610,-83.3333333333333,4,2,1,60,0,0
76829,-66.6666666666667,4,2,1,60,0,0
77048,-100,4,2,1,60,0,0
77924,-66.6666666666667,4,2,1,60,0,0
78362,-100,4,2,1,60,0,0
79238,-62.5,4,2,1,60,0,0
79676,-100,4,2,1,65,0,0
82741,-166.666666666667,4,2,1,65,0,0
83179,-100,4,2,1,65,0,0
83836,-66.6666666666667,4,2,1,65,0,0
84055,-83.3333333333333,4,2,1,65,0,0
84493,-100,4,2,1,65,0,0
84931,-66.6666666666667,4,2,1,65,0,0
85369,-100,4,2,1,65,0,0
85807,-133.333333333333,4,2,1,65,0,0
86245,-133.333333333333,4,2,1,30,0,0
86683,-100,4,2,4,55,0,0
93690,-83.3333333333333,4,2,4,70,0,0
98508,-66.6666666666667,4,2,4,70,0,0
98946,-100,4,2,1,40,0,0
100698,-50,4,2,2,85,0,1
101354,-66.6666666666667,4,2,2,85,0,1
101573,-100,4,2,2,85,0,1
102011,-66.6666666666667,4,2,2,85,0,1
102230,-100,4,2,3,85,0,1
102449,-100,4,2,2,85,0,1
102668,-40,4,2,2,85,0,1
102887,-55.5555555555556,4,2,2,85,0,1
103106,-100,4,2,2,85,0,1
103544,-100,4,2,2,85,0,1
104201,-50,4,2,2,85,0,1
104420,-33.3333333333333,4,2,2,85,0,1
104639,-66.6666666666667,4,2,2,85,0,1
105077,-100,4,2,2,85,0,1
105515,-66.6666666666667,4,2,2,85,0,1
105734,-100,4,2,3,85,0,1
105953,-50,4,2,2,85,0,1
106391,-66.6666666666667,4,2,2,85,0,1
106610,-100,4,2,2,85,0,1
107705,-50,4,2,2,85,0,1
108362,-66.6666666666667,4,2,2,85,0,1
108581,-100,4,2,2,85,0,1
109019,-66.6666666666667,4,2,2,85,0,1
109238,-100,4,2,3,85,0,1
109457,-100,4,2,2,85,0,1
109676,-83.3333333333333,4,2,2,85,0,1
109895,-66.6666666666667,4,2,2,85,0,1
110114,-66.6666666666667,4,2,2,85,0,1
110552,-100,4,2,2,85,0,1
111208,-50,4,2,2,85,0,1
111427,-33.3333333333333,4,2,2,85,0,1
111646,-66.6666666666667,4,2,2,85,0,1
112084,-50,4,2,2,85,0,1
112303,-33.3333333333333,4,2,2,85,0,1
112522,-66.6666666666667,4,2,2,85,0,1
113836,-33.3333333333333,4,2,2,85,0,1
114055,-44.4444444444445,4,2,2,85,0,1
114274,-133.333333333333,4,2,2,85,0,1
114712,-166.666666666667,4,2,5,45,0,0
121062,-100,4,2,5,55,0,0
128727,-133.333333333333,4,2,5,55,0,0
131135,-83.3333333333333,4,2,5,55,0,0
132887,-133.333333333333,4,2,5,55,0,0
135296,-83.3333333333333,4,2,5,55,0,0
135734,-83.3333333333333,4,2,5,60,0,0
136391,-100,4,2,5,60,0,0
136829,-133.333333333333,4,2,5,60,0,0
137486,-66.6666666666667,4,2,5,60,0,0
137924,-100,4,2,5,60,0,0
138143,-83.3333333333333,4,2,5,60,0,0
138362,-100,4,2,5,60,0,0
140114,-100,4,2,5,60,0,0
141427,-125,4,2,5,60,0,0
141865,-100,4,2,5,60,0,0
142741,-200,4,2,1,40,0,0
143617,-100,4,2,1,45,0,0
144493,-125,4,2,1,40,0,0
145369,-166.666666666667,4,2,1,35,0,0
146245,-500,4,2,1,35,0,0
147121,-500,4,2,2,35,0,0
147778,-500,4,2,3,35,0,0
148435,-500,4,2,1,35,0,0
150625,-500,4,2,2,35,0,0
151281,-500,4,2,3,35,0,0
151938,-500,4,2,1,35,0,0
153252,-250,4,2,1,40,0,0
160260,-44.4444444444445,4,2,2,90,0,1
160916,-66.6666666666667,4,2,2,90,0,1
161135,-100,4,2,2,90,0,1
161573,-66.6666666666667,4,2,2,90,0,1
161792,-100,4,2,3,90,0,1
162011,-100,4,2,2,90,0,1
162230,-33.3333333333333,4,2,2,90,0,1
162449,-40,4,2,2,90,0,1
162668,-66.6666666666667,4,2,2,90,0,1
163106,-66.6666666666667,4,2,2,90,0,1
163763,-50,4,2,2,90,0,1
163982,-33.3333333333333,4,2,2,90,0,1
164201,-66.6666666666667,4,2,2,90,0,1
164639,-100,4,2,2,90,0,1
165077,-66.6666666666667,4,2,2,90,0,1
165296,-100,4,2,3,90,0,1
165515,-66.6666666666667,4,2,2,90,0,1
166391,-100,4,2,2,90,0,1
167267,-44.4444444444445,4,2,2,90,0,1
167924,-66.6666666666667,4,2,2,90,0,1
168143,-100,4,2,2,90,0,1
168581,-66.6666666666667,4,2,2,90,0,1
168800,-100,4,2,3,90,0,1
169019,-100,4,2,2,90,0,1
169238,-66.6666666666667,4,2,2,90,0,1
169457,-44.4444444444445,4,2,2,90,0,1
169676,-50,4,2,2,90,0,1
170114,-100,4,2,2,90,0,1
170771,-66.6666666666667,4,2,2,90,0,1
170989,-33.3333333333333,4,2,2,90,0,1
171208,-66.6666666666667,4,2,2,90,0,1
171865,-44.4444444444445,4,2,2,90,0,1
172084,-50,4,2,2,90,0,1
172303,-66.6666666666667,4,2,2,90,0,1
173398,-44.4444444444445,4,2,2,90,0,1
173617,-33.3333333333333,4,2,2,90,0,1
173836,-100,4,2,2,90,0,1
174274,-66.6666666666667,4,2,3,75,0,0
174712,-66.6666666666667,4,2,3,75,0,0
174931,-133.333333333333,4,2,3,75,0,0
175698,-66.6666666666667,4,2,3,75,0,0
176354,-62.5,4,2,3,75,0,0
176683,-100,4,2,3,75,0,0
177121,-125,4,2,3,75,0,0
177449,-66.6666666666667,4,2,3,75,0,0
178435,-100,4,2,3,75,0,0
179530,-66.6666666666667,4,2,3,75,0,0
180187,-100,4,2,3,75,0,0
181281,-50,4,2,3,75,0,0
181719,-66.6666666666667,4,2,3,75,0,0
182157,-55.5555555555556,4,2,3,75,0,0
182595,-74.0740740740741,4,2,3,75,0,0
184128,-100,4,2,3,75,0,0
184347,-66.6666666666667,4,2,3,75,0,0
184785,-66.6666666666667,4,2,3,75,0,0
185442,-100,4,2,3,75,0,0
186208,-66.6666666666667,4,2,3,75,0,0
187194,-100,4,2,3,75,0,0
187851,-66.6666666666667,4,2,3,75,0,0
188289,-111.111111111111,4,2,1,60,0,0
191792,-100,4,2,1,50,0,0
194913,-100,4,2,1,40,0,0
195296,-100,4,2,1,50,0,0
201920,-100,4,2,1,40,0,0
202303,-100,4,2,1,50,0,0
204055,-66.6666666666667,4,2,1,50,0,0
204493,-86.9565217391304,4,2,1,50,0,0
204931,-133.333333333333,4,2,1,50,0,0

[Colours]
Combo1 : 105,197,135
Combo2 : 203,172,152
Combo3 : 156,116,86
Combo4 : 188,119,73
Combo5 : 208,86,68
Combo6 : 220,194,116
Combo7 : 125,166,196

[HitObjects]
22,241,844,5,4,3:2:0:0:
252,117,1062,1,2,0:0:0:0:
100,16,1281,1,8,0:0:0:0:
167,107,1500,1,2,3:2:0:0:
260,103,1719,2,0,P|289:93|319:84,1,56.2499982833863,0|0,3:2|0:0,0:0:0:0:
331,73,2157,1,8,0:0:0:0:
491,100,2376,1,0,0:0:0:0:
424,0,2595,5,2,3:2:0:0:
316,173,2814,1,2,0:0:0:0:
432,261,3033,1,8,0:0:0:0:
505,195,3252,1,0,3:0:0:0:
395,194,3471,2,0,P|404:219|407:233,1,37.5,2|0,3:2|0:0,0:0:0:0:
411,257,3909,1,8,0:0:0:0:
358,336,4128,1,0,3:0:0:0:
100,179,4347,5,2,3:2:0:0:
84,171,4785,1,8,0:0:0:0:
210,113,5004,1,0,3:0:0:0:
134,277,5223,2,0,P|100:266|72:257,1,56.2499982833863,2|0,3:2|0:0,0:0:0:0:
57,258,5661,1,8,0:0:0:0:
198,98,5880,1,0,3:0:0:0:
278,170,6099,70,0,P|285:204|291:232,1,56.2499982833863,8|0,0:0|0:0,0:0:0:0:
300,244,6537,1,8,0:0:0:0:
379,299,6756,1,0,3:0:0:0:
415,70,6975,6,0,B|382:34|452:-37|549:-18|570:68|488:164|425:161|415:221|415:221|417:169|381:133|379:145|300:190|279:52|365:11|402:51|385:98|423:118|458:34|419:52,1,649.999970245363,12|0,0:0|0:0,0:0:0:0:
492,244,8946,6,0,P|484:263|486:313,1,62.5,2|0,0:0|0:0,0:0:0:0:
422,384,9165,2,0,P|407:341|336:259,1,150,2|0,0:3|0:0,0:0:0:0:
248,341,9603,69,2,3:2:0:0:
245,362,10041,1,2,0:3:0:0:
283,197,10260,1,2,3:2:0:0:
53,94,10479,1,2,3:2:0:0:
39,100,10916,5,2,0:3:0:0:
124,239,11135,1,2,3:2:0:0:
365,176,11354,1,2,3:2:0:0:
379,170,11792,85,2,0:3:0:0:
325,293,12011,1,0,3:2:0:0:
438,369,12230,1,2,3:2:0:0:
492,246,12668,2,0,P|493:231|498:210,7,31.25,2|0|0|0|0|0|0|0,0:3|0:3|0:3|0:3|0:3|0:3|0:3|0:3,0:0:0:0:
401,102,13106,6,0,B|367:77|388:36|388:36|421:64|402:103,1,140.625005364418,2|0,3:2|0:0,0:0:0:0:
478,228,13544,2,0,B|469:136|392:184|391:99,1,149.999995422363,2|0,0:3|3:0,0:0:0:0:
221,3,13982,1,2,3:2:0:0:
73,31,14420,1,2,0:3:0:0:
12,98,14858,86,0,P|52:73|103:151,1,150,2|0,3:2|0:0,0:0:0:0:
190,153,15296,2,0,P|218:103|269:126,1,125,2|0,0:3|3:0,0:0:0:0:
389,137,15734,5,2,3:2:0:0:
423,213,15843,2,0,P|368:235|329:192,1,125,2|0,0:0|0:0,0:0:0:0:
270,127,16172,2,0,P|354:94|512:194,1,281.250010728836,2|0,0:3|0:3,0:0:0:0:
333,376,16610,85,2,3:2:0:0:
328,355,17048,1,2,0:3:0:0:
134,233,17267,1,2,3:2:0:0:
85,357,17486,1,2,3:2:0:0:
98,365,17924,5,2,0:3:0:0:
208,285,18143,1,2,3:2:0:0:
35,147,18362,1,2,3:2:0:0:
28,165,18800,85,2,0:3:0:0:
129,207,19019,1,0,3:0:0:0:
247,117,19238,1,2,3:2:0:0:
255,0,19676,2,0,P|257:21|262:48,7,31.25,2|0|0|0|0|0|0|0,0:3|0:0|0:0|0:0|0:0|0:0|0:0|0:0,0:0:0:0:
269,110,20114,6,0,P|355:107|406:46,1,168.749994850159,2|0,3:2|0:0,0:0:0:0:
258,31,20552,2,0,P|218:115|231:207,1,187.500007152558,2|0,0:3|3:0,0:0:0:0:
222,359,20989,85,2,3:2:0:0:
309,237,21427,1,2,0:3:0:0:
397,262,21865,6,0,P|335:333|188:330,1,224.999993133545,6|0,3:2|0:0,0:0:0:0:
202,363,22303,2,0,P|139:322|116:210,1,187.500007152558,2|0,3:2|0:0,0:0:0:0:
99,205,22741,6,0,P|128:141|197:109,1,140.625005364418,2|0,3:2|0:0,0:0:0:0:
263,79,23179,22,0,B|251:48|234:41|234:41|250:32|254:0|254:0|265:30|282:36|282:36|267:46|263:74,1,187.500007152558,4|0,0:3|0:0,0:0:0:0:
191,199,23617,37,2,3:2:0:0:
401,126,23836,1,0,0:0:0:0:
495,172,24055,1,8,0:0:0:0:
495,254,24274,1,2,3:2:0:0:
312,146,24493,5,2,3:2:0:0:
335,26,24712,1,0,0:0:0:0:
413,3,24931,1,8,0:0:0:0:
393,82,25150,1,2,3:2:0:0:
191,199,25369,85,2,3:2:0:0:
126,246,25588,1,0,0:0:0:0:
123,264,25698,1,0,0:0:0:0:
130,280,25807,1,8,0:0:0:0:
206,307,26026,1,2,3:2:0:0:
361,354,26245,2,0,P|420:371|460:385,1,93.7500035762788,2|0,3:2|0:0,0:0:0:0:
508,288,26683,6,0,P|501:263|501:246,3,31.25,8|0|0|0,0:0|0:0|0:0|0:0,0:0:0:0:
500,318,26902,1,0,3:0:0:0:
398,278,27121,2,0,B|385:220|305:197|272:260|317:315|353:266,1,187.5,2|0,3:2|0:0,0:0:0:0:
474,242,27559,2,0,P|449:171|351:123,1,187.500007152558,8|0,0:0|3:0,0:0:0:0:
162,25,27997,86,0,P|166:50|177:70,1,37.4999988555909,2|0,3:2|0:0,0:0:0:0:
239,103,28216,1,0,0:0:0:0:
132,140,28435,1,8,0:0:0:0:
163,146,28654,1,0,3:0:0:0:
5,218,28873,6,0,P|15:309|75:379,1,187.500007152558,2|0,3:2|0:0,0:0:0:0:
130,224,29311,2,0,P|123:273|140:319,1,100,8|0,0:0|3:0,0:0:0:0:
224,321,29749,2,0,P|240:294|244:264,1,62.5,2|0,3:2|0:0,0:0:0:0:
293,369,30187,86,0,B|376:390|403:282|376:289|407:225|461:243,1,224.999993133545,8|0,0:0|3:0,0:0:0:0:
512,83,30625,1,4,3:3:0:0:
354,22,30843,1,0,0:0:0:0:
267,94,31062,1,8,1:2:0:0:
287,171,31281,2,0,P|277:130|252:103,1,62.5,2|0,3:2|0:0,0:0:0:0:
5,5,31500,5,2,3:2:0:0:
34,161,31719,1,0,0:0:0:0:
131,199,31938,1,8,1:2:0:0:
206,173,32157,2,0,P|177:180|145:187,1,62.5,2|0,3:2|0:0,0:0:0:0:
402,217,32376,85,2,3:2:0:0:
426,221,32486,1,0,0:0:0:0:
449,231,32595,1,0,0:0:0:0:
490,311,32814,1,8,1:2:0:0:
425,372,33033,1,0,3:0:0:0:
339,144,33252,5,2,3:2:0:0:
236,136,33362,1,2,0:0:0:0:
177,203,33471,1,2,0:0:0:0:
174,240,33581,1,2,0:0:0:0:
156,261,33690,2,0,P|118:270|64:284,1,93.7500035762788,8|0,1:2|3:0,0:0:0:0:
231,384,34128,86,0,P|233:341|280:253,1,140.625005364418,2|0,3:2|0:0,0:0:0:0:
359,222,34566,2,0,P|323:237|289:235,1,62.5,8|0,1:2|0:0,0:0:0:0:
112,139,34785,1,0,3:0:0:0:
198,217,35004,6,0,P|209:141|151:44,1,187.5,2|0,3:2|0:0,0:0:0:0:
39,43,35442,2,0,P|83:55|156:11,1,125,8|0,1:2|3:0,0:0:0:0:
512,149,35880,86,0,B|477:230|386:208|395:185|332:196|327:245,1,224.999993133545,6|0,3:2|0:0,0:0:0:0:
312,227,36318,2,0,B|318:163|262:153|273:169|205:142|225:70,1,187.500007152558,10|0,1:2|0:0,0:0:0:0:
208,80,36756,2,0,B|176:128|134:122|143:107|94:96|71:131,1,149.999995422363,4|0,3:0|0:0,0:0:0:0:
51,207,37194,6,0,B|41:176|12:162|12:162|22:137|47:132|66:149|66:149|46:175|51:207,1,187.5,0|0,3:0|0:0,0:0:0:0:
31,353,37632,85,2,3:2:0:0:
82,252,37851,1,0,3:0:0:0:
179,230,38070,1,2,3:2:0:0:
244,288,38289,1,0,0:0:0:0:
206,352,38508,1,2,3:2:0:0:
148,326,38727,1,2,3:2:0:0:
207,274,38946,6,0,P|221:269|237:266,1,31.25,2|0,3:2|3:0,0:0:0:0:
274,260,39055,2,0,P|289:262|304:265,1,31.25,0|0,3:0|3:0,0:0:0:0:
334,276,39165,2,0,P|347:283|360:291,1,31.25,0|0,3:0|3:0,0:0:0:0:
381,306,39274,2,0,P|392:316|402:328,1,31.25,0|0,3:0|3:0,0:0:0:0:
436,370,39384,5,2,3:2:0:0:
512,169,39603,1,2,0:0:0:0:
473,288,39822,1,2,3:2:0:0:
496,183,40041,1,0,3:2:0:0:
467,267,40260,1,2,3:2:0:0:
411,198,40479,70,0,P|396:193|380:189,1,31.25,2|0,3:2|3:0,0:0:0:0:
341,128,40588,2,0,P|344:143|348:158,1,31.25,0|0,3:2|3:0,0:0:0:0:
312,231,40698,1,2,3:2:0:0:
300,247,40916,1,2,3:2:0:0:
163,236,41135,5,2,3:2:0:0:
209,113,41354,1,0,0:0:0:0:
126,12,41573,1,2,3:2:0:0:
80,135,41792,1,0,0:0:0:0:
159,217,42011,1,2,3:2:0:0:
196,114,42230,1,2,3:2:0:0:
130,31,42449,6,0,P|134:58|135:70,1,31.25,2|0,3:2|3:0,0:0:0:0:
141,99,42559,2,0,P|145:126|146:138,1,31.25,0|0,3:2|3:0,0:0:0:0:
150,160,42668,2,0,P|154:187|155:199,1,31.25,0|0,3:2|3:0,0:0:0:0:
159,217,42778,2,0,P|163:244|164:256,1,31.25,0|0,3:2|3:0,0:0:0:0:
167,266,42887,69,2,3:2:0:0:
273,101,43106,1,2,0:0:0:0:
396,148,43325,1,2,0:2:0:0:
369,44,43544,1,0,3:0:0:0:
381,138,43763,1,2,3:2:0:0:
476,58,43982,6,0,P|472:73|468:88,1,31.25,2|0,3:2|3:0,0:0:0:0:
501,153,44091,2,0,P|489:142|478:131,1,31.25,0|0,3:2|3:0,0:0:0:0:
397,127,44201,1,2,3:2:0:0:
461,55,44420,1,0,3:2:0:0:
512,171,44639,5,4,3:2:0:0:
324,271,44858,2,0,P|287:278|270:279,1,37.4999988555909,0|0,3:2|3:2,3:2:0:0:
216,289,44968,2,0,P|253:282|270:281,1,37.4999988555909,0|0,3:2|3:2,3:2:0:0:
256,200,45077,1,2,3:2:0:0:
286,358,45296,1,0,3:2:0:0:
0,229,45515,5,2,3:2:0:0:
188,129,45734,2,0,P|225:122|242:121,1,37.4999988555909,2|0,3:2|3:2,3:2:0:0:
296,111,45844,2,0,P|259:118|242:119,1,37.4999988555909,0|0,3:2|3:2,3:2:0:0:
256,200,45953,1,2,3:2:0:0:
226,42,46172,1,2,3:2:0:0:
500,176,46391,69,0,3:2:0:0:
293,98,46610,2,0,P|274:103|256:105,1,37.4999988555909,2|0,3:2|3:2,3:2:0:0:
184,117,46720,2,0,P|203:112|221:110,1,37.4999988555909,0|0,3:2|3:2,3:2:0:0:
223,30,46829,1,2,3:2:0:0:
253,188,47048,1,2,3:2:0:0:
0,217,47267,5,2,3:2:0:0:
215,275,47486,2,0,P|252:268|269:267,1,37.4999988555909,2|0,3:2|3:2,3:2:0:0:
323,257,47596,2,0,P|286:264|269:265,1,37.4999988555909,0|0,3:2|3:2,3:2:0:0:
283,346,47705,1,2,3:2:0:0:
500,176,47924,2,0,P|488:178|477:180,2,23.4375008940697,0|0|0,3:2|3:2|3:2,0:0:0:0:
253,188,48143,5,2,3:2:0:0:
341,71,48362,2,0,L|348:25,1,37.4999988555909,0|0,3:0|3:0,0:0:0:0:
262,59,48471,2,0,L|256:12,1,37.4999988555909,0|0,3:0|3:0,0:0:0:0:
192,94,48581,1,2,3:2:0:0:
343,279,48800,1,0,3:0:0:0:
486,163,49019,1,2,3:2:0:0:
244,295,49238,2,0,P|245:312|248:334,3,37.4999988555909,2|0|2|0,3:2|3:2|3:2|3:0,0:0:0:0:
234,213,49457,69,2,3:2:0:0:
157,159,49566,1,2,3:2:0:0:
64,176,49676,1,2,3:2:0:0:
20,258,49785,1,2,3:2:0:0:
107,271,49895,85,2,0:0:0:0:
152,261,50004,1,0,0:0:0:0:
146,270,50114,1,0,0:0:0:0:
143,255,50223,1,0,0:0:0:0:
135,289,50333,5,2,0:0:0:0:
125,244,50442,1,0,0:0:0:0:
133,250,50552,1,0,0:0:0:0:
118,253,50661,1,0,0:0:0:0:
152,261,50771,85,2,0:0:0:0:
107,271,50880,1,0,0:0:0:0:
113,263,50990,1,0,0:0:0:0:
116,278,51099,1,0,0:0:0:0:
125,244,51209,5,2,0:3:0:0:
135,289,51318,1,0,0:0:0:0:
126,283,51428,1,2,0:3:0:0:
141,280,51537,1,2,0:3:0:0:
49,132,51646,86,0,P|85:86|139:108,1,125,4|0,3:1|0:0,0:0:0:0:
323,81,51865,1,2,0:0:0:0:
205,165,51975,1,2,3:0:0:0:
256,18,52084,2,0,B|332:13|352:78|326:77|364:136|449:104,1,187.5,10|0,0:0|0:0,0:0:0:0:
495,129,52303,2,0,P|449:118|403:112,1,93.7500035762788,2|0,3:0|0:0,0:0:0:0:
416,27,52522,6,0,P|381:61|380:157,1,125,2|0,0:1|0:0,0:0:0:0:
302,172,52851,1,2,0:3:0:0:
443,288,52960,2,0,P|476:256|482:211,1,93.7500035762788,8|0,0:0|0:0,0:0:0:0:
402,111,53179,2,0,P|405:134|411:157,2,46.8750017881394,2|2|2,0:1|0:3|0:3,0:0:0:0:
335,377,53398,1,0,3:0:0:0:
345,384,53617,6,0,P|346:297|314:233,1,140.625005364418,2|2,0:0|3:0,0:0:0:0:
302,172,53836,2,0,B|268:163|292:131|282:110|282:110|286:135|324:142|302:170,1,140.625005364418,10|0,0:0|0:0,0:0:0:0:
443,288,54055,6,0,P|393:241|325:249,1,140.625005364418,2|0,3:0|0:0,0:0:0:0:
245,277,54493,2,0,P|227:252|225:222,1,62.5,2|2,3:2|0:3,0:0:0:0:
86,26,54712,53,10,0:2:0:0:
18,84,54822,1,2,0:0:0:0:
101,115,54931,5,2,3:0:0:0:
169,57,55041,1,2,0:3:0:0:
35,172,55150,6,0,P|97:175|115:118,1,125,4|0,3:2|0:0,0:0:0:0:
225,222,55369,2,0,P|236:130|181:49,1,187.500007152558,2|2,0:2|3:0,0:0:0:0:
95,12,55588,2,0,P|106:40|115:63,2,31.25,10|2|2,0:0|0:3|0:3,0:0:0:0:
39,155,55807,1,0,3:0:0:0:
26,164,56026,6,0,P|87:175|149:184,1,125,2|0,0:1|0:0,0:0:0:0:
213,234,56354,1,2,0:3:0:0:
397,85,56464,2,0,P|355:69|317:91,1,93.7500035762788,8|0,0:0|0:0,0:0:0:0:
466,160,56683,2,0,L|512:151,2,46.8750017881394,2|2|2,0:1|0:3|0:3,0:0:0:0:
243,59,56902,53,2,3:2:0:0:
278,176,57011,1,2,0:3:0:0:
151,137,57121,5,2,0:0:0:0:
202,213,57230,1,0,3:0:0:0:
119,230,57340,6,0,P|103:212|84:197,2,31.25,10|2|0,0:2|0:3|0:3,0:0:0:0:
103,331,57559,5,2,3:2:0:0:
0,292,57668,1,0,0:0:0:0:
91,344,57778,2,0,P|88:282|118:228,1,125,2|2,3:2|3:0,0:0:0:0:
145,203,58105,1,2,0:3:0:0:
215,239,58216,53,10,0:0:0:0:
205,79,58325,1,2,0:0:0:0:
289,169,58435,5,2,3:0:0:0:
327,76,58544,1,2,0:3:0:0:
464,213,58654,6,0,P|403:213|387:144,1,125,4|0,3:1|0:0,0:0:0:0:
273,0,58873,1,2,0:0:0:0:
399,28,58982,1,2,3:0:0:0:
295,156,59092,2,0,P|202:176|79:213,1,187.5,10|0,0:0|0:0,0:0:0:0:
113,201,59311,2,0,P|140:161|197:160,1,93.7500035762788,2|0,3:0|0:0,0:0:0:0:
19,191,59530,6,0,P|29:243|55:320,1,125,2|0,0:1|0:0,0:0:0:0:
139,369,59858,1,2,0:3:0:0:
262,271,59968,2,0,P|234:236|189:238,1,93.7500035762788,8|0,0:0|0:0,0:0:0:0:
30,187,60187,2,0,P|34:210|40:233,2,46.8750017881394,2|2|2,0:1|0:3|0:3,0:0:0:0:
144,355,60406,1,0,3:0:0:0:
342,169,60625,54,0,B|379:151|369:128|369:128|357:154|344:164,1,93.7500035762788,0|2,0:0|3:3,0:0:0:0:
182,151,60843,2,0,B|175:99|143:102|143:102|170:126|176:146,1,125,10|0,0:0|0:0,0:0:0:0:
267,109,61062,2,0,B|226:90|235:32|278:42|288:-8|288:-8|279:42|322:45|313:104|267:109,1,281.250010728836,2|0,3:0|0:0,0:0:0:0:
263,139,61500,6,0,P|256:184|274:227,1,93.7500035762788,2|2,3:2|0:3,0:0:0:0:
438,366,61719,1,10,0:2:0:0:
464,286,61829,1,2,0:2:0:0:
384,261,61938,1,2,3:3:0:0:
359,341,62048,1,2,0:3:0:0:
453,367,62157,6,0,P|488:267|470:226,1,125,4|0,3:1|0:0,0:0:0:0:
512,175,62376,2,0,P|441:97|345:102,1,187.500007152558,2|2,0:0|3:0,0:0:0:0:
281,137,62595,2,0,P|255:130|220:116,2,46.8750017881394,10|2|2,0:0|0:3|0:3,0:0:0:0:
183,46,62814,1,2,3:0:0:0:
317,229,63033,6,0,P|319:183|296:142,1,93.7500035762788,2|0,3:2|0:0,0:0:0:0:
218,117,63252,2,0,P|127:105|110:41,1,140.625005364418,2|2,3:2|0:3,0:0:0:0:
19,3,63471,2,0,P|61:72|55:158,1,140.625005364418,10|0,0:2|0:0,0:0:0:0:
29,209,63690,54,0,P|4:218|-15:230,2,31.25,0|2|2,3:0|0:3|0:3,0:0:0:0:
133,333,63909,5,2,3:2:0:0:
301,275,64019,1,2,0:0:0:0:
234,352,64128,5,2,0:0:0:0:
200,256,64238,1,2,3:0:0:0:
310,255,64347,5,10,0:0:0:0:
210,173,64457,1,2,0:0:0:0:
331,242,64566,1,2,3:3:0:0:
300,135,64676,1,2,0:3:0:0:
451,156,64785,70,0,B|469:133|469:133|427:97|439:26|439:26|426:97|372:109|372:109|378:136,1,281.250010728836,14|0,3:2|0:0,0:0:0:0:
251,48,65004,6,0,B|245:66|245:66|285:75|295:127|295:127|287:75|317:48|317:48|304:32,1,210.937508046627,10|0,3:2|0:0,0:0:0:0:
218,155,65223,6,0,B|218:141|218:141|193:138|174:109|174:109|185:142|173:164|173:164|185:173,1,140.625005364418,10|0,3:2|0:0,0:0:0:0:
155,244,65661,53,0,3:0:0:0:
141,264,66099,1,2,0:3:0:0:
100,136,66318,1,0,3:0:0:0:
35,358,66537,1,0,3:0:0:0:
57,351,66975,5,2,0:3:0:0:
104,120,67194,1,0,3:0:0:0:
16,230,67413,1,0,3:0:0:0:
25,241,67851,85,2,0:3:0:0:
119,133,68070,1,0,3:0:0:0:
384,91,68289,5,0,3:0:0:0:
358,178,68508,1,0,0:0:0:0:
295,112,68727,1,2,0:3:0:0:
320,25,68946,1,0,3:0:0:0:
506,131,69165,85,0,3:0:0:0:
498,146,69603,1,2,0:3:0:0:
301,15,69822,1,0,3:0:0:0:
196,117,70041,1,0,3:0:0:0:
202,135,70479,5,2,0:3:0:0:
30,161,70698,1,0,3:0:0:0:
66,250,70916,1,0,3:0:0:0:
58,271,71354,85,2,0:3:0:0:
157,317,71573,1,0,3:0:0:0:
363,217,71792,5,0,3:0:0:0:
300,82,72011,1,0,0:0:0:0:
179,138,72230,1,2,0:3:0:0:
231,215,72449,1,0,3:0:0:0:
489,136,72668,86,0,P|482:101|474:39,1,93.75,2|0,3:2|0:0,0:0:0:0:
490,63,73106,1,8,0:0:0:0:
391,13,73325,1,2,3:2:0:0:
246,60,73544,6,0,P|253:95|261:157,1,93.75,2|0,3:2|0:0,0:0:0:0:
245,133,73982,1,8,0:0:0:0:
343,183,74201,1,2,3:2:0:0:
145,0,74420,85,2,3:2:0:0:
108,79,74639,1,2,0:0:0:0:
89,84,74749,1,2,0:0:0:0:
103,98,74858,1,10,0:0:0:0:
15,29,75077,1,0,3:0:0:0:
192,100,75296,2,0,P|206:158|162:227,1,125,2|0,3:2|0:0,0:0:0:0:
31,233,75734,2,0,P|60:237|88:259,1,46.8750017881394,10|0,0:0|0:0,0:0:0:0:
103,237,75953,1,0,3:0:0:0:
53,328,76172,6,0,B|38:364|-4:355|-4:355|13:317|53:327,1,140.625005364418,2|0,3:2|0:0,0:0:0:0:
140,323,76610,2,0,P|166:298|203:300,1,74.9999977111817,10|0,0:0|0:0,0:0:0:0:
444,298,76829,2,0,P|456:253|444:208,1,93.7500035762788,0|0,3:0|0:0,0:0:0:0:
214,285,77048,86,0,P|265:329|267:405,1,125,2|0,3:2|0:0,0:0:0:0:
361,370,77486,1,10,0:0:0:0:
422,307,77705,1,0,3:0:0:0:
344,92,77924,6,0,P|324:33|351:91,1,187.500007152558,2|0,3:2|0:0,0:0:0:0:
147,171,78362,2,0,P|165:133|150:173,1,125,10|0,0:0|3:0,0:0:0:0:
61,48,78800,2,0,P|61:110|-5:100,1,125,2|0,3:2|0:0,0:0:0:0:
77,209,79238,86,0,P|185:150|296:138,1,200,10|0,0:0|3:0,0:0:0:0:
502,226,79676,5,4,3:0:0:0:
334,95,79895,1,0,0:0:0:0:
344,110,80004,1,0,0:0:0:0:
345,128,80114,1,8,1:2:0:0:
311,205,80333,1,2,3:2:0:0:
48,293,80552,85,2,3:2:0:0:
109,358,80771,1,0,0:0:0:0:
136,272,80989,1,8,1:2:0:0:
77,209,81208,1,0,3:0:0:0:
222,296,81427,6,0,P|291:311|362:322,1,125,2|0,3:2|0:0,0:0:0:0:
426,314,81756,1,2,0:0:0:0:
438,327,81865,1,10,1:2:0:0:
303,220,82084,1,0,3:0:0:0:
427,48,82303,86,0,P|458:101|442:168,1,125,2|0,3:2|0:0,0:0:0:0:
347,70,82741,2,0,P|340:37|365:-4,1,74.9999977111817,10|0,1:2|3:0,0:0:0:0:
303,216,83179,6,0,B|308:143|246:124|250:141|189:109|212:46,1,187.5,2|0,3:2|0:0,0:0:0:0:
219,209,83617,2,0,P|174:201|138:184,1,62.5,10|0,1:2|0:0,0:0:0:0:
17,7,83836,2,0,P|66:33|74:94,1,93.7500035762788,0|0,3:0|0:0,0:0:0:0:
148,174,84055,86,0,P|73:171|34:262,1,149.999995422363,2|0,3:2|0:0,0:0:0:0:
0,306,84493,2,0,P|32:356|92:354,1,125,10|0,1:2|3:0,0:0:0:0:
269,109,84931,6,0,P|233:218|228:311,1,187.500007152558,4|0,3:2|0:0,0:0:0:0:
371,133,85260,1,2,0:0:0:0:
355,144,85369,2,0,P|358:227|377:284,1,125,10|0,1:2|0:0,0:0:0:0:
504,208,85807,2,0,P|472:174|454:132,1,93.7500035762788,4|0,3:0|0:0,0:0:0:0:
292,23,86245,2,0,B|268:56|277:89|277:89|273:55|234:40,1,140.625005364418,2|0,3:2|0:0,0:0:0:0:
23,26,86683,5,2,3:2:0:0:
134,39,86902,1,0,3:0:0:0:
196,116,87121,1,2,3:2:0:0:
177,201,87340,1,0,0:0:0:0:
235,247,87559,1,2,3:2:0:0:
293,224,87778,1,2,3:2:0:0:
333,135,87997,6,0,P|340:118|343:87,1,31.25,2|0,3:2|3:0,0:0:0:0:
348,68,88106,2,0,P|362:56|380:31,1,31.25,0|0,3:2|3:0,0:0:0:0:
400,35,88216,2,0,P|418:32|446:19,1,31.25,0|0,3:2|3:0,0:0:0:0:
455,30,88325,2,0,P|472:37|503:40,1,31.25,0|0,3:2|3:0,0:0:0:0:
495,55,88435,69,2,3:2:0:0:
419,122,88654,1,2,0:0:0:0:
450,286,88873,1,2,3:2:0:0:
437,119,89092,1,2,3:2:0:0:
432,288,89311,1,2,3:2:0:0:
491,197,89530,6,0,L|452:202,1,31.25,0|0,3:0|3:0,3:0:0:0:
410,210,89639,2,0,L|371:215,1,31.25,0|0,3:0|3:0,3:0:0:0:
328,223,89749,1,0,3:3:0:0:
415,291,89968,1,0,3:0:0:0:
227,210,90187,5,2,3:2:0:0:
149,185,90296,1,2,0:2:0:0:
83,205,90406,1,2,0:2:0:0:
57,254,90515,1,0,0:0:0:0:
57,297,90625,1,2,3:2:0:0:
165,351,90844,1,0,0:0:0:0:
188,346,91062,1,2,3:2:0:0:
227,210,91281,1,2,3:2:0:0:
305,384,91500,70,0,P|316:357|323:344,1,31.25,2|0,3:2|3:0,0:0:0:0:
337,321,91610,2,0,P|360:303|372:296,1,31.25,0|0,3:2|3:0,0:0:0:0:
392,293,91719,2,0,P|420:289|435:289,1,31.25,0|0,3:2|3:0,0:0:0:0:
447,297,91829,2,0,P|473:308|486:315,1,31.25,0|0,3:2|3:0,0:0:0:0:
490,319,91938,6,0,P|504:273|500:248,1,62.5,2|2,3:2|0:0,0:0:0:0:
437,206,92157,1,2,0:2:0:0:
317,224,92376,1,2,0:2:0:0:
404,131,92595,1,0,3:0:0:0:
301,214,92814,1,2,3:2:0:0:
328,114,93033,6,0,P|310:90|303:78,1,31.25,0|0,3:2|3:0,0:0:0:0:
266,63,93143,2,0,P|277:36|284:23,1,31.25,0|0,3:2|3:0,0:0:0:0:
359,18,93252,1,0,3:0:0:0:
379,25,93471,1,2,3:2:0:0:
491,167,93690,5,4,3:2:0:0:
324,258,93909,2,0,P|310:270|295:282,1,37.4999988555909,0|0,3:2|3:2,3:2:0:0:
212,278,94019,2,0,P|229:283|247:290,1,37.4999988555909,0|0,3:2|3:2,3:2:0:0:
288,367,94128,1,2,3:2:0:0:
255,198,94347,1,0,3:0:0:0:
19,229,94566,69,2,3:2:0:0:
186,138,94785,2,0,P|199:125|214:113,1,37.4999988555909,2|0,3:2|3:2,3:2:0:0:
298,118,94895,2,0,P|280:112|262:105,1,37.4999988555909,0|0,3:2|3:2,3:2:0:0:
222,29,95004,1,2,3:2:0:0:
255,198,95223,1,0,3:0:0:0:
487,157,95442,5,2,3:2:0:0:
294,107,95661,2,0,P|276:101|258:94,1,37.4999988555909,0|0,3:0|3:2,3:2:0:0:
182,128,95771,2,0,P|195:115|210:103,1,37.4999988555909,0|0,3:2|3:2,3:2:0:0:
218,19,95880,1,2,3:2:0:0:
251,188,96099,1,0,3:2:0:0:
15,219,96318,5,2,3:2:0:0:
208,268,96537,2,0,P|225:273|243:280,1,37.4999988555909,2|0,3:2|3:2,3:2:0:0:
320,248,96647,2,0,P|306:260|291:272,1,37.4999988555909,0|0,3:2|3:2,3:2:0:0:
284,357,96756,1,2,3:2:0:0:
251,188,96975,2,0,L|246:144,2,37.4999988555909,0|0|0,3:0|3:0|3:0,0:0:0:0:
148,384,97194,69,2,3:2:0:0:
112,310,97303,1,2,0:2:0:0:
53,296,97413,2,0,P|47:272|58:237,2,37.4999988555909,2|0|0,3:2|3:2|3:2,0:0:0:0:
251,188,97632,1,2,3:2:0:0:
261,63,97851,6,0,P|230:69|178:76,1,74.9999977111817,2|0,3:2|0:0,0:0:0:0:
151,56,98070,1,2,3:2:0:0:
427,14,98289,6,0,P|451:8|486:19,3,37.4999988555909,2|0|0|0,3:2|3:2|3:2|3:2,0:0:0:0:
474,31,98508,2,0,P|463:113|460:150,1,93.7500035762788,2|2,3:2|3:2,0:0:0:0:
248,238,98727,2,0,P|237:156|234:119,1,93.7500035762788,2|2,3:2|3:2,0:0:0:0:
158,37,98946,37,2,0:0:0:0:
132,39,99055,1,0,0:0:0:0:
135,63,99165,1,0,0:0:0:0:
159,60,99274,1,0,0:0:0:0:
176,11,99384,5,2,0:0:0:0:
108,19,99493,1,0,0:0:0:0:
115,87,99603,1,0,0:0:0:0:
184,79,99712,1,0,0:0:0:0:
145,26,99822,85,2,0:0:0:0:
122,52,99931,1,0,0:0:0:0:
148,72,100041,1,0,0:0:0:0:
168,47,100150,1,0,0:0:0:0:
144,2,100260,5,2,0:3:0:0:
98,54,100369,1,0,0:0:0:0:
150,94,100479,1,2,0:3:0:0:
190,44,100588,1,2,0:3:0:0:
9,109,100698,6,0,P|22:176|88:145,1,125,4|0,3:1|0:0,0:0:0:0:
207,240,100916,1,2,0:0:0:0:
95,376,101026,1,2,3:0:0:0:
25,267,101135,2,0,P|131:289|182:360,1,187.5,10|0,0:0|0:0,0:0:0:0:
251,310,101354,2,0,P|222:346|177:347,1,93.7500035762788,2|0,3:0|0:0,0:0:0:0:
196,230,101573,22,0,P|246:219|279:208,1,62.5,2|0,0:1|0:0,0:0:0:0:
304,136,101792,1,0,0:0:0:0:
304,136,101902,1,2,0:3:0:0:
335,278,102011,2,0,P|391:293|452:319,1,93.7500035762788,10|0,0:0|0:0,0:0:0:0:
508,322,102230,2,0,P|500:344|501:364,2,31.25,2|2|2,0:1|0:3|0:3,0:0:0:0:
410,211,102449,1,0,3:0:0:0:
508,88,102668,6,0,B|495:106|491:124|491:124|424:99|351:151,1,156.25,2|2,0:0|3:0,0:0:0:0:
294,140,102887,2,0,B|297:159|305:172|305:172|249:198|236:275,1,112.499996566773,10|0,0:0|0:0,0:0:0:0:
190,281,103106,2,0,B|200:296|216:300|216:300|208:321|209:360|209:360|197:325|176:309|176:309|188:301|188:282,1,187.5,2|0,3:0|0:0,0:0:0:0:
113,254,103544,2,0,P|96:227|94:196,1,62.5,2|2,3:2|0:3,0:0:0:0:
378,133,103763,5,10,0:2:0:0:
250,226,103873,1,2,0:2:0:0:
315,61,103982,5,2,3:3:0:0:
285,148,104092,1,2,0:3:0:0:
223,41,104201,6,0,P|196:24|159:97,1,125,4|0,3:2|0:0,0:0:0:0:
43,248,104420,2,0,P|122:173|130:76,1,187.500007152558,2|2,0:0|3:0,0:0:0:0:
40,17,104639,2,0,P|53:47|74:54,2,46.8750017881394,10|2|2,0:0|0:3|0:3,0:0:0:0:
213,138,104858,1,2,3:0:0:0:
134,99,105077,6,0,P|177:55|259:72,1,125,2|0,0:1|0:0,0:0:0:0:
328,50,105406,1,2,0:3:0:0:
370,206,105515,2,0,P|340:241|294:221,1,93.7500035762788,8|0,0:0|0:0,0:0:0:0:
213,138,105734,2,0,L|267:149,2,31.25,2|2|2,0:1|0:3|0:3,0:0:0:0:
237,365,105953,22,0,P|242:296|196:253,1,125,2|0,3:2|0:0,0:0:0:0:
86,110,106172,1,2,0:2:0:0:
61,219,106281,1,2,3:0:0:0:
138,188,106391,6,0,P|136:142|94:112,1,93.7500035762788,10|0,0:0|0:0,0:0:0:0:
0,168,106610,2,0,P|29:189|73:169,1,62.5,2|0,3:3|0:0,0:0:0:0:
218,126,106829,5,2,3:2:0:0:
201,44,106938,1,2,0:2:0:0:
300,109,107048,5,2,0:2:0:0:
283,27,107157,1,2,3:3:0:0:
371,188,107267,5,10,0:2:0:0:
467,136,107376,1,2,0:2:0:0:
354,180,107486,1,2,3:3:0:0:
377,67,107595,1,2,0:3:0:0:
465,276,107705,6,0,P|427:255|380:325,1,125,4|0,3:1|0:0,0:0:0:0:
226,367,107924,1,2,0:0:0:0:
383,324,108033,1,2,3:0:0:0:
259,287,108143,2,0,P|156:269|70:257,1,187.5,10|0,0:0|0:0,0:0:0:0:
73,257,108362,2,0,P|58:206|88:169,1,93.7500035762788,2|0,3:0|0:0,0:0:0:0:
143,123,108581,22,0,P|173:116|204:110,1,62.5,2|0,0:1|0:0,0:0:0:0:
284,146,108800,1,0,0:0:0:0:
284,146,108909,1,2,0:3:0:0:
279,8,109019,2,0,P|333:18|385:31,1,93.7500035762788,8|0,0:0|0:0,0:0:0:0:
480,121,109238,2,0,P|456:115|438:113,2,31.25,2|2|2,0:1|0:3|0:3,0:0:0:0:
286,25,109457,1,0,3:0:0:0:
109,139,109676,6,0,B|89:138|85:114|85:114|108:119|110:140,1,74.9999977111817,0|2,0:0|3:0,0:0:0:0:
186,81,109895,2,0,B|164:67|175:37|175:37|197:58|187:83,1,93.7500035762788,10|0,0:0|0:0,0:0:0:0:
301,147,110114,2,0,B|347:132|354:47|301:25|301:25|306:56|292:81|279:64|258:114|294:147,1,281.250010728836,2|0,3:0|0:0,0:0:0:0:
291,161,110552,2,0,P|280:196|279:231,1,62.5,2|2,3:2|0:3,0:0:0:0:
93,271,110771,5,10,0:2:0:0:
17,243,110881,1,2,0:2:0:0:
80,189,110990,5,2,3:3:0:0:
156,218,111100,1,2,0:3:0:0:
86,355,111208,6,0,P|118:318|187:344,1,125,6|0,3:2|0:0,0:0:0:0:
284,369,111427,2,0,P|272:278|384:273,1,187.500007152558,2|2,0:0|3:0,0:0:0:0:
479,160,111646,2,0,P|505:168|502:212,2,46.8750017881394,10|2|2,0:2|0:3|0:3,0:0:0:0:
272,228,111865,1,2,3:0:0:0:
460,247,112084,6,0,P|424:201|488:168,1,125,2|0,3:2|0:0,0:0:0:0:
388,27,112303,2,0,P|390:100|302:47,1,187.500007152558,2|2,3:2|0:3,0:0:0:0:
159,24,112522,2,0,P|179:62|221:50,1,93.7500035762788,10|0,0:0|0:0,0:0:0:0:
282,105,112741,2,0,P|273:132|258:150,2,46.8750017881394,0|2|2,3:0|0:3|0:3,0:0:0:0:
178,246,112960,21,2,3:0:0:0:
47,202,113070,1,2,0:2:0:0:
136,156,113179,1,2,0:0:0:0:
89,288,113289,1,2,3:2:0:0:
267,254,113398,5,10,0:2:0:0:
166,340,113508,1,2,0:2:0:0:
277,267,113617,1,2,3:3:0:0:
252,378,113727,1,2,0:3:0:0:
388,319,113836,6,0,B|405:245|522:205|591:298|523:382|469:335,1,281.250010728836,12|0,3:2|0:0,0:0:0:0:
453,174,114055,6,0,B|479:158|444:86|357:110|354:207|400:242,1,210.937508046627,8|0,3:2|0:0,0:0:0:0:
255,272,114274,6,0,B|236:279|214:232|262:199|311:236|311:274,1,140.625005364418,8|0,3:2|0:0,0:0:0:0:
280,350,114712,85,2,0:0:0:0:
206,259,114931,1,0,0:0:0:0:
176,249,115041,1,0,0:0:0:0:
183,281,115150,1,2,0:0:0:0:
85,282,115369,1,0,0:0:0:0:
81,298,115479,1,0,0:0:0:0:
96,293,115588,1,2,0:0:0:0:
9,338,115807,1,2,0:0:0:0:
6,258,116026,1,10,0:0:0:0:
115,193,116245,1,0,0:0:0:0:
161,49,116464,5,2,0:0:0:0:
252,145,116683,1,0,0:0:0:0:
279,159,116792,1,0,0:0:0:0:
309,153,116902,1,2,0:0:0:0:
378,206,117121,1,0,0:0:0:0:
390,198,117230,1,0,0:0:0:0:
395,184,117340,1,2,0:0:0:0:
472,15,117559,1,10,0:0:0:0:
373,86,117778,1,10,0:0:0:0:
395,167,117997,1,0,0:0:0:0:
494,267,118216,85,2,0:0:0:0:
344,232,118435,1,0,0:0:0:0:
321,210,118545,1,0,0:0:0:0:
314,242,118654,1,2,0:0:0:0:
239,314,118873,1,0,0:0:0:0:
250,325,118983,1,0,0:0:0:0:
254,309,119092,1,2,0:0:0:0:
163,277,119311,1,0,0:0:0:0:
46,234,119530,1,10,0:0:0:0:
5,316,119749,1,2,0:0:0:0:
58,132,119968,5,2,0:0:0:0:
156,154,120187,1,0,0:0:0:0:
60,119,120406,1,2,0:0:0:0:
158,141,120625,2,0,P|233:157|282:168,1,112.499996566773,0|0,0:0|0:0,0:0:0:0:
347,181,121062,1,8,0:1:0:0:
347,181,121281,1,8,0:1:0:0:
181,225,121719,85,2,3:2:0:0:
55,317,121938,1,2,0:0:0:0:
95,229,122048,1,0,0:0:0:0:
151,307,122157,1,2,0:0:0:0:
64,310,122376,5,2,3:2:0:0:
96,240,122486,1,0,0:0:0:0:
140,302,122595,1,2,0:0:0:0:
9,243,122814,85,2,0:2:0:0:
109,383,123033,1,10,0:2:0:0:
181,225,123252,1,2,3:2:0:0:
306,0,123471,5,2,3:2:0:0:
212,72,123690,1,2,0:0:0:0:
292,120,123800,1,0,0:0:0:0:
380,91,123909,1,2,0:0:0:0:
220,64,124128,85,2,3:2:0:0:
292,108,124238,1,0,0:0:0:0:
371,81,124347,1,2,0:0:0:0:
144,110,124566,5,10,0:2:0:0:
306,0,124785,1,10,0:2:0:0:
432,147,125004,1,2,3:2:0:0:
266,218,125223,85,2,3:2:0:0:
466,250,125442,1,2,0:0:0:0:
371,276,125552,1,0,0:0:0:0:
470,278,125661,1,2,0:0:0:0:
310,377,125880,5,2,3:2:0:0:
386,356,125990,1,0,0:0:0:0:
306,354,126099,1,2,0:0:0:0:
493,261,126318,85,2,0:0:0:0:
266,218,126537,1,10,0:0:0:0:
289,369,126756,1,2,3:2:0:0:
64,187,126975,5,2,3:2:0:0:
186,248,127194,1,0,0:0:0:0:
123,128,127413,1,2,0:0:0:0:
198,165,127632,1,0,3:2:0:0:
192,81,127851,1,0,0:0:0:0:
396,30,128070,85,8,0:1:0:0:
412,35,128289,1,8,0:1:0:0:
480,89,128508,1,0,3:0:0:0:
482,176,128727,5,4,3:2:0:0:
409,194,128836,1,2,0:0:0:0:
378,241,128946,1,2,0:0:0:0:
380,278,129055,1,2,0:0:0:0:
389,294,129165,1,0,0:0:0:0:
500,360,129384,2,0,P|470:350|450:347,1,46.8750017881394,0|0,3:0|0:0,0:0:0:0:
374,299,129603,1,0,0:0:0:0:
240,368,129822,1,0,0:0:0:0:
262,338,129931,1,0,0:0:0:0:
299,337,130041,1,10,0:0:0:0:
273,256,130260,2,0,P|244:254|220:269,1,46.8750017881394,0|0,3:0|0:0,0:0:0:0:
377,382,130479,5,2,3:2:0:0:
435,286,130588,1,2,0:0:0:0:
403,197,130698,1,0,0:0:0:0:
329,181,130807,1,2,0:0:0:0:
295,136,130916,1,2,0:0:0:0:
428,28,131135,70,0,P|425:65|396:86,1,74.9999977111817,2|0,3:2|0:0,0:0:0:0:
252,209,131354,1,2,0:0:0:0:
236,212,131573,1,8,0:0:0:0:
39,120,131792,2,0,P|34:87|16:41,4,59.9999981689454,8|2|2|2|2,0:0|0:3|0:3|0:3|0:3,0:0:0:0:
15,213,132230,6,0,P|76:199|116:194,1,74.9999977111817,2|0,3:2|0:0,0:0:0:0:
208,131,132449,1,2,0:0:0:0:
130,28,132559,1,0,0:0:0:0:
111,39,132668,2,0,P|122:97|133:138,1,74.9999977111817,2|0,0:0|0:0,0:0:0:0:
144,126,132887,2,0,P|182:135|207:143,1,46.8750017881394,0|0,3:0|0:0,0:0:0:0:
283,191,133106,1,0,0:0:0:0:
413,96,133325,1,2,0:0:0:0:
439,102,133435,1,2,0:0:0:0:
420,121,133544,1,10,0:0:0:0:
490,172,133763,1,0,3:0:0:0:
370,8,133982,5,2,3:2:0:0:
311,104,134092,1,2,0:0:0:0:
377,187,134201,1,0,0:0:0:0:
457,161,134311,1,2,0:0:0:0:
461,107,134420,1,2,0:0:0:0:
283,191,134639,70,0,P|274:212|276:235,1,46.8750017881394,2|0,3:2|0:0,0:0:0:0:
344,302,134858,1,2,0:0:0:0:
32,230,135077,1,8,0:1:0:0:
49,221,135296,2,0,P|44:184|27:146,4,59.9999981689454,8|2|2|2|2,0:1|0:3|0:3|0:3|0:3,0:0:0:0:
117,135,135734,5,14,3:2:0:0:
231,77,135953,2,0,P|186:67|132:52,1,74.9999977111817,2|0,0:0|0:0,0:0:0:0:
79,35,136172,1,10,3:2:0:0:
165,279,136391,2,0,P|210:269|250:259,1,62.5,2|0,0:0|0:0,0:0:0:0:
272,253,136610,1,10,3:2:0:0:
318,76,136829,6,0,P|311:101|305:127,1,46.8750017881394,2|0,0:0|0:0,0:0:0:0:
302,154,137048,1,10,3:2:0:0:
383,279,137267,2,0,P|377:256|371:233,1,46.8750017881394,2|0,0:0|0:0,0:0:0:0:
365,218,137486,5,10,3:2:0:0:
415,97,137595,2,0,P|416:51|442:12,1,93.7500035762788,2|0,0:0|0:0,0:0:0:0:
279,187,137814,1,2,0:0:0:0:
302,154,137924,2,0,P|276:151|234:180,1,62.5,10|0,3:2|0:0,0:0:0:0:
160,169,138143,2,0,P|149:145|96:117,1,74.9999977111817,2|0,0:0|0:0,0:0:0:0:
18,18,138362,6,0,P|34:68|104:94,1,125,10|8,3:2|0:1,0:0:0:0:
383,177,138800,2,0,P|407:183|432:189,4,50,8|2|2|2|2,3:1|0:3|0:3|0:3|0:3,0:0:0:0:
322,235,139238,37,14,3:2:0:0:
356,343,139457,2,0,P|346:313|341:300,2,31.25,0|0|0,0:0|0:0|0:0,0:0:0:0:
253,139,139676,2,0,P|250:70|210:5,1,125,10|0,3:2|0:0,0:0:0:0:
17,152,140114,2,0,P|64:168|98:180,1,62.5,10|0,3:2|0:0,0:0:0:0:
227,248,140333,2,0,P|219:221|215:201,1,31.25,2|2,0:0|0:0,0:0:0:0:
209,253,140442,2,0,P|201:226|197:206,1,31.25,2|2,0:0|0:0,0:0:0:0:
192,258,140552,1,10,3:2:0:0:
239,336,140771,1,0,0:0:0:0:
407,288,140989,6,0,B|436:228|371:229|412:156,1,125,10|2,3:2|0:0,0:0:0:0:
184,225,141427,2,0,B|162:179|203:172|181:125,1,100,10|2,3:2|0:0,0:0:0:0:
357,99,141865,6,0,P|366:72|282:58,1,125,10|0,3:2|0:0,0:0:0:0:
105,151,142303,2,0,P|76:144|44:128,4,50,10|2|2|2|2,3:2|0:3|0:3|0:3|0:3,0:0:0:0:
225,283,142741,54,0,P|220:241|183:166,1,125,2|0,0:0|0:0,0:0:0:0:
184,167,143617,2,0,P|240:170|194:51,1,250,2|0,0:0|0:0,0:0:0:0:
199,50,144493,2,0,P|156:18|115:126,1,200,2|0,0:0|0:0,0:0:0:0:
103,115,145369,2,0,P|118:181|184:168,1,149.999995422363,2|0,0:0|0:0,0:0:0:0:
46,303,146245,5,2,0:0:0:0:
53,305,146464,1,2,0:0:0:0:
58,310,146683,1,2,0:3:0:0:
123,369,147121,2,0,P|138:345|142:296,1,75,2|2,0:1|0:1,0:0:0:0:
93,232,148216,1,0,0:0:0:0:
142,299,148435,1,2,0:3:0:0:
142,299,148654,2,0,P|140:336|136:348,1,50,2|0,0:3|0:0,0:0:0:0:
256,320,149311,1,2,0:0:0:0:
256,320,149530,1,0,0:0:0:0:
489,299,149749,5,2,0:0:0:0:
481,301,149968,1,2,0:0:0:0:
473,303,150187,1,2,0:3:0:0:
398,357,150625,2,0,P|392:319|385:282,1,75,2|2,0:1|0:1,0:0:0:0:
448,225,151500,1,2,0:0:0:0:
448,225,151938,1,2,0:3:0:0:
385,283,152157,2,0,P|392:319|397:357,1,75,2|0,0:3|0:0,0:0:0:0:
28,170,153252,85,2,0:0:0:0:
42,166,153471,1,2,0:0:0:0:
53,175,153690,1,2,0:3:0:0:
79,254,153909,2,0,P|101:245|118:242,1,25,0|2,0:0|0:3,0:0:0:0:
176,203,154128,2,0,B|190:146|143:162|164:99,1,100,2|8,0:0|0:0,0:0:0:0:
264,72,154785,1,0,0:0:0:0:
264,72,154895,1,2,0:0:0:0:
264,72,155004,6,0,P|254:46|259:70,1,100,0|2,0:0|0:3,0:0:0:0:
339,138,155661,1,2,0:0:0:0:
347,126,155771,2,0,P|397:113|437:109,1,75,2|0,0:3|0:0,0:0:0:0:
419,247,156318,1,10,0:0:0:0:
429,253,156537,2,0,P|423:278|422:288,1,25,2|0,0:0|0:0,0:0:0:0:
491,148,156756,85,2,0:0:0:0:
420,110,156975,1,2,0:0:0:0:
366,169,157194,1,2,0:3:0:0:
362,189,157413,2,0,P|336:180|322:180,1,25,0|2,0:0|0:3,0:0:0:0:
275,125,157632,5,2,0:0:0:0:
226,151,157851,1,0,0:0:0:0:
188,110,158070,1,10,0:0:0:0:
178,124,158289,2,0,P|157:129|142:132,1,25,2|0,0:0|0:0,0:0:0:0:
36,182,158508,85,4,0:0:0:0:
256,192,158617,12,4,159822,0:3:0:0:
236,66,160260,22,0,P|277:34|322:106,1,140.625005364418,4|0,3:1|0:0,0:0:0:0:
477,204,160479,1,2,0:0:0:0:
337,263,160588,1,2,3:0:0:0:
416,81,160698,2,0,B|431:145|372:187|370:157|293:193|328:276,1,210.937508046627,10|0,0:0|0:0,0:0:0:0:
279,365,160916,2,0,P|272:325|221:297,1,93.7500035762788,2|0,3:0|0:0,0:0:0:0:
169,225,161135,6,0,P|134:274|74:280,1,125,2|0,0:1|0:0,0:0:0:0:
0,228,161464,1,2,0:3:0:0:
0,0,161573,2,0,P|13:64|28:123,1,93.7500035762788,8|0,0:0|0:0,0:0:0:0:
92,176,161792,2,0,P|56:168|35:164,2,31.25,2|2|2,3:1|0:3|0:3,0:0:0:0:
0,333,162011,1,0,3:0:0:0:
136,379,162230,6,0,P|175:248|244:215,1,187.500007152558,2|2,0:0|3:0,0:0:0:0:
294,206,162449,2,0,B|320:233|338:192|364:190|364:190|338:200|310:168|294:204,1,156.25,10|0,0:0|0:0,0:0:0:0:
174,143,162668,6,0,B|181:103|88:69|52:165|85:232|168:249|212:224,1,281.250010728836,2|0,3:0|0:0,0:0:0:0:
267,287,163106,2,0,P|263:241|292:205,1,93.7500035762788,0|2,3:0|0:3,0:0:0:0:
497,105,163325,5,10,0:0:0:0:
377,204,163435,1,2,0:0:0:0:
400,18,163544,37,2,3:3:0:0:
362,97,163654,1,2,0:3:0:0:
257,39,163763,6,0,P|226:24|198:94,1,125,4|0,3:2|0:0,0:0:0:0:
182,209,163982,2,0,P|156:111|99:34,1,187.500007152558,0|2,0:0|3:0,0:0:0:0:
0,79,164201,2,0,P|24:93|57:75,2,46.8750017881394,10|2|2,0:0|0:3|0:3,0:0:0:0:
112,143,164420,1,2,3:0:0:0:
30,290,164639,6,0,P|84:278|111:276,1,62.5,2|0,0:1|0:0,0:0:0:0:
165,233,164858,1,0,3:0:0:0:
165,233,164968,1,2,0:3:0:0:
295,117,165077,2,0,P|276:185|266:247,1,93.7500035762788,8|0,0:0|0:0,0:0:0:0:
181,351,165296,2,0,P|176:337|169:322,2,31.25,2|2|2,0:1|0:3|0:3,0:0:0:0:
280,233,165515,5,2,3:0:0:0:
334,373,165625,1,2,0:0:0:0:
372,235,165734,1,2,0:0:0:0:
453,290,165844,1,2,3:0:0:0:
431,168,165953,2,0,P|410:142|386:132,2,46.8750017881394,10|2|2,0:0|0:3|0:3,0:0:0:0:
505,104,166172,5,2,3:2:0:0:
376,48,166281,1,2,0:2:0:0:
467,6,166391,1,2,3:0:0:0:
428,185,166500,2,0,P|389:143|303:127,1,125,0|2,0:0|3:0,0:0:0:0:
165,76,166829,37,10,0:2:0:0:
264,188,166938,1,2,0:2:0:0:
121,248,167048,5,2,3:3:0:0:
213,261,167157,1,2,0:3:0:0:
31,326,167267,6,0,P|60:268|143:307,1,140.625005364418,4|0,3:1|0:0,0:0:0:0:
334,234,167486,1,2,0:0:0:0:
179,346,167595,1,2,3:0:0:0:
331,384,167705,2,0,P|314:286|256:178,1,210.937508046627,10|0,0:0|0:0,0:0:0:0:
233,85,167924,2,0,P|200:128|147:118,1,93.7500035762788,2|0,3:0|0:0,0:0:0:0:
91,86,168143,6,0,B|28:79|71:21|0:11,1,125,2|0,0:1|3:0,0:0:0:0:
160,141,168471,1,2,0:3:0:0:
85,255,168581,2,0,P|33:277|-17:305,1,93.7500035762788,8|0,0:0|0:0,0:0:0:0:
263,187,168800,2,0,P|289:173|305:167,2,31.25,2|2|2,3:1|0:3|0:3,0:0:0:0:
97,236,169019,1,0,3:0:0:0:
198,282,169238,6,0,B|172:272|161:303|161:303|180:291|210:284,1,93.7500035762788,2|2,0:0|3:0,0:0:0:0:
249,201,169457,2,0,B|242:156|187:167|187:167|224:170|255:221,1,140.625005364418,10|0,0:0|0:0,0:0:0:0:
434,200,169676,2,0,B|491:213|469:341|412:340|407:357|407:357|407:340|350:324|372:191|429:200,1,375,2|0,3:0|0:0,0:0:0:0:
434,189,170114,2,0,P|434:154|415:118,1,62.5,0|2,3:0|0:3,0:0:0:0:
319,7,170333,37,10,0:2:0:0:
202,25,170442,1,2,0:2:0:0:
234,114,170552,1,2,3:3:0:0:
322,101,170661,1,2,0:3:0:0:
186,24,170771,6,0,P|145:12|114:78,1,93.7500035762788,6|0,3:2|0:0,0:0:0:0:
35,91,170989,2,0,P|45:187|143:259,1,187.500007152558,0|2,0:0|3:0,0:0:0:0:
186,286,171208,2,0,P|199:309|198:351,2,46.8750017881394,10|2|2,0:0|0:3|0:3,0:0:0:0:
5,276,171427,1,2,3:0:0:0:
277,383,171646,6,0,P|300:332|360:323,1,93.7500035762788,2|0,3:2|0:0,0:0:0:0:
415,328,171865,2,0,P|488:263|491:189,1,140.625005364418,2|2,3:2|0:3,0:0:0:0:
508,143,172084,2,0,P|473:88|394:79,1,125,10|0,0:0|0:0,0:0:0:0:
328,2,172303,2,0,P|338:26|341:54,2,46.8750017881394,0|2|2,0:0|0:3|0:3,0:0:0:0:
422,157,172522,5,2,3:0:0:0:
266,75,172632,1,2,0:2:0:0:
345,194,172741,1,2,0:0:0:0:
242,237,172851,1,2,3:2:0:0:
218,145,172960,5,10,0:2:0:0:
320,280,173070,1,2,0:2:0:0:
200,151,173179,1,2,3:3:0:0:
138,229,173289,1,2,0:3:0:0:
40,94,173398,6,0,B|6:78|-37:132|15:204|106:173|116:126,1,210.937508046627,14|0,3:2|0:0,0:0:0:0:
265,75,173617,38,0,B|295:9|417:-5|465:99|379:160|342:118,1,281.250010728836,10|0,3:2|0:0,0:0:0:0:
179,72,173836,6,0,B|178:49|189:32|189:32|178:4|152:-6|152:-6|135:17|145:49|145:49|169:54|179:72,1,187.5,10|0,3:2|0:0,0:0:0:0:
190,100,174274,6,0,B|188:194|239:183|225:285,1,187.500007152558,4|0,3:1|0:0,0:0:0:0:
183,356,174603,1,2,0:0:0:0:
323,225,174712,2,0,P|316:262|302:286,2,46.8750017881394,8|2|2,0:0|0:3|0:3,0:0:0:0:
293,362,174931,2,0,P|358:341|395:283,1,140.625005364418,2|0,3:2|0:3,0:0:0:0:
410,269,175369,6,0,P|440:264|475:257,1,46.8750017881394,2|0,0:0|0:0,0:0:0:0:
511,193,175588,1,10,0:0:0:0:
382,96,175698,2,0,P|352:91|275:84,1,93.7500035762788,0|2,0:0|0:3,0:0:0:0:
66,261,175916,1,2,0:3:0:0:
77,238,176026,6,0,P|35:162|50:44,1,187.500007152558,2|0,3:2|0:0,0:0:0:0:
97,4,176354,1,2,0:3:0:0:
120,113,176464,2,0,P|125:137|129:161,2,50,8|2|2,0:0|0:3|0:3,0:0:0:0:
208,211,176683,2,0,P|215:118|172:36,1,187.500007152558,2|0,3:2|0:0,0:0:0:0:
120,113,177121,6,0,P|124:137|129:161,1,50,2|0,0:3|0:0,0:0:0:0:
132,252,177340,1,10,0:0:0:0:
271,339,177449,2,0,P|279:276|286:238,1,93.7500035762788,2|0,0:3|0:0,0:0:0:0:
458,89,177668,1,2,0:3:0:0:
312,137,177778,6,0,P|369:90|482:75,1,187.500007152558,2|0,3:2|0:0,0:0:0:0:
512,154,178106,1,2,0:0:0:0:
375,56,178216,2,0,P|364:18|349:-6,2,46.8750017881394,8|2|2,0:0|0:3|0:3,0:0:0:0:
357,216,178435,2,0,P|301:226|225:130,1,187.5,2|0,3:2|0:0,0:0:0:0:
175,10,178873,5,2,0:0:0:0:
193,100,178982,1,0,0:0:0:0:
133,160,179092,1,8,0:0:0:0:
84,161,179201,1,2,0:0:0:0:
65,190,179311,2,0,P|58:209|66:230,2,31.25,2|0|2,0:3|0:0|0:3,0:0:0:0:
312,137,179530,6,0,P|235:179|200:282,1,187.500007152558,2|0,3:2|0:0,0:0:0:0:
132,361,179858,1,2,0:0:0:0:
96,209,179968,2,0,P|107:245|119:264,2,46.8750017881394,8|2|2,0:0|0:3|0:3,0:0:0:0:
241,353,180187,2,0,P|213:268|171:174,1,187.5,2|0,3:2|0:0,0:0:0:0:
105,123,180625,6,0,P|93:82|112:52,1,62.5,2|0,0:0|0:0,0:0:0:0:
393,9,180843,1,10,0:0:0:0:
321,62,180953,2,0,P|316:39|310:12,1,31.25,2|2,0:3|0:3,0:0:0:0:
336,74,181062,2,0,P|358:81|384:89,1,31.25,0|0,0:0|0:0,0:0:0:0:
318,80,181172,2,0,P|300:95|280:114,1,31.25,8|2,0:0|0:3,0:0:0:0:
197,169,181281,6,0,B|234:176|247:78|163:51|85:111|105:189,1,250,4|0,3:1|0:0,0:0:0:0:
22,263,181610,1,2,0:0:0:0:
148,290,181719,2,0,P|129:240|75:216,1,93.7500035762788,10|0,0:0|0:0,0:0:0:0:
21,177,181938,1,2,3:3:0:0:
316,282,182157,6,0,B|350:288|362:200|287:176|216:230|234:300,1,224.999993133545,2|0,0:0|0:0,0:0:0:0:
162,371,182486,1,2,0:0:0:0:
283,375,182595,2,0,P|259:334|223:319,1,84.3750003218651,10|2,0:0|0:3,0:0:0:0:
148,290,182814,2,0,P|128:295|98:323,2,42.1875001609325,2|2|2,3:3|0:3|0:3,0:0:0:0:
499,189,183033,5,2,3:0:0:0:
405,161,183143,1,2,0:2:0:0:
339,210,183252,1,2,0:2:0:0:
340,261,183362,1,2,0:2:0:0:
383,282,183471,1,10,0:0:0:0:
443,360,183690,2,0,P|435:333|383:305,1,84.3750003218651,2|0,3:0|0:0,0:0:0:0:
323,120,183909,6,0,P|277:129|247:189,1,84.3750003218651,2|0,0:0|0:0,0:0:0:0:
174,179,184128,2,0,P|179:202|218:228,1,62.5,0|0,0:0|0:0,0:0:0:0:
178,79,184347,6,0,P|149:87|120:90,1,46.8750017881394,10|2,0:0|0:3,0:0:0:0:
104,110,184457,2,0,P|75:118|46:121,1,46.8750017881394,2|2,0:3|0:3,0:0:0:0:
30,141,184566,1,2,3:2:0:0:
240,8,184785,6,0,P|294:51|294:172,1,187.500007152558,2|0,3:2|0:0,0:0:0:0:
238,228,185114,1,2,0:3:0:0:
186,75,185223,2,0,P|201:30|239:8,1,93.7500035762788,8|0,0:0|0:0,0:0:0:0:
479,124,185442,2,0,P|386:109|294:91,1,187.5,2|0,3:2|0:0,0:0:0:0:
268,88,185880,2,0,P|256:147|251:167,1,62.5,2|0,0:3|0:0,0:0:0:0:
238,228,186099,1,10,0:0:0:0:
463,206,186208,2,0,P|477:251|488:297,1,93.7500035762788,2|2,0:3|0:0,0:0:0:0:
357,384,186427,1,0,0:0:0:0:
272,376,186537,6,0,P|217:332|217:211,1,187.500007152558,2|0,3:2|0:0,0:0:0:0:
274,156,186866,1,2,0:3:0:0:
326,309,186975,2,0,P|311:354|273:376,1,93.7500035762788,8|0,0:0|0:0,0:0:0:0:
33,260,187194,2,0,P|125:274|217:292,1,187.5,2|0,3:2|0:0,0:0:0:0:
243,295,187632,2,0,P|256:237|261:217,1,62.5,10|0,0:0|0:0,0:0:0:0:
512,224,187851,2,0,P|466:213|421:199,1,93.7500035762788,8|2,0:0|0:0,0:0:0:0:
24,118,188070,1,0,3:0:0:0:
107,95,188179,1,8,3:2:0:0:
116,78,188289,38,0,B|112:46|96:29|96:29|101:19|101:19|125:41|130:80|130:80|177:141|262:130|271:95|254:90|307:60|345:68|345:68|292:20|228:22|202:56|202:56|214:137|140:181|93:173|93:173|61:248|95:358|191:366|191:366|201:380|202:366|202:366|273:321|262:216|235:195|235:195|145:214|46:158|38:86|38:86|-12:106|23:123|13:166|13:166|22:136|56:113,1,1574.99995193482,4|0,3:0|0:0,0:0:0:0:
176,281,191792,85,2,3:2:0:0:
169,296,192230,1,2,0:3:0:0:
99,356,192449,1,2,3:2:0:0:
255,329,192668,1,2,3:2:0:0:
246,343,193106,5,2,0:3:0:0:
358,280,193325,1,2,3:2:0:0:
429,339,193544,1,2,3:2:0:0:
426,353,193982,85,2,0:3:0:0:
498,236,194201,1,0,3:0:0:0:
416,216,194420,1,2,3:2:0:0:
474,151,194858,2,0,P|482:118|486:105,7,31.25,2|0|0|0|0|0|0|0,0:3|0:0|0:0|0:0|0:0|0:0|0:0|0:0,0:0:0:0:
416,216,195296,6,0,B|390:257|401:306|401:306|388:260|344:236,1,187.5,2|0,3:2|0:0,0:0:0:0:
358,150,195734,2,0,P|349:114|292:43,1,125,2|0,0:3|3:0,0:0:0:0:
190,196,196172,1,2,3:2:0:0:
114,243,196610,1,2,0:3:0:0:
24,66,197048,85,2,3:2:0:0:
124,79,197486,1,2,0:3:0:0:
161,157,197924,1,0,3:0:0:0:
156,172,198033,1,2,0:0:0:0:
145,160,198143,1,2,0:0:0:0:
119,244,198362,2,0,B|196:234|209:313|187:315|205:357|252:350,1,187.5,2|0,0:0|0:0,0:0:0:0:
325,379,198800,5,4,3:0:0:0:
333,364,199238,1,2,1:3:0:0:
400,185,199457,1,2,3:2:0:0:
459,310,199676,1,2,3:2:0:0:
470,313,200114,85,2,1:3:0:0:
378,279,200333,1,2,3:2:0:0:
329,120,200552,1,2,3:2:0:0:
337,108,200989,5,2,1:3:0:0:
214,76,201208,1,2,3:2:0:0:
175,162,201427,1,2,3:2:0:0:
96,191,201865,2,0,P|79:183|55:174,7,31.25,2|0|0|0|0|0|0|0,1:3|0:0|0:0|0:0|0:0|0:0|0:0|0:0,0:0:0:0:
175,162,202303,86,0,P|224:230|148:253,1,187.5,2|0,3:2|0:0,0:0:0:0:
7,326,202741,2,0,P|55:357|93:314,1,125,2|0,1:3|3:0,0:0:0:0:
96,191,203179,5,2,3:2:0:0:
150,254,203617,1,2,1:3:0:0:
225,285,204055,86,0,B|245:191|343:259|357:157,1,187.500007152558,4|0,3:2|0:0,0:0:0:0:
178,195,204493,2,0,B|136:131|229:114|180:50,1,143.750002741814,2|0,1:2|0:0,0:0:0:0:
83,157,204931,2,0,B|40:135|85:96|38:76,1,93.7500035762788,8|0,3:2|0:0,0:0:0:0:
43,78,205369,54,0,B|31:47|14:40|14:40|30:31|34:-1|34:-1|45:29|62:35|62:35|47:45|43:73,1,187.500007152558,4|0,0:3|0:0,0:0:0:0:
