osu file format v14

[General]
AudioFilename: audio.ogg
AudioLeadIn: 0
PreviewTime: 146129
Countdown: 0
SampleSet: Soft
StackLeniency: 0.8
Mode: 0
LetterboxInBreaks: 0
WidescreenStoryboard: 1

[Editor]
Bookmarks: 9597,23611,37626,51640,65655,72662,86677,100692,114706,128721,142735,146239,153246,160254,174268,188283,191786,205801
DistanceSpacing: 1
BeatDivisor: 4
GridSize: 8
TimelineZoom: 2

[Metadata]
Title:Brownie
TitleUnicode:ブラウニー
Artist:Wanuka
ArtistUnicode:和ぬか
Creator:soncak
Version:Normal
Source:
Tags:japanese pop jpop j-pop 100kai outo 100回嘔吐 100kaiouto aonisai greenhorn 青二才 bars247 chills
BeatmapID:3981520
BeatmapSetID:1912417

[Difficulty]
HPDrainRate:4
CircleSize:3
OverallDifficulty:4
ApproachRate:5
SliderMultiplier:1.5
SliderTickRate:1

[Events]
//Background and Video events
0,0,"brownie.jpg",0,0
Video,380,"brownie.mp4"
//Break Periods
2,65423,71468
2,114474,120519
2,146245,152052
//Storyboard Layer 0 (Background)
//Storyboard Layer 1 (Fail)
//Storyboard Layer 2 (Pass)
//Storyboard Layer 3 (Foreground)
//Storyboard Layer 4 (Overlay)
//Storyboard Sound Samples

[TimingPoints]
844,437.956204379562,4,2,1,60,1,0
844,-125,4,2,1,60,0,0
6975,-181.818181818182,4,2,1,60,0,0
9603,-142.857142857143,4,2,1,55,0,0
12723,-142.857142857143,4,2,1,40,0,0
13106,-142.857142857143,4,2,1,55,0,0
19730,-142.857142857143,4,2,1,40,0,0
20114,-142.857142857143,4,2,1,55,0,0
21865,-142.857142857143,4,2,1,65,0,0
22303,-142.857142857143,4,2,1,60,0,0
22741,-142.857142857143,4,2,1,55,0,0
23179,-142.857142857143,4,2,1,50,0,0
23617,-125,4,2,1,60,0,0
30187,-117.647058823529,4,2,1,65,0,0
35880,-117.647058823529,4,2,1,70,0,0
36318,-117.647058823529,4,2,1,65,0,0
36756,-117.647058823529,4,2,1,60,0,0
37194,-117.647058823529,4,2,1,30,0,0
37632,-142.857142857143,4,2,4,55,0,0
44639,-125,4,2,4,55,0,0
44858,-125,4,2,4,65,0,0
49895,-133.333333333333,4,2,1,40,0,0
51646,-95.2380952380952,4,2,2,85,0,1
53179,-95.2380952380952,4,2,3,85,0,1
53398,-95.2380952380952,4,2,2,85,0,1
56683,-95.2380952380952,4,2,3,85,0,1
56902,-95.2380952380952,4,2,2,85,0,1
60187,-95.2380952380952,4,2,3,85,0,1
60406,-95.2380952380952,4,2,2,85,0,1
65661,-100,4,2,1,55,0,0
72668,-125,4,2,1,60,0,0
79676,-117.647058823529,4,2,1,65,0,0
86245,-100,4,2,1,30,0,0
86683,-133.333333333333,4,2,4,55,0,0
93690,-125,4,2,4,70,0,0
98946,-133.333333333333,4,2,1,40,0,0
100698,-95.2380952380952,4,2,2,85,0,1
102230,-95.2380952380952,4,2,3,85,0,1
102449,-95.2380952380952,4,2,2,85,0,1
105734,-95.2380952380952,4,2,3,85,0,1
105953,-95.2380952380952,4,2,2,85,0,1
109238,-95.2380952380952,4,2,3,85,0,1
109457,-95.2380952380952,4,2,2,85,0,1
114712,-100,4,2,5,45,0,0
121062,-125,4,2,5,55,0,0
128727,-133.333333333333,4,2,5,55,0,0
135734,-117.647058823529,4,2,5,60,0,0
142741,-133.333333333333,4,2,1,40,0,0
143617,-133.333333333333,4,2,1,45,0,0
144493,-133.333333333333,4,2,1,40,0,0
145369,-133.333333333333,4,2,1,35,0,0
147121,-133.333333333333,4,2,2,35,0,0
147778,-133.333333333333,4,2,3,35,0,0
148435,-133.333333333333,4,2,1,35,0,0
150625,-133.333333333333,4,2,2,35,0,0
151281,-133.333333333333,4,2,3,35,0,0
151938,-133.333333333333,4,2,1,35,0,0
153252,-166.666666666667,4,2,1,40,0,0
160260,-83.3333333333333,4,2,2,90,0,1
161792,-83.3333333333333,4,2,3,90,0,1
162011,-83.3333333333333,4,2,2,90,0,1
165296,-83.3333333333333,4,2,3,90,0,1
165515,-83.3333333333333,4,2,2,90,0,1
168800,-83.3333333333333,4,2,3,90,0,1
169019,-83.3333333333333,4,2,2,90,0,1
174274,-100,4,2,3,75,0,0
181281,-111.111111111111,4,2,3,75,0,0
184785,-100,4,2,3,75,0,0
188289,-100,4,2,1,60,0,0
191792,-200,4,2,1,50,0,0
194913,-200,4,2,1,40,0,0
195296,-200,4,2,1,50,0,0
198800,-166.666666666667,4,2,1,50,0,0
201920,-166.666666666667,4,2,1,40,0,0
202303,-166.666666666667,4,2,1,50,0,0

[Colours]
Combo1 : 105,197,135
Combo2 : 203,172,152
Combo3 : 156,116,86
Combo4 : 188,119,73
Combo5 : 208,86,68
Combo6 : 220,194,116
Combo7 : 125,166,196

[HitObjects]
39,69,844,6,0,L|165:53,1,120,4|8,3:2|0:0,0:0:0:0:
220,46,1500,1,2,3:2:0:0:
220,46,1719,2,0,L|204:165,1,120,0|8,3:2|0:0,0:0:0:0:
189,284,2595,6,0,P|275:287|305:242,1,120,2|8,3:2|0:0,0:0:0:0:
330,219,3252,1,0,3:0:0:0:
330,219,3471,2,0,P|416:215|446:260,1,120,2|8,3:2|0:0,0:0:0:0:
479,347,4347,5,2,3:2:0:0:
362,376,4785,2,0,P|332:365|302:376,1,60,8|0,0:0|3:0,0:0:0:0:
252,345,5223,2,0,L|267:225,1,120,2|8,3:2|0:0,0:0:0:0:
378,184,6099,1,8,0:0:0:0:
285,107,6537,1,8,0:0:0:0:
163,153,6975,70,0,B|249:146|308:49|236:-22|169:2|163:56|163:56|125:6|53:66|100:104,1,412.500012588501,12|2,0:0|0:3,0:0:0:0:
36,184,9603,5,2,3:2:0:0:
187,243,10260,1,2,3:2:0:0:
187,243,10479,1,2,3:2:0:0:
60,344,11135,1,2,3:2:0:0:
60,344,11354,1,2,3:2:0:0:
86,242,11792,2,0,P|95:195|99:166,1,52.4999983978272,2|0,0:3|3:2,0:0:0:0:
103,138,12230,2,0,P|143:105|205:117,1,104.999996795654,2|2,3:2|0:3,0:0:0:0:
282,53,13106,86,0,P|329:62|407:76,2,104.999996795654,2|2|2,3:2|0:3|3:2,0:0:0:0:
283,158,14420,1,2,0:3:0:0:
385,182,14858,2,0,P|442:211|463:244,1,104.999996795654,2|2,3:2|0:3,0:0:0:0:
451,350,15734,1,2,3:2:0:0:
369,285,16172,1,2,0:3:0:0:
385,182,16610,5,2,3:2:0:0:
501,74,17267,1,2,3:2:0:0:
501,74,17486,1,2,3:2:0:0:
351,27,18143,1,2,3:2:0:0:
351,27,18362,1,2,3:2:0:0:
297,117,18800,2,0,L|233:133,1,52.4999983978272,2|0,0:3|3:0,0:0:0:0:
195,143,19238,2,0,P|193:200|226:242,1,104.999996795654,2|2,3:2|0:3,0:0:0:0:
191,339,20114,86,0,L|76:367,2,104.999996795654,2|2|2,3:2|0:3|3:2,0:0:0:0:
292,311,21427,1,2,0:3:0:0:
219,237,21865,5,6,3:2:0:0:
311,167,22303,1,2,3:2:0:0:
374,261,22741,2,0,P|425:262|449:216,1,104.999996795654,2|4,3:2|0:3,0:0:0:0:
488,92,23617,86,0,L|361:68,1,120,2|8,3:2|0:0,0:0:0:0:
314,62,24274,1,2,3:2:0:0:
314,62,24493,1,2,3:2:0:0:
340,179,24931,2,0,L|276:191,1,60,8|2,0:0|3:2,0:0:0:0:
222,203,25369,2,0,P|164:189|114:219,1,120,2|8,3:2|0:0,0:0:0:0:
59,231,26026,1,2,3:2:0:0:
59,231,26245,1,2,3:2:0:0:
77,349,26683,2,0,P|106:332|141:342,1,60,8|0,0:0|3:0,0:0:0:0:
188,353,27121,6,0,L|212:226,1,120,2|8,3:2|0:0,0:0:0:0:
228,175,27778,1,0,3:0:0:0:
228,175,27997,1,2,3:2:0:0:
317,94,28435,2,0,P|335:130|332:159,1,60,8|0,0:0|3:0,0:0:0:0:
355,205,28873,1,2,3:2:0:0:
472,179,29311,1,8,0:0:0:0:
446,62,29749,1,2,3:2:0:0:
329,88,30187,1,8,3:2:0:0:
211,161,30625,86,0,P|129:181|65:200,1,127.50000243187,4|8,3:3|1:2,0:0:0:0:
33,172,31281,1,2,3:2:0:0:
33,172,31500,1,2,3:2:0:0:
71,50,31938,2,0,L|141:33,1,63.7500012159348,8|2,1:2|3:2,0:0:0:0:
195,49,32376,2,0,P|212:110|226:172,1,127.50000243187,2|8,3:2|1:2,0:0:0:0:
257,296,33252,2,0,L|327:313,1,63.7500012159348,2|2,3:2|0:0,0:0:0:0:
381,326,33690,1,8,1:2:0:0:
450,220,34128,6,0,P|414:191|326:206,1,127.50000243187,2|8,3:2|1:2,0:0:0:0:
279,182,34785,1,0,3:0:0:0:
279,182,35004,2,0,P|250:218|265:306,1,127.50000243187,2|8,3:2|1:2,0:0:0:0:
144,379,35880,1,6,3:2:0:0:
121,240,36318,1,10,1:2:0:0:
97,101,36756,1,4,3:0:0:0:
36,297,37632,6,0,P|116:312|155:322,1,104.999996795654,2|2,3:2|3:2,0:0:0:0:
228,372,38508,2,0,P|271:361|296:360,1,52.4999983978272,2|2,3:2|3:2,0:0:0:0:
331,358,38946,2,0,P|340:316|405:294,1,104.999996795654,2|2,3:2|3:2,0:0:0:0:
489,331,39822,1,2,3:2:0:0:
478,226,40260,1,2,3:2:0:0:
379,189,40698,1,2,3:2:0:0:
291,246,41135,6,0,P|256:264|200:234,1,104.999996795654,2|2,3:2|3:2,0:0:0:0:
97,255,42011,2,0,P|66:267|28:280,1,52.4999983978272,2|2,3:2|3:2,0:0:0:0:
3,244,42449,2,0,P|16:183|26:134,1,104.999996795654,2|2,3:2|3:2,0:0:0:0:
105,73,43325,1,2,0:2:0:0:
201,113,43763,1,2,3:2:0:0:
280,44,44201,1,2,3:2:0:0:
393,83,44639,70,0,P|424:62|461:64,1,60,4|0,3:2|3:2,0:0:0:0:
499,87,45077,2,0,P|488:138|468:219,1,120,2|2,3:2|3:2,0:0:0:0:
457,262,45734,1,2,3:2:0:0:
457,262,45953,1,2,3:2:0:0:
304,357,46610,5,2,3:2:0:0:
244,346,46829,2,0,P|249:320|259:280,2,60,2|2|2,3:2|3:2|3:2,0:0:0:0:
184,335,47486,1,2,3:2:0:0:
184,335,47705,1,2,3:2:0:0:
74,260,48143,5,2,3:2:0:0:
109,133,48581,2,0,P|129:107|218:123,1,120,2|2,3:2|3:2,0:0:0:0:
262,159,49238,1,2,3:2:0:0:
262,159,49457,1,2,3:2:0:0:
340,44,49895,54,0,P|376:37|470:22,3,112.500004291535,2|2|2|2,0:0|0:0|0:0|0:3,0:0:0:0:
474,163,51646,5,4,3:1:0:0:
420,175,51865,1,2,0:0:0:0:
365,185,52084,1,10,0:0:0:0:
258,251,52522,2,0,B|236:208|263:167|272:185|304:146|273:101,1,157.499995193482,2|8,0:1|0:0,0:0:0:0:
253,46,53179,1,2,0:1:0:0:
153,123,53617,6,0,P|108:115|89:72,1,78.7499975967408,2|10,0:0|0:0,0:0:0:0:
55,37,54055,2,0,P|0:89|9:165,1,157.499995193482,2|2,3:0|3:2,0:0:0:0:
37,222,54712,2,0,P|48:271|55:306,1,78.7499975967408,10|2,0:2|3:0,0:0:0:0:
75,358,55150,5,4,3:2:0:0:
128,344,55369,1,2,0:2:0:0:
181,330,55588,1,10,0:0:0:0:
303,358,56026,2,0,B|327:312|298:278|289:295|262:255|284:212,1,157.499995193482,2|8,0:1|0:0,0:0:0:0:
328,166,56683,1,2,0:1:0:0:
328,166,56902,54,0,P|380:152|454:133,2,118.124996395111,2|0|2,3:2|3:0|3:2,0:0:0:0:
289,115,57778,2,0,P|236:101|163:82,2,118.124996395111,2|2|2,3:2|3:0|3:0,0:0:0:0:
324,62,58654,5,4,3:1:0:0:
377,47,58873,1,2,0:0:0:0:
430,35,59092,1,10,0:0:0:0:
495,142,59530,2,0,B|448:127|413:160|431:166|398:204|348:181,1,157.499995193482,2|8,0:1|0:0,0:0:0:0:
294,161,60187,1,2,0:1:0:0:
182,96,60625,6,0,P|172:56|208:21,1,78.7499975967408,0|10,0:0|0:0,0:0:0:0:
253,8,61062,2,0,P|274:83|293:160,1,157.499995193482,2|2,3:0|3:2,0:0:0:0:
312,220,61719,2,0,P|312:267|284:290,1,78.7499975967408,10|2,0:2|3:3,0:0:0:0:
264,344,62157,5,4,3:1:0:0:
211,357,62376,1,2,0:0:0:0:
157,370,62595,1,10,0:0:0:0:
46,309,63033,2,0,P|31:251|21:218,1,78.7499975967408,2|2,3:2|3:2,0:0:0:0:
10,172,63471,1,10,0:2:0:0:
144,127,63909,54,0,B|160:50|160:50|140:10,2,118.124996395111,2|2|2,3:2|3:0|3:3,0:0:0:0:
183,185,64785,1,14,3:2:0:0:
246,153,65004,1,10,3:2:0:0:
293,205,65223,1,10,3:2:0:0:
43,357,72668,101,2,3:2:0:0:
85,182,73325,1,2,3:2:0:0:
85,182,73544,1,2,3:2:0:0:
141,287,73982,2,0,L|199:272,1,60,8|2,0:0|3:2,0:0:0:0:
258,264,74420,2,0,P|321:237|334:176,2,120,2|10|2,3:2|0:0|3:2,0:0:0:0:
355,334,75734,2,0,L|413:348,1,60,10|0,0:0|3:0,0:0:0:0:
464,315,76172,6,0,L|435:198,1,120,2|10,3:2|0:0,0:0:0:0:
464,145,76829,1,0,3:0:0:0:
464,145,77048,1,2,3:2:0:0:
428,30,77486,2,0,P|388:29|371:57,1,60,10|0,0:0|3:0,0:0:0:0:
352,97,77924,1,2,3:2:0:0:
249,159,78362,1,10,0:0:0:0:
132,130,78800,1,2,3:2:0:0:
84,19,79238,1,10,0:0:0:0:
0,115,79676,6,0,P|43:149|50:220,1,127.50000243187,4|8,3:0|1:2,0:0:0:0:
97,269,80333,1,2,3:2:0:0:
97,269,80552,1,2,3:2:0:0:
222,246,80989,2,0,L|294:228,1,63.7500012159348,8|0,1:2|3:0,0:0:0:0:
345,212,81427,2,0,P|386:175|389:96,1,127.50000243187,2|10,3:2|1:2,0:0:0:0:
384,47,82084,1,0,3:0:0:0:
384,47,82303,1,2,3:2:0:0:
260,14,82741,2,0,L|277:86,1,63.7500012159348,10|0,1:2|3:0,0:0:0:0:
240,130,83179,70,0,L|116:99,1,127.50000243187,2|10,3:2|1:2,0:0:0:0:
57,92,83836,1,0,3:0:0:0:
57,92,84055,2,0,P|47:136|99:204,1,127.50000243187,2|10,3:2|1:2,0:0:0:0:
77,327,84931,1,4,3:2:0:0:
214,297,85369,1,10,1:2:0:0:
350,265,85807,1,4,3:0:0:0:
497,67,86683,6,0,P|436:80|380:92,1,112.500004291535,2|2,3:2|3:2,0:0:0:0:
292,28,87559,2,0,P|273:67|277:93,1,56.2500021457673,2|2,3:2|3:2,0:0:0:0:
294,131,87997,2,0,P|254:173|195:162,1,112.500004291535,2|2,3:2|3:2,0:0:0:0:
173,59,88873,1,2,3:2:0:0:
62,36,89311,1,2,3:2:0:0:
92,144,89749,1,0,3:3:0:0:
22,232,90187,6,0,P|83:245|139:257,1,112.500004291535,2|2,3:2|3:2,0:0:0:0:
234,302,91062,2,0,P|239:274|245:246,1,56.2500021457673,2|2,3:2|3:2,0:0:0:0:
256,190,91500,2,0,P|310:184|349:222,1,112.500004291535,2|2,3:2|3:2,0:0:0:0:
403,321,92376,1,2,0:2:0:0:
502,268,92814,1,2,3:2:0:0:
450,168,93252,1,0,3:0:0:0:
500,58,93690,6,0,P|466:50|433:43,1,60,4|0,3:2|3:2,0:0:0:0:
382,31,94128,2,0,P|330:38|311:99,1,120,2|2,3:2|3:2,0:0:0:0:
329,153,94785,1,2,3:2:0:0:
329,153,95004,1,2,3:2:0:0:
135,110,95661,5,2,3:2:0:0:
73,87,95880,2,0,L|56:24,2,60,2|0|2,3:2|3:2|3:2,0:0:0:0:
32,139,96537,1,2,3:2:0:0:
32,139,96756,1,2,3:2:0:0:
55,273,97194,85,2,3:2:0:0:
177,297,97632,2,0,B|241:302|213:360|282:363,1,120,2|2,3:2|3:2,0:0:0:0:
331,356,98289,1,2,3:2:0:0:
331,356,98508,1,2,3:2:0:0:
399,252,98946,54,0,P|392:215|378:136,3,112.500004291535,2|2|2|2,0:0|0:0|0:0|0:3,0:0:0:0:
277,55,100698,5,4,3:1:0:0:
224,44,100916,1,2,0:0:0:0:
182,80,101135,1,10,0:0:0:0:
66,29,101573,2,0,B|83:73|52:110|45:92|9:127|35:176,1,157.499995193482,2|10,0:1|0:0,0:0:0:0:
58,230,102230,1,2,0:1:0:0:
171,175,102668,6,0,B|159:212|159:212|183:249,1,78.7499975967408,2|10,0:0|0:0,0:0:0:0:
224,292,103106,2,0,L|378:257,1,157.499995193482,2|2,3:0|3:2,0:0:0:0:
438,241,103763,2,0,B|462:273|462:273|455:317,1,78.7499975967408,10|2,0:2|3:3,0:0:0:0:
411,355,104201,21,4,3:2:0:0:
356,348,104419,1,2,0:0:0:0:
313,382,104638,1,10,0:0:0:0:
224,292,105077,2,0,B|216:243|254:214|257:233|300:207|284:153,1,157.499995193482,2|8,0:1|0:0,0:0:0:0:
321,107,105734,1,2,0:1:0:0:
321,107,105953,6,0,P|374:101|428:154,2,118.124996395111,2|2|2,3:2|3:0|3:3,0:0:0:0:
257,103,106829,2,0,P|225:59|244:-13,2,118.124996395111,2|2|2,3:2|3:3|3:3,0:0:0:0:
285,158,107705,1,4,3:1:0:0:
264,209,107924,1,2,0:0:0:0:
213,227,108142,1,10,0:0:0:0:
112,304,108581,2,0,B|119:255|81:226|78:245|35:219|47:165,1,157.499995193482,2|8,0:1|0:0,0:0:0:0:
65,111,109238,1,2,0:1:0:0:
174,47,109676,6,0,L|250:63,1,78.7499975967408,0|10,0:0|0:0,0:0:0:0:
313,72,110114,2,0,B|324:145|324:145|295:177|295:177|303:217,1,157.499995193482,2|2,3:0|3:2,0:0:0:0:
321,277,110771,2,0,B|406:264,1,78.7499975967408,10|2,0:2|3:3,0:0:0:0:
459,249,111208,5,6,3:2:0:0:
477,196,111427,1,2,0:0:0:0:
442,153,111645,1,10,0:2:0:0:
499,40,112084,2,0,P|466:12|416:19,1,78.7499975967408,2|2,3:2|3:2,0:0:0:0:
374,30,112522,1,10,0:0:0:0:
303,134,112960,6,0,P|238:143|188:104,2,118.124996395111,2|2|2,3:0|3:2|3:3,0:0:0:0:
353,183,113836,1,12,3:2:0:0:
335,251,114055,1,8,3:2:0:0:
317,319,114274,1,8,3:2:0:0:
31,70,121719,85,2,3:2:0:0:
150,82,122157,1,2,0:0:0:0:
138,201,122595,1,2,0:0:0:0:
126,320,123033,2,0,L|185:324,1,60,10|2,0:2|3:2,0:0:0:0:
245,331,123471,5,2,3:2:0:0:
257,212,123909,1,2,0:0:0:0:
376,224,124347,1,2,0:0:0:0:
495,236,124785,2,0,L|499:176,1,60,10|2,0:2|3:2,0:0:0:0:
506,116,125223,85,2,3:2:0:0:
387,104,125661,1,2,0:0:0:0:
375,223,126099,1,2,0:0:0:0:
257,212,126537,2,0,L|261:152,1,60,10|2,0:0|3:2,0:0:0:0:
268,92,126975,6,0,L|148:82,1,120,2|2,3:2|0:0,0:0:0:0:
88,79,127632,2,0,L|78:198,1,120,0|8,3:2|0:1,0:0:0:0:
72,258,128289,1,8,0:1:0:0:
145,343,128727,6,0,P|227:328|270:321,1,112.500004291535,4|0,3:2|0:0,0:0:0:0:
307,346,129384,1,0,3:0:0:0:
307,346,129603,2,0,P|389:331|432:324,1,112.500004291535,0|10,0:0|0:0,0:0:0:0:
460,222,130479,2,0,P|466:174|436:124,2,84.3750032186509,2|2|2,3:2|0:0|3:2,0:0:0:0:
405,233,131354,1,2,0:0:0:0:
293,216,131792,1,8,0:0:0:0:
275,104,132230,6,0,P|247:108|219:113,1,56.2500021457673,2|2,3:2|0:0,0:0:0:0:
164,126,132668,2,0,P|168:153|173:181,1,56.2500021457673,2|0,0:0|3:0,0:0:0:0:
185,236,133106,2,0,P|119:246|80:205,1,112.500004291535,0|10,0:0|0:0,0:0:0:0:
34,119,133982,2,0,P|43:58|46:16,2,84.3750032186509,2|2|2,3:2|0:0|3:2,0:0:0:0:
27,175,134858,2,0,P|74:196|95:192,1,56.2500021457673,2|8,0:0|0:1,0:0:0:0:
127,169,135296,1,8,0:1:0:0:
174,50,135734,5,14,3:2:0:0:
298,24,136172,1,10,3:2:0:0:
389,112,136610,1,10,3:2:0:0:
351,233,137048,1,10,3:2:0:0:
227,265,137486,2,0,P|213:328|210:368,2,95.6250018239022,10|2|2,3:2|0:0|0:0,0:0:0:0:
241,202,138362,2,0,P|210:184|164:192,1,63.7500012159348,10|8,3:2|0:1,0:0:0:0:
125,213,138800,38,0,P|89:215|41:135,1,127.50000243187,8|14,3:1|3:2,0:0:0:0:
118,48,139676,1,10,3:2:0:0:
245,49,140114,2,0,P|291:81|382:102,1,127.50000243187,10|10,3:2|3:2,0:0:0:0:
474,46,140989,2,0,P|486:97|481:130,1,63.7500012159348,10|2,3:2|0:0,0:0:0:0:
471,170,141427,2,0,P|443:214|416:234,1,63.7500012159348,10|2,3:2|0:0,0:0:0:0:
371,229,141865,2,0,P|325:197|234:176,1,127.50000243187,10|10,3:2|3:2,0:0:0:0:
147,203,142741,6,0,P|111:192|59:242,1,112.500004291535,2|0,0:0|0:0,0:0:0:0:
100,330,143617,2,0,P|136:341|188:291,1,112.500004291535,2|0,0:0|0:0,0:0:0:0:
251,216,144493,6,0,P|240:180|290:128,1,112.500004291535,2|0,0:0|0:0,0:0:0:0:
378,169,145369,2,0,P|389:205|339:257,1,112.500004291535,2|0,0:0|0:0,0:0:0:0:
40,317,153252,70,0,P|30:362|28:381,2,44.999998626709,2|2|2,0:0|0:0|0:3,0:0:0:0:
88,240,154128,2,0,B|104:167|41:183|60:107,1,134.999995880127,2|0,0:0|0:0,0:0:0:0:
193,112,155442,5,2,0:3:0:0:
193,112,155661,2,0,P|244:104|285:96,1,89.9999972534181,2|0,0:0|0:0,0:0:0:0:
326,89,156318,1,10,0:0:0:0:
413,110,156756,86,0,P|449:117|499:89,1,89.9999972534181,2|2,0:0|0:3,0:0:0:0:
476,6,157632,2,0,P|439:-2|389:26,1,89.9999972534181,2|10,0:0|0:0,0:0:0:0:
326,89,158508,1,4,0:0:0:0:
46,59,159822,1,4,0:3:0:0:
204,82,160260,21,4,3:1:0:0:
256,47,160479,1,2,0:0:0:0:
314,69,160698,1,10,0:0:0:0:
445,126,161135,2,0,B|369:102|343:174|359:173|338:217|293:201,1,179.999994506836,2|8,0:1|0:0,0:0:0:0:
231,188,161792,1,2,3:1:0:0:
87,176,162230,6,0,P|92:202|52:250,1,89.9999972534181,2|10,0:0|0:0,0:0:0:0:
36,318,162668,2,0,P|91:344|191:269,1,179.999994506836,2|0,3:0|3:0,0:0:0:0:
256,301,163325,2,0,P|307:311|349:318,1,89.9999972534181,10|2,0:0|3:3,0:0:0:0:
411,290,163763,5,4,3:2:0:0:
401,227,163982,1,0,0:0:0:0:
390,164,164201,1,10,0:0:0:0:
303,48,164639,2,0,B|326:103|279:133|277:119|233:153|259:211,1,179.999994506836,2|8,0:1|0:0,0:0:0:0:
246,282,165296,1,2,0:1:0:0:
246,282,165515,6,0,B|184:266|150:260|150:260|128:227,1,134.999995880127,2|2,3:0|3:0,0:0:0:0:
55,159,166172,1,2,3:2:0:0:
55,159,166391,2,0,B|116:143|150:137|150:137|172:104,2,134.999995880127,2|2|2,3:0|3:0|3:3,0:0:0:0:
45,221,167267,5,4,3:1:0:0:
31,282,167486,1,2,0:0:0:0:
18,343,167705,1,10,0:0:0:0:
159,369,168143,2,0,B|214:386|245:339|230:338|255:289|312:306,1,179.999994506836,2|8,0:1|0:0,0:0:0:0:
383,322,168800,1,2,3:1:0:0:
377,178,169238,38,0,P|334:189|295:168,1,89.9999972534181,2|10,0:0|0:0,0:0:0:0:
269,101,169676,2,0,P|316:53|434:63,1,179.999994506836,2|0,3:0|3:0,0:0:0:0:
466,114,170333,2,0,P|476:168|488:218,1,89.9999972534181,10|2,0:2|3:3,0:0:0:0:
443,250,170771,5,6,3:2:0:0:
382,237,170989,1,0,0:0:0:0:
340,284,171208,1,10,0:0:0:0:
215,356,171646,2,0,B|175:374|175:374|136:348,1,89.9999972534181,2|2,3:2|3:2,0:0:0:0:
83,298,172084,1,10,0:0:0:0:
215,205,172522,6,0,B|204:99|204:99|171:73,2,134.999995880127,2|2|2,3:0|3:0|3:3,0:0:0:0:
274,246,173398,1,14,3:2:0:0:
345,239,173617,1,10,3:2:0:0:
392,184,173836,1,10,3:2:0:0:
482,303,174274,6,0,P|417:320|353:349,1,112.5,4|2,3:1|0:0,0:0:0:0:
273,383,174931,2,0,B|253:344|253:344|274:223,1,150,2|2,3:2|0:0,0:0:0:0:
289,166,175588,1,10,0:0:0:0:
224,30,176026,6,0,P|171:11|110:50,1,112.5,2|2,3:2|0:3,0:0:0:0:
66,130,176683,2,0,P|148:144|230:163,1,150,2|2,3:2|0:3,0:0:0:0:
289,166,177340,1,10,0:0:0:0:
370,40,177778,6,0,B|417:8|417:8|493:35,1,112.5,2|2,3:2|0:0,0:0:0:0:
433,133,178435,2,0,P|450:240|460:300,1,150,2|2,3:2|0:0,0:0:0:0:
469,355,179092,1,8,0:0:0:0:
305,374,179530,6,0,P|295:307|284:237,1,112.5,2|2,3:2|0:0,0:0:0:0:
337,161,180187,2,0,P|269:145|198:194,1,150,2|2,3:2|0:0,0:0:0:0:
165,250,180843,2,0,P|114:260|69:276,1,75,10|0,0:0|0:0,0:0:0:0:
33,232,181281,6,0,B|-44:183|-32:-6|135:0|177:39|133:74|133:74|107:102|124:127,1,404.999987640381,4|10,3:1|0:0,0:0:0:0:
227,203,183033,6,0,P|265:220|303:209,1,67.4999979400635,2|2,3:2|0:2,0:0:0:0:
354,195,183471,2,0,B|394:209|434:262|408:325|408:325|414:318|414:318|492:328|493:275,1,269.999991760254,10|10,0:0|0:0,0:0:0:0:
443,135,184785,6,0,P|453:92|410:26,1,112.5,2|2,3:2|0:3,0:0:0:0:
329,97,185442,2,0,P|232:110|155:121,1,150,2|2,3:2|0:3,0:0:0:0:
105,125,186099,1,10,0:0:0:0:
58,267,186537,6,0,B|42:321|42:321|85:377,1,112.5,2|2,3:2|0:3,0:0:0:0:
166,298,187194,2,0,P|263:285|340:274,1,150,2|10,3:2|0:0,0:0:0:0:
389,265,187851,2,0,P|405:215|386:167,1,75,8|8,0:0|3:2,0:0:0:0:
256,192,188289,12,0,190916,0:0:0:0:
43,359,191792,21,2,3:2:0:0:
114,259,192449,1,2,3:2:0:0:
114,259,192668,1,2,3:2:0:0:
239,287,193325,1,2,3:2:0:0:
239,287,193544,2,0,L|314:296,1,75,2|2,3:2|0:3,0:0:0:0:
388,329,194420,2,0,L|463:338,1,75,2|2,3:2|0:3,0:0:0:0:
473,252,195296,2,0,P|480:218|463:168,2,75,2|2|2,3:2|0:3|3:2,0:0:0:0:
406,300,196610,1,2,0:3:0:0:
388,219,197048,2,0,L|313:210,1,75,2|2,3:2|0:3,0:0:0:0:
233,230,197924,1,0,3:0:0:0:
152,249,198362,1,2,3:2:0:0:
79,211,198800,6,0,P|63:145|51:104,1,89.9999972534181,4|2,3:0|1:3,0:0:0:0:
42,86,199457,1,2,3:2:0:0:
42,86,199676,2,0,P|47:25|86:16,1,89.9999972534181,2|2,3:2|1:3,0:0:0:0:
157,22,200552,2,0,P|211:32|259:43,2,89.9999972534181,2|2|2,3:2|1:3|3:2,0:0:0:0:
126,106,201865,1,2,1:3:0:0:
191,167,202303,2,0,P|233:169|274:136,1,89.9999972534181,2|2,3:2|1:3,0:0:0:0:
297,55,203179,1,2,3:2:0:0:
386,49,203617,1,2,1:3:0:0:
456,104,204055,85,4,3:2:0:0:
494,205,204493,1,2,1:2:0:0:
409,272,204931,2,0,P|389:214|375:181,1,89.9999972534181,8|4,3:2|0:3,0:0:0:0:
