osu file format v14

[General]
AudioFilename: audio.ogg
AudioLeadIn: 0
PreviewTime: 146129
Countdown: 0
SampleSet: Soft
StackLeniency: 0.2
Mode: 0
LetterboxInBreaks: 0
WidescreenStoryboard: 1

[Editor]
Bookmarks: 9597,23611,37626,51640,65655,72662,86677,100692,114706,128721,142735,146239,153246,160254,174268,188283,191786,205801
DistanceSpacing: 1.3
BeatDivisor: 8
GridSize: 8
TimelineZoom: 2

[Metadata]
Title:Brownie
TitleUnicode:ブラウニー
Artist:Wanuka
ArtistUnicode:和ぬか
Creator:soncak
Version:Expert
Source:
Tags:japanese pop jpop j-pop 100kai outo 100回嘔吐 100kaiouto aonisai greenhorn 青二才 bars247 chills
BeatmapID:3944982
BeatmapSetID:1912417

[Difficulty]
HPDrainRate:5.3
CircleSize:4.2
OverallDifficulty:8
ApproachRate:9.1
SliderMultiplier:2.2
SliderTickRate:1

[Events]
//Background and Video events
0,0,"brownie.jpg",0,0
Video,380,"brownie.mp4"
//Break Periods
2,146245,152595
//Storyboard Layer 0 (Background)
//Storyboard Layer 1 (Fail)
//Storyboard Layer 2 (Pass)
//Storyboard Layer 3 (Foreground)
//Storyboard Layer 4 (Overlay)
//Storyboard Sound Samples

[TimingPoints]
844,437.956204379562,4,2,1,60,1,0
844,-500,4,2,1,60,0,0
3471,-666.666666666667,4,2,1,60,0,0
5223,-500,4,2,1,60,0,0
6975,-200,4,2,1,60,0,0
9603,-200,4,2,1,55,0,0
12668,-153.846153846154,4,2,1,55,0,0
12723,-153.846153846154,4,2,1,40,0,0
13106,-100,4,2,1,55,0,0
14420,-200,4,2,1,55,0,0
14858,-153.846153846154,4,2,1,55,0,0
15296,-133.333333333333,4,2,1,55,0,0
15734,-133.333333333333,4,2,1,55,0,0
16172,-100,4,2,1,55,0,0
16610,-153.846153846154,4,2,1,55,0,0
19730,-153.846153846154,4,2,1,40,0,0
20114,-100,4,2,1,55,0,0
21865,-66.6666666666667,4,2,1,65,0,0
22303,-100,4,2,1,60,0,0
22741,-83.3333333333333,4,2,1,55,0,0
23179,-100,4,2,1,50,0,0
23617,-200,4,2,1,60,0,0
24493,-100,4,2,1,60,0,0
24931,-133.333333333333,4,2,1,60,0,0
25369,-133.333333333333,4,2,1,60,0,0
26683,-133.333333333333,4,2,1,60,0,0
27121,-86.9565217391304,4,2,1,60,0,0
27997,-200,4,2,1,60,0,0
28873,-83.3333333333333,4,2,1,60,0,0
29311,-133.333333333333,4,2,1,60,0,0
29749,-166.666666666667,4,2,1,60,0,0
30187,-74.0740740740741,4,2,1,65,0,0
32376,-100,4,2,1,65,0,0
33690,-222.222222222222,4,2,1,65,0,0
34128,-166.666666666667,4,2,1,65,0,0
34566,-83.3333333333333,4,2,1,65,0,0
35004,-133.333333333333,4,2,1,65,0,0
35880,-55.5555555555556,4,2,1,70,0,0
36318,-74.0740740740741,4,2,1,65,0,0
36756,-111.111111111111,4,2,1,60,0,0
37194,-200,4,2,1,30,0,0
37632,-200,4,2,4,55,0,0
44858,-100,4,2,4,65,0,0
48143,-66.6666666666667,4,2,4,65,0,0
49895,-117.647058823529,4,2,1,40,0,0
51208,-100,4,2,1,40,0,0
51646,-54.054054054054,4,2,2,85,0,1
52303,-66.6666666666667,4,2,2,85,0,1
52522,-100,4,2,2,85,0,1
52960,-66.6666666666667,4,2,2,85,0,1
53179,-66.6666666666667,4,2,3,85,0,1
53398,-66.6666666666667,4,2,2,85,0,1
53617,-66.6666666666667,4,2,2,85,0,1
54055,-153.846153846154,4,2,2,85,0,1
54493,-100,4,2,2,85,0,1
55150,-57.1428571428571,4,2,2,85,0,1
55369,-40,4,2,2,85,0,1
55588,-100,4,2,2,85,0,1
56464,-66.6666666666667,4,2,2,85,0,1
56683,-66.6666666666667,4,2,3,85,0,1
56902,-66.6666666666667,4,2,2,85,0,1
57340,-83.3333333333333,4,2,2,85,0,1
58654,-54.054054054054,4,2,2,85,0,1
59311,-66.6666666666667,4,2,2,85,0,1
59530,-83.3333333333333,4,2,2,85,0,1
59968,-66.6666666666667,4,2,2,85,0,1
60187,-66.6666666666667,4,2,3,85,0,1
60406,-66.6666666666667,4,2,2,85,0,1
60625,-83.3333333333333,4,2,2,85,0,1
60843,-66.6666666666667,4,2,2,85,0,1
61062,-153.846153846154,4,2,2,85,0,1
61500,-100,4,2,2,85,0,1
62157,-55.5555555555556,4,2,2,85,0,1
62376,-55.5555555555556,4,2,2,85,0,1
62595,-83.3333333333333,4,2,2,85,0,1
63033,-55.5555555555556,4,2,2,85,0,1
63690,-83.3333333333333,4,2,2,85,0,1
64785,-50,4,2,2,85,0,1
65004,-66.6666666666667,4,2,2,85,0,1
65223,-200,4,2,2,85,0,1
65661,-133.333333333333,4,2,1,55,0,0
72668,-200,4,2,1,60,0,0
75296,-133.333333333333,4,2,1,60,0,0
76172,-83.3333333333333,4,2,1,60,0,0
77048,-133.333333333333,4,2,1,60,0,0
77924,-83.3333333333333,4,2,1,60,0,0
78362,-100,4,2,1,60,0,0
79676,-133.333333333333,4,2,1,65,0,0
81427,-100,4,2,1,65,0,0
82303,-133.333333333333,4,2,1,65,0,0
83617,-100,4,2,1,65,0,0
84931,-50,4,2,1,65,0,0
85369,-66.6666666666667,4,2,1,65,0,0
85807,-100,4,2,1,65,0,0
86245,-133.333333333333,4,2,1,30,0,0
86683,-200,4,2,4,55,0,0
91938,-100,4,2,4,55,0,0
93033,-200,4,2,4,55,0,0
93690,-100,4,2,4,70,0,0
98946,-117.647058823529,4,2,1,40,0,0
100260,-100,4,2,1,40,0,0
100698,-54.054054054054,4,2,2,85,0,1
101354,-66.6666666666667,4,2,2,85,0,1
101573,-100,4,2,2,85,0,1
102011,-66.6666666666667,4,2,2,85,0,1
102230,-66.6666666666667,4,2,3,85,0,1
102449,-66.6666666666667,4,2,2,85,0,1
102668,-54.054054054054,4,2,2,85,0,1
103106,-100,4,2,2,85,0,1
104201,-54.054054054054,4,2,2,85,0,1
104420,-37.037037037037,4,2,2,85,0,1
104639,-66.6666666666667,4,2,2,85,0,1
105077,-83.3333333333333,4,2,2,85,0,1
105515,-66.6666666666667,4,2,2,85,0,1
105734,-66.6666666666667,4,2,3,85,0,1
105953,-66.6666666666667,4,2,2,85,0,1
106391,-100,4,2,2,85,0,1
107705,-66.6666666666667,4,2,2,85,0,1
108581,-83.3333333333333,4,2,2,85,0,1
109019,-66.6666666666667,4,2,2,85,0,1
109238,-66.6666666666667,4,2,3,85,0,1
109457,-66.6666666666667,4,2,2,85,0,1
109895,-50,4,2,2,85,0,1
110114,-100,4,2,2,85,0,1
111208,-55.5555555555556,4,2,2,85,0,1
111646,-66.6666666666667,4,2,2,85,0,1
112084,-55.5555555555556,4,2,2,85,0,1
113836,-50,4,2,2,85,0,1
114055,-66.6666666666667,4,2,2,85,0,1
114274,-200,4,2,2,85,0,1
114712,-200,4,2,5,45,0,0
121062,-200,4,2,5,55,0,0
121719,-133.333333333333,4,2,5,55,0,0
128727,-133.333333333333,4,2,5,55,0,0
130479,-83.3333333333333,4,2,5,55,0,0
131792,-133.333333333333,4,2,5,55,0,0
132230,-100,4,2,5,55,0,0
133982,-83.3333333333333,4,2,5,55,0,0
135296,-133.333333333333,4,2,5,55,0,0
135734,-100,4,2,5,60,0,0
136391,-133.333333333333,4,2,5,60,0,0
136829,-200,4,2,5,60,0,0
137486,-83.3333333333333,4,2,5,60,0,0
138143,-100,4,2,5,60,0,0
138800,-133.333333333333,4,2,5,60,0,0
139238,-100,4,2,5,60,0,0
139676,-133.333333333333,4,2,5,60,0,0
140114,-100,4,2,5,60,0,0
142741,-200,4,2,1,40,0,0
143617,-111.111111111111,4,2,1,45,0,0
144493,-153.846153846154,4,2,1,40,0,0
145369,-250,4,2,1,35,0,0
147121,-250,4,2,2,35,0,0
147778,-250,4,2,3,35,0,0
148435,-250,4,2,1,35,0,0
150625,-250,4,2,2,35,0,0
151281,-250,4,2,3,35,0,0
151938,-250,4,2,1,35,0,0
153252,-200,4,2,1,40,0,0
160260,-47.6190476190476,4,2,2,90,0,1
160916,-55.5555555555556,4,2,2,90,0,1
161135,-83.3333333333333,4,2,2,90,0,1
161573,-66.6666666666667,4,2,2,90,0,1
161792,-66.6666666666667,4,2,3,90,0,1
162011,-66.6666666666667,4,2,2,90,0,1
162230,-55.5555555555556,4,2,2,90,0,1
162668,-100,4,2,2,90,0,1
163763,-50,4,2,2,90,0,1
163982,-33.3333333333333,4,2,2,90,0,1
164201,-50,4,2,2,90,0,1
164639,-83.3333333333333,4,2,2,90,0,1
165077,-55.5555555555556,4,2,2,90,0,1
165296,-83.3333333333333,4,2,3,90,0,1
165515,-83.3333333333333,4,2,2,90,0,1
167267,-47.6190476190476,4,2,2,90,0,1
167924,-66.6666666666667,4,2,2,90,0,1
168143,-83.3333333333333,4,2,2,90,0,1
168581,-66.6666666666667,4,2,2,90,0,1
168800,-66.6666666666667,4,2,3,90,0,1
169019,-66.6666666666667,4,2,2,90,0,1
169676,-83.3333333333333,4,2,2,90,0,1
170771,-55.5555555555556,4,2,2,90,0,1
171208,-66.6666666666667,4,2,2,90,0,1
171865,-50,4,2,2,90,0,1
172303,-100,4,2,2,90,0,1
173398,-40,4,2,2,90,0,1
173617,-55.5555555555556,4,2,2,90,0,1
173836,-100,4,2,2,90,0,1
174274,-74.0740740740741,4,2,3,75,0,0
174931,-100,4,2,3,75,0,0
175698,-100,4,2,3,75,0,0
176026,-74.0740740740741,4,2,3,75,0,0
176683,-100,4,2,3,75,0,0
177340,-66.6666666666667,4,2,3,75,0,0
177778,-74.0740740740741,4,2,3,75,0,0
178435,-100,4,2,3,75,0,0
179530,-74.0740740740741,4,2,3,75,0,0
180187,-100,4,2,3,75,0,0
181281,-83.3333333333333,4,2,3,75,0,0
182157,-100,4,2,3,75,0,0
186208,-83.3333333333333,4,2,3,75,0,0
188289,-116.279069767442,4,2,1,60,0,0
191792,-100,4,2,1,50,0,0
194913,-100,4,2,1,40,0,0
195296,-100,4,2,1,50,0,0
198362,-133.333333333333,4,2,1,50,0,0
201920,-133.333333333333,4,2,1,40,0,0
202303,-100,4,2,1,50,0,0
204055,-55.5555555555556,4,2,1,50,0,0
204493,-74.0740740740741,4,2,1,50,0,0
204931,-100,4,2,1,50,0,0
205369,-133.333333333333,4,2,1,50,0,0

[Colours]
Combo1 : 105,197,135
Combo2 : 203,172,152
Combo3 : 156,116,86
Combo4 : 188,119,73
Combo5 : 208,86,68
Combo6 : 220,194,116
Combo7 : 125,166,196

[HitObjects]
28,250,844,5,4,3:2:0:0:
146,138,1062,1,2,0:0:0:0:
243,194,1281,1,8,0:0:0:0:
332,165,1500,1,2,3:2:0:0:
389,228,1719,2,0,P|392:246|399:260,1,33,0|0,3:2|0:0,0:0:0:0:
402,268,2157,1,8,0:0:0:0:
357,334,2376,1,0,0:0:0:0:
477,288,2595,5,2,3:2:0:0:
439,116,2814,1,2,0:0:0:0:
332,165,3033,1,8,0:0:0:0:
381,217,3252,1,0,3:0:0:0:
449,189,3471,2,0,P|467:185|481:182,1,32.99999899292,2|8,3:2|0:0,0:0:0:0:
456,112,4128,1,0,3:0:0:0:
257,89,4347,5,2,3:2:0:0:
236,85,4785,1,8,0:0:0:0:
204,226,5004,1,0,3:0:0:0:
139,176,5223,2,0,P|113:183|104:184,1,33,2|0,3:2|0:0,0:0:0:0:
96,184,5661,1,8,0:0:0:0:
56,258,5880,1,0,3:0:0:0:
292,157,6099,69,8,0:0:0:0:
309,152,6537,1,8,0:0:0:0:
384,250,6756,1,0,3:0:0:0:
417,74,6975,6,0,B|397:56|444:-17|521:15|527:99|443:171|443:171|412:113|374:151|335:98|370:43|403:60|403:91|435:73,1,440,12|0,0:0|0:0,0:0:0:0:
387,232,8946,6,0,P|384:218|375:203,1,27.5,2|0,0:0|0:0,0:0:0:0:
470,292,9165,2,0,P|455:270|400:252,1,82.5,2|0,0:3|0:0,0:0:0:0:
250,371,9603,69,2,3:2:0:0:
244,356,10041,1,2,0:3:0:0:
171,331,10260,1,2,3:2:0:0:
336,302,10479,1,2,3:2:0:0:
341,287,10916,5,2,0:3:0:0:
323,376,11135,1,2,3:2:0:0:
171,257,11354,1,2,3:2:0:0:
163,243,11792,85,2,0:3:0:0:
100,203,12011,1,0,3:2:0:0:
241,222,12230,1,2,3:2:0:0:
223,297,12668,6,0,P|222:305|220:314,7,17.8749991817475,2|0|0|0|0|0|0|0,0:3|0:3|0:3|0:3|0:3|0:3|0:3|0:3,0:0:0:0:
250,209,13106,86,0,B|247:270|143:302|150:187|218:230,1,165,2|0,3:2|0:0,0:0:0:0:
119,384,13544,2,0,P|139:359|210:330,1,110,2|0,0:3|3:0,0:0:0:0:
396,365,13982,1,2,3:2:0:0:
373,292,14420,1,2,0:3:0:0:
499,182,14858,6,0,P|475:178|391:164,1,107.249995090485,2|0,3:2|0:0,0:0:0:0:
333,23,15296,2,0,B|367:1|367:1|414:18,1,82.5,2|0,0:3|3:0,0:0:0:0:
383,182,15734,1,2,3:2:0:0:
393,164,15843,86,0,P|385:117|376:73,1,82.5,2|0,0:0|0:0,0:0:0:0:
453,74,16172,2,0,B|378:62|378:62|343:81|343:81|272:71,1,165,2|0,0:3|0:3,0:0:0:0:
91,46,16610,5,2,3:2:0:0:
97,58,17048,1,2,0:3:0:0:
193,0,17267,1,2,3:2:0:0:
197,113,17486,1,2,3:2:0:0:
190,127,17924,85,2,0:3:0:0:
91,46,18143,1,2,3:2:0:0:
264,87,18362,1,2,3:2:0:0:
277,96,18800,5,2,0:3:0:0:
204,199,19019,1,0,3:0:0:0:
264,247,19238,1,2,3:2:0:0:
179,376,19676,2,0,P|170:377|161:379,7,17.8749991817475,2|0|0|0|0|0|0|0,0:3|0:0|0:0|0:0|0:0|0:0|0:0|0:0,0:0:0:0:
257,380,20114,86,0,B|229:301|312:300|284:224,1,165,2|0,3:2|0:0,0:0:0:0:
370,264,20552,2,0,P|401:269|444:195,1,110,2|0,0:3|3:0,0:0:0:0:
490,26,20989,1,2,3:2:0:0:
412,79,21427,1,2,0:3:0:0:
402,149,21865,22,0,P|388:100|281:67,1,165.000006294251,6|0,3:2|0:0,0:0:0:0:
289,64,22303,2,0,P|256:55|201:106,1,110,2|0,3:2|0:0,0:0:0:0:
108,115,22741,6,0,P|166:176|202:100,1,197.99999395752,2|0,3:2|0:0,0:0:0:0:
47,77,23179,6,0,B|59:54|75:48|75:48|61:37|57:12|57:12|45:34|28:40|28:40|42:51|47:77,1,165,4|0,0:3|0:0,0:0:0:0:
173,204,23617,37,2,3:2:0:0:
266,135,23836,1,0,0:0:0:0:
282,62,24055,1,8,0:0:0:0:
266,16,24274,1,2,3:2:0:0:
489,131,24493,6,0,P|472:80|425:54,1,110,2|0,3:2|0:0,0:0:0:0:
346,0,24931,2,0,P|349:31|353:45,1,41.2500015735627,8|0,0:0|0:0,0:0:0:0:
414,130,25150,1,2,3:2:0:0:
273,212,25369,86,0,P|299:199|352:233,1,82.5000031471254,2|0,3:2|0:0,0:0:0:0:
405,269,25698,1,0,0:0:0:0:
424,266,25807,1,8,0:0:0:0:
491,309,26026,1,2,3:2:0:0:
369,339,26245,6,0,P|290:356|235:365,1,123.750004720688,2|0,3:2|0:0,0:0:0:0:
100,312,26683,86,0,P|102:293|101:283,3,20.6250007867813,8|0|0|0,0:0|0:0|0:0|0:0,0:0:0:0:
112,327,26902,1,0,3:0:0:0:
169,258,27121,6,0,B|227:225|221:130|143:126|120:186|141:193,1,189.750003619194,2|0,3:2|0:0,0:0:0:0:
307,215,27559,2,0,P|273:171|280:92,1,126.500002412796,8|0,0:0|3:0,0:0:0:0:
352,11,27997,86,0,P|349:34|347:48,1,27.5,2|0,3:2|0:0,0:0:0:0:
345,65,28216,1,0,0:0:0:0:
419,46,28435,1,8,0:0:0:0:
415,66,28654,1,0,3:0:0:0:
489,74,28873,6,0,P|433:75|394:150,1,131.99999597168,2|0,3:2|0:0,0:0:0:0:
452,258,29311,2,0,P|465:230|433:169,1,82.5,8|0,0:0|3:0,0:0:0:0:
329,175,29749,2,0,P|350:200|381:211,1,65.9999979858399,2|0,3:2|0:0,0:0:0:0:
456,272,30187,86,0,P|375:292|292:309,1,148.500000566483,8|0,0:0|3:0,0:0:0:0:
181,377,30625,1,4,3:3:0:0:
126,251,30843,1,0,0:0:0:0:
7,232,31062,1,8,1:2:0:0:
54,291,31281,1,2,3:2:0:0:
233,140,31500,5,2,3:2:0:0:
257,66,31719,1,0,0:0:0:0:
235,23,31938,1,8,1:2:0:0:
181,79,32157,1,2,3:2:0:0:
377,175,32376,86,0,P|421:182|451:189,2,55,2|0|0,3:2|0:0|0:0,0:0:0:0:
490,132,32814,1,8,1:2:0:0:
314,126,33033,1,0,3:0:0:0:
238,192,33252,5,2,3:2:0:0:
282,253,33362,1,2,0:0:0:0:
247,279,33471,1,2,0:0:0:0:
254,301,33581,1,2,0:0:0:0:
238,301,33690,2,0,P|233:322|230:354,1,49.4999984893799,8|0,1:2|3:0,0:0:0:0:
161,382,34128,86,0,P|156:344|129:281,1,98.9999969787599,2|0,3:2|0:0,0:0:0:0:
188,229,34566,2,0,P|183:193|142:171,1,65.9999979858399,8|0,1:2|0:0,0:0:0:0:
0,160,34785,1,0,3:0:0:0:
36,235,35004,2,0,P|91:219|153:182,1,123.750004720688,2|0,3:2|0:0,0:0:0:0:
195,105,35442,1,8,1:2:0:0:
174,97,35661,1,0,3:0:0:0:
274,40,35880,6,0,P|329:10|405:104,1,197.99999395752,6|0,3:2|0:0,0:0:0:0:
407,96,36318,2,0,P|415:165|354:197,1,148.500000566483,10|0,1:2|0:0,0:0:0:0:
274,188,36756,2,0,P|311:217|353:196,1,98.9999969787599,4|0,3:0|0:0,0:0:0:0:
203,156,37194,86,0,P|172:156|138:195,1,82.5,0|0,3:0|0:0,0:0:0:0:
6,312,37632,5,2,3:2:0:0:
75,274,37851,1,0,3:0:0:0:
144,290,38070,1,2,3:2:0:0:
178,338,38289,1,0,0:0:0:0:
257,364,38508,1,2,3:2:0:0:
337,383,38727,1,2,3:2:0:0:
418,355,38946,6,0,L|396:364,1,13.75,2|0,3:2|3:0,0:0:0:0:
423,338,39055,2,0,L|401:347,1,13.75,0|0,3:0|3:0,0:0:0:0:
428,321,39165,2,0,L|406:330,1,13.75,0|0,3:0|3:0,0:0:0:0:
433,304,39274,2,0,L|411:313,1,13.75,0|0,3:0|3:0,0:0:0:0:
439,284,39384,69,2,3:2:0:0:
381,236,39603,1,2,0:0:0:0:
312,271,39822,1,2,3:2:0:0:
304,312,40041,1,0,3:2:0:0:
296,239,40260,1,2,3:2:0:0:
206,184,40479,6,0,L|202:167,1,13.75,2|0,3:2|3:0,0:0:0:0:
203,156,40588,2,0,L|190:167,1,13.75,0|0,3:2|3:0,0:0:0:0:
180,172,40698,1,2,3:2:0:0:
110,189,40916,1,2,3:2:0:0:
16,87,41135,5,2,3:2:0:0:
99,64,41354,1,0,0:0:0:0:
164,104,41573,1,2,3:2:0:0:
178,155,41792,2,0,P|158:160|143:165,1,27.5
101,213,42011,1,2,3:2:0:0:
251,180,42230,1,2,3:2:0:0:
317,128,42449,70,0,P|310:118|298:113,1,13.75,2|0,3:2|3:0,0:0:0:0:
324,113,42559,2,0,P|314:105|301:105,1,13.75,0|0,3:2|3:0,0:0:0:0:
325,96,42668,2,0,P|313:92|300:96,1,13.75,0|0,3:2|3:0,0:0:0:0:
320,80,42778,2,0,P|307:81|297:88,1,13.75,0|0,3:2|3:0,0:0:0:0:
323,62,42887,5,2,3:2:0:0:
398,93,43106,1,2,0:0:0:0:
474,91,43325,1,2,0:2:0:0:
503,57,43544,1,0,3:0:0:0:
470,122,43763,1,2,3:2:0:0:
368,163,43982,6,0,L|350:162,1,13.75,2|0,3:2|3:0,0:0:0:0:
340,158,44091,2,0,L|348:173,1,13.75,0|0,3:2|3:0,0:0:0:0:
349,185,44201,1,2,3:2:0:0:
235,100,44420,1,0,3:2:0:0:
0,195,44639,85,4,3:2:0:0:
131,83,44858,2,0,P|135:98|130:127,1,27.5,0|0,3:2|3:2,3:2:0:0:
165,97,44968,2,0,P|157:110|133:127,1,27.5,0|0,3:2|3:2,3:2:0:0:
167,130,45077,1,2,3:2:0:0:
272,192,45296,1,0,3:2:0:0:
260,269,45515,5,2,3:2:0:0:
380,364,45734,2,0,P|384:349|379:320,1,27.5,2|0,3:2|3:2,3:2:0:0:
414,350,45844,2,0,P|406:337|382:320,1,27.5,0|0,3:2|3:2,3:2:0:0:
416,317,45953,1,2,3:2:0:0:
481,230,46172,1,2,3:2:0:0:
287,126,46391,5,0,3:2:0:0:
390,23,46610,2,0,P|383:54|380:65,1,27.5,2|0,3:2|3:2,3:2:0:0:
409,28,46719,2,0,P|402:59|399:70,1,27.5,0|0,3:2|3:2,3:2:0:0:
427,33,46829,1,2,3:2:0:0:
512,139,47048,1,2,3:2:0:0:
322,220,47267,69,2,3:2:0:0:
176,94,47486,2,0,P|169:63|166:52,1,27.5,2|0,3:2|3:2,3:2:0:0:
195,89,47595,2,0,P|188:58|185:47,1,27.5,0|0,3:2|3:2,3:2:0:0:
213,84,47705,1,2,3:2:0:0:
287,126,47924,2,0,P|280:157|277:168,2,27.5,0|0|0,3:2|3:2|3:2,0:0:0:0:
264,10,48143,5,2,3:2:0:0:
171,68,48362,2,0,P|186:87|190:115,1,41.2500015735627,0|0,3:0|3:0,0:0:0:0:
211,127,48471,2,0,P|202:149|179:166,1,41.2500015735627,0|0,3:0|3:0,0:0:0:0:
188,199,48581,1,2,3:2:0:0:
18,273,48800,6,0,P|58:281|99:291,1,82.5000031471254,0|0,3:0|0:0,0:0:0:0:
224,323,49019,1,2,3:2:0:0:
386,246,49238,70,0,P|381:219|376:198,2,41.2500015735627,2|0|2,3:2|3:2|3:2,0:0:0:0:
404,325,49457,1,2,3:2:0:0:
467,273,49566,1,2,3:2:0:0:
489,193,49676,1,2,3:2:0:0:
464,114,49785,1,2,3:2:0:0:
395,68,49895,86,0,P|390:41|386:18,2,46.7500008916855,2|0|0,0:0|0:0|0:0,0:0:0:0:
313,3,50223,1,0,0:0:0:0:
390,77,50333,6,0,P|385:50|381:27,2,46.7500008916855,2|0|0,0:0|0:0|0:0,0:0:0:0:
308,12,50661,1,0,0:0:0:0:
385,86,50771,86,0,P|380:59|376:36,2,46.7500008916855,2|0|0,0:0|0:0|0:0,0:0:0:0:
303,21,51099,1,0,0:0:0:0:
380,103,51208,6,0,P|376:76|371:48,1,55,2|0,0:3|0:0,0:0:0:0:
227,3,51427,1,2,0:3:0:0:
227,3,51537,1,2,0:3:0:0:
380,103,51646,86,0,P|352:152|309:128,1,101.749999611855,4|0,3:1|0:0,0:0:0:0:
67,99,51865,1,2,0:0:0:0:
101,26,51975,1,2,3:0:0:0:
101,26,52084,2,0,P|151:77|163:170,1,152.624999417782,10|0,0:0|0:0,0:0:0:0:
165,154,52303,2,0,P|113:166|72:175,1,82.5000031471254,2|0,3:0|0:0,0:0:0:0:
213,384,52522,6,0,B|231:333|180:333|195:279,1,110,2|0,0:1|0:0,0:0:0:0:
214,271,52851,1,2,0:3:0:0:
234,198,52960,2,0,P|249:154|223:101,1,82.5000031471254,8|0,0:0|0:0,0:0:0:0:
367,0,53179,2,0,P|363:19|360:40,2,41.2500015735627,2|2|2,0:1|0:3|0:3,0:0:0:0:
256,105,53398,1,0,3:0:0:0:
512,172,53617,6,0,P|464:195|419:167,1,82.5000031471254,2|2,0:0|3:0,0:0:0:0:
346,58,53836,2,0,P|389:87|387:140,1,82.5000031471254,10|0,0:0|0:0,0:0:0:0:
331,282,54055,6,0,P|324:230|354:188,1,107.249995090485,2|0,3:0|0:0,0:0:0:0:
367,95,54493,2,0,P|336:102|314:110,1,55,2|2,3:2|0:3,0:0:0:0:
187,169,54712,1,10,0:2:0:0:
187,169,54822,1,2,0:0:0:0:
110,116,54931,1,2,3:0:0:0:
110,116,55041,1,2,0:3:0:0:
79,187,55150,54,0,P|90:230|135:231,1,96.2500009179115,4|0,3:2|0:0,0:0:0:0:
211,159,55369,2,0,P|167:102|93:139,1,137.5,2|2,0:2|3:0,0:0:0:0:
59,42,55588,2,0,P|81:36|94:32,2,27.5,10|2|2,0:0|0:3|0:3,0:0:0:0:
59,179,55807,1,0,3:0:0:0:
277,197,56026,6,0,B|338:200|312:261|387:251,1,110,2|0,0:1|0:0,0:0:0:0:
382,272,56354,1,2,0:3:0:0:
250,338,56464,2,0,P|205:355|160:379,1,82.5000031471254,8|0,0:0|0:0,0:0:0:0:
387,183,56683,2,0,P|417:192|437:198,2,41.2500015735627,2|2|2,0:1|0:3|0:3,0:0:0:0:
297,276,56902,6,0,P|286:226|271:180,1,82.5000031471254,2|2,3:2|0:3,0:0:0:0:
309,125,57121,1,2,0:0:0:0:
309,125,57230,1,0,3:0:0:0:
203,37,57340,6,0,P|179:34|156:28,2,32.99999899292,10|2|0,0:2|0:3|0:3,0:0:0:0:
144,102,57559,2,0,P|199:114|229:120,1,65.9999979858399,2|0,3:2|0:0,0:0:0:0:
418,97,57778,53,2,3:2:0:0:
331,56,57887,2,0,P|345:121|359:186,1,131.99999597168,2|2,0:3|3:0,0:0:0:0:
172,180,58216,5,10,0:0:0:0:
202,262,58325,1,2,0:0:0:0:
137,294,58435,1,2,3:0:0:0:
147,315,58544,1,2,0:3:0:0:
67,375,58654,6,0,P|79:328|127:322,1,101.749999611855,4|0,3:1|0:0,0:0:0:0:
278,278,58873,1,2,0:0:0:0:
248,193,58982,1,2,3:0:0:0:
166,200,59092,2,0,P|102:188|-15:167,1,152.624999417782,10|0,0:0|0:0,0:0:0:0:
15,172,59311,2,0,P|38:205|91:192,1,82.5000031471254,2|0,3:0|0:0,0:0:0:0:
291,297,59530,6,0,B|293:224|357:264|355:172,1,131.99999597168,2|0,0:1|0:0,0:0:0:0:
370,165,59858,1,2,0:3:0:0:
497,200,59968,2,0,P|453:226|410:204,1,82.5000031471254,8|0,0:0|0:0,0:0:0:0:
303,125,60187,2,0,P|301:102|291:72,2,41.2500015735627,2|2|2,0:1|0:3|0:3,0:0:0:0:
375,88,60406,1,0,3:0:0:0:
154,6,60625,54,0,P|175:31|201:51,1,65.9999979858399,0|2,0:0|3:3,0:0:0:0:
172,197,60843,2,0,P|132:211|92:216,1,82.5000031471254,10|0,0:0|0:0,0:0:0:0:
50,86,61062,6,0,P|97:109|150:119,1,107.249995090485,2|0,3:0|0:0,0:0:0:0:
171,120,61500,2,0,P|209:128|233:133,1,55,2|2,3:2|0:3,0:0:0:0:
324,252,61719,1,10,0:2:0:0:
324,252,61829,1,2,0:2:0:0:
359,327,61938,1,2,3:3:0:0:
359,327,62048,1,2,0:3:0:0:
436,327,62157,6,0,P|465:281|434:216,1,98.9999969787599,4|0,3:1|0:0,0:0:0:0:
331,115,62376,1,2,0:0:0:0:
290,201,62486,1,2,3:0:0:0:
304,219,62595,2,0,P|329:225|349:232,2,32.99999899292,10|2|2,0:0|0:3|0:3,0:0:0:0:
454,165,62814,2,0,P|415:171|400:210,1,65.9999979858399,2|0,3:0|0:0,0:0:0:0:
209,183,63033,6,0,P|213:132|259:126,1,98.9999969787599,2|0,3:2|0:0,0:0:0:0:
208,30,63252,2,0,P|161:51|133:14,1,98.9999969787599,2|2,3:2|0:3,0:0:0:0:
48,91,63471,2,0,P|117:137|108:206,1,148.49999546814,10|0,0:2|0:0,0:0:0:0:
101,209,63690,2,0,P|65:220|50:226,2,32.99999899292,0|2|2,3:0|0:3|0:3,0:0:0:0:
219,376,63909,53,2,3:2:0:0:
233,295,64019,1,2,0:0:0:0:
289,246,64128,1,2,0:0:0:0:
335,243,64238,1,2,3:0:0:0:
306,168,64347,5,10,0:0:0:0:
267,161,64457,1,2,0:0:0:0:
310,150,64566,1,2,3:3:0:0:
271,143,64676,1,2,0:3:0:0:
213,92,64785,6,0,B|242:63|232:15|232:15|245:62|293:73,1,165,14|0,3:2|0:0,0:0:0:0:
398,42,65004,2,0,B|367:49|356:84|356:84|365:49|338:24,1,123.750004720688,10|0,3:2|0:0,0:0:0:0:
448,132,65223,6,0,B|447:114|465:97|465:97|446:113|426:108,1,82.5,10|0,3:2|0:0,0:0:0:0:
474,204,65661,53,0,3:0:0:0:
487,229,66099,1,2,0:3:0:0:
349,195,66318,1,0,3:0:0:0:
322,272,66537,5,0,3:0:0:0:
333,285,66975,1,2,0:3:0:0:
247,374,67194,1,0,3:0:0:0:
180,337,67413,85,0,3:0:0:0:
162,344,67851,1,2,0:3:0:0:
95,299,68070,1,0,3:0:0:0:
174,176,68289,5,0,3:0:0:0:
73,136,68508,1,0,0:0:0:0:
158,68,68727,1,2,0:3:0:0:
85,56,68946,1,0,3:0:0:0:
11,237,69165,85,0,3:0:0:0:
20,250,69603,1,2,0:3:0:0:
144,158,69822,1,0,3:0:0:0:
219,209,70041,5,0,3:0:0:0:
213,224,70479,1,2,0:3:0:0:
342,249,70698,1,0,3:0:0:0:
356,321,70916,85,0,3:0:0:0:
342,336,71354,1,2,0:3:0:0:
426,364,71573,1,0,3:0:0:0:
506,229,71792,5,0,3:0:0:0:
389,156,72011,1,0,0:0:0:0:
395,69,72230,1,2,0:3:0:0:
460,29,72449,1,0,3:0:0:0:
296,226,72668,86,0,P|252:236|211:249,1,82.5,2|0,3:2|0:0,0:0:0:0:
213,262,73106,1,8,0:0:0:0:
142,364,73325,2,0,P|138:345|130:328,1,27.5,2|0,3:2|0:0,0:0:0:0:
36,226,73544,2,0,P|46:270|59:311,1,82.5,2|0,3:2|0:0,0:0:0:0:
54,323,73982,1,8,0:0:0:0:
222,271,74201,1,2,3:2:0:0:
117,244,74420,1,2,3:2:0:0:
129,231,74639,1,2,0:0:0:0:
126,219,74749,1,2,0:0:0:0:
124,208,74858,5,10,0:0:0:0:
36,17,75077,1,0,3:0:0:0:
93,70,75296,2,0,P|140:78|185:88,1,82.5000031471254,2|0,3:2|0:0,0:0:0:0:
347,26,75734,2,0,P|323:33|306:39,1,41.2500015735627,10|0,0:0|0:0,0:0:0:0:
187,104,75953,1,0,3:0:0:0:
372,18,76172,86,0,B|428:50|432:130|365:176|314:120|345:90,1,197.99999395752,2|0,3:2|0:0,0:0:0:0:
237,24,76610,2,0,P|280:26|306:59,1,65.9999979858399,10|0,0:0|0:0,0:0:0:0:
461,166,76829,1,0,3:0:0:0:
320,259,77048,2,0,P|329:300|334:345,1,82.5000031471254,2|0,3:2|0:0,0:0:0:0:
357,352,77486,1,10,0:0:0:0:
407,281,77705,1,0,3:0:0:0:
228,172,77924,6,0,P|170:148|126:192,1,131.99999597168,2|0,3:2|0:0,0:0:0:0:
126,192,78362,2,0,P|90:225|111:276,1,110,10|0,0:0|3:0,0:0:0:0:
135,384,78800,2,0,P|124:330|111:276,1,110,2|0,3:2|0:0,0:0:0:0:
72,109,79238,1,10,0:0:0:0:
75,123,79457,1,0,3:0:0:0:
11,188,79676,86,0,P|50:191|97:207,1,82.5000031471254,4|0,3:0|0:0,0:0:0:0:
163,222,80004,1,0,0:0:0:0:
176,227,80114,1,8,1:2:0:0:
249,201,80333,1,2,3:2:0:0:
314,25,80552,2,0,B|295:23|271:15|271:15|259:33|232:44,1,82.5000031471254,2|0,3:2|0:0,0:0:0:0:
119,109,80989,1,8,1:2:0:0:
187,147,81208,1,0,3:0:0:0:
325,245,81427,6,0,P|364:232|439:221,1,110,2|0,3:2|0:0,0:0:0:0:
486,172,81756,1,2,0:0:0:0:
492,155,81865,1,10,1:2:0:0:
461,68,82084,1,0,3:0:0:0:
400,3,82303,2,0,P|412:42|444:74,1,82.5000031471254,2|0,3:2|0:0,0:0:0:0:
492,155,82741,1,10,1:2:0:0:
432,222,82960,1,0,3:0:0:0:
238,147,83179,86,0,P|245:111|326:119,1,123.750004720688,2|0,3:2|0:0,0:0:0:0:
325,245,83617,2,0,P|303:229|299:191,1,55,10|0,1:2|0:0,0:0:0:0:
196,50,83836,1,0,3:0:0:0:
296,203,84055,2,0,P|279:172|161:192,1,165,2|0,3:2|0:0,0:0:0:0:
102,227,84493,1,10,1:2:0:0:
86,233,84712,1,0,3:0:0:0:
230,369,84931,6,0,P|246:312|391:308,1,220,4|0,3:2|0:0,0:0:0:0:
467,342,85260,1,2,0:0:0:0:
452,332,85369,2,0,P|431:294|493:204,1,165.000006294251,10|0,1:2|0:0,0:0:0:0:
463,114,85807,86,0,P|454:166|491:204,1,110,4|0,3:0|0:0,0:0:0:0:
257,220,86245,2,0,B|268:209|268:209|334:211|384:196,1,123.750004720688,2|0,3:2|0:0,0:0:0:0:
506,298,86683,5,2,3:2:0:0:
429,274,86902,1,0,3:0:0:0:
358,299,87121,1,2,3:2:0:0:
340,327,87340,1,0,0:0:0:0:
267,370,87559,1,2,3:2:0:0:
211,315,87778,1,2,3:2:0:0:
138,330,87997,6,0,P|131:333|124:335,1,13.75,2|0,3:2|3:0,0:0:0:0:
113,338,88106,2,0,P|106:336|99:334,1,13.75,0|0,3:2|3:0,0:0:0:0:
87,331,88216,2,0,P|81:326|76:321,1,13.75,0|0,3:2|3:0,0:0:0:0:
68,312,88325,2,0,P|65:305|63:298,1,13.75,0|0,3:2|3:0,0:0:0:0:
61,286,88435,5,2,3:2:0:0:
33,173,88654,1,2,0:0:0:0:
115,195,88873,1,2,3:2:0:0:
137,241,89092,1,2,3:2:0:0:
149,169,89311,1,2,3:2:0:0:
218,104,89530,70,0,L|222:87,1,13.75,0|0,3:0|3:0,3:0:0:0:
221,76,89639,2,0,L|234:87,1,13.75,0|0,3:0|3:0,3:0:0:0:
244,92,89749,1,0,3:3:0:0:
316,105,89968,1,0,3:0:0:0:
491,215,90187,5,2,3:2:0:0:
448,207,90296,1,2,0:2:0:0:
429,219,90406,1,2,0:2:0:0:
360,270,90625,1,2,3:2:0:0:
309,286,90844,1,0,0:0:0:0:
250,238,91062,1,2,3:2:0:0:
254,162,91281,1,2,3:2:0:0:
315,82,91500,6,0,L|320:60,1,13.75,2|0,3:2|3:0,0:0:0:0:
328,86,91610,2,0,L|333:64,1,13.75,0|0,3:2|3:0,0:0:0:0:
341,90,91719,2,0,L|346:68,1,13.75,0|0,3:2|3:0,0:0:0:0:
354,94,91829,2,0,L|359:72,1,13.75,0|0,3:2|3:0,0:0:0:0:
366,99,91938,70,0,P|385:110|422:105,1,55,2|2,3:2|0:0,0:0:0:0:
478,56,92157,1,2,0:2:0:0:
410,30,92376,1,2,0:2:0:0:
342,60,92595,1,0,3:0:0:0:
312,163,92814,1,2,3:2:0:0:
190,205,93033,6,0,L|186:188,1,13.75,0|0,3:2|3:0,0:0:0:0:
187,177,93142,2,0,L|174:188,1,13.75,0|0,3:2|3:0,0:0:0:0:
164,193,93252,1,0,3:0:0:0:
14,104,93471,1,2,3:2:0:0:
215,384,93690,5,4,3:2:0:0:
298,252,93909,2,0,P|309:232|309:215,1,27.5,0|0,3:2|3:2,3:2:0:0:
290,228,94019,2,0,P|289:205|281:190,1,27.5,0|0,3:2|3:2,3:2:0:0:
264,206,94128,1,2,3:2:0:0:
174,252,94347,2,0,P|200:259|225:272,1,55,0|0,3:0|0:0,0:0:0:0:
475,331,94566,69,2,3:2:0:0:
404,219,94785,2,0,P|383:209|373:195,1,27.5,2|0,3:2|3:2,3:2:0:0:
396,194,94895,2,0,P|382:175|381:158,1,27.5,0|0,3:2|3:2,3:2:0:0:
404,160,95004,1,2,3:2:0:0:
469,109,95223,1,0,3:0:0:0:
339,0,95442,5,2,3:2:0:0:
258,107,95661,2,0,P|265:136|272:150,1,27.5,0|0,3:0|3:2,3:2:0:0:
245,111,95771,2,0,P|252:140|259:154,1,27.5,0|0,3:2|3:2,3:2:0:0:
231,117,95880,1,2,3:2:0:0:
68,80,96099,1,0,3:2:0:0:
163,11,96318,5,2,3:2:0:0:
163,201,96537,2,0,P|192:194|206:187,1,27.5,2|0,3:2|3:2,3:2:0:0:
167,214,96647,2,0,P|196:207|210:200,1,27.5,0|0,3:2|3:2,3:2:0:0:
173,228,96756,1,2,3:2:0:0:
309,378,96975,2,0,P|296:375|283:372,2,27.5,0|0|0,3:0|3:0|3:0,0:0:0:0:
493,213,97194,69,2,3:2:0:0:
438,155,97303,1,2,0:2:0:0:
379,134,97413,2,0,P|362:140|342:162,1,27.5,2|0,3:2|3:2,0:0:0:0:
341,141,97522,2,0,P|330:154|323:183,1,27.5,0|0,3:2|0:0,0:0:0:0:
323,176,97632,1,2,3:2:0:0:
273,18,97851,2,0,P|268:50|238:80,1,55,2|0,3:2|0:0,0:0:0:0:
249,147,98070,5,2,3:2:0:0:
57,65,98289,2,0,P|59:46|62:24,2,27.5,2|0|0,3:2|3:2|3:2,0:0:0:0:
149,27,98508,1,2,3:2:0:0:
142,108,98617,1,2,3:2:0:0:
75,156,98727,1,2,3:2:0:0:
47,233,98836,1,2,3:2:0:0:
74,311,98946,70,0,P|113:316|132:316,2,46.7500008916855,2|0|0,0:0|0:0|0:0,0:0:0:0:
193,271,99274,1,0,0:0:0:0:
123,307,99384,6,0,P|83:301|64:296,2,46.7500008916855,2|0|0,0:0|0:0|0:0,0:0:0:0:
19,235,99712,1,0,0:0:0:0:
78,289,99822,86,0,P|117:294|136:294,2,46.7500008916855,2|0|0,0:0|0:0|0:0,0:0:0:0:
197,249,100150,1,0,0:0:0:0:
125,283,100260,6,0,P|85:277|52:270,1,55,2|0,0:3|0:0,0:0:0:0:
8,160,100479,1,2,0:3:0:0:
8,160,100588,1,2,0:3:0:0:
142,108,100698,38,0,P|191:99|212:148,1,101.749999611855,4|0,3:1|0:0,0:0:0:0:
405,254,100916,1,2,0:0:0:0:
342,194,101026,1,2,3:0:0:0:
342,194,101135,2,0,P|410:173|506:162,1,152.624999417782,10|0,0:0|0:0,0:0:0:0:
493,82,101354,2,0,P|447:83|431:36,1,82.5000031471254,2|0,3:0|0:0,0:0:0:0:
214,139,101573,6,0,B|280:140|259:189|322:184,1,110,2|0,0:1|0:0,0:0:0:0:
374,148,101902,1,2,0:3:0:0:
490,162,102011,2,0,P|518:209|499:250,1,82.5000031471254,10|0,0:0|0:0,0:0:0:0:
352,352,102230,2,0,P|370:343|391:339,2,41.2500015735627,2|2|2,0:1|0:3|0:3,0:0:0:0:
500,251,102449,1,0,3:0:0:0:
342,194,102668,6,0,B|321:186|321:186|274:204|235:205,1,101.749999611855,2|2,0:0|3:0,0:0:0:0:
340,276,102887,2,0,B|319:268|319:268|272:286|233:287,1,101.749999611855,10|0,0:0|0:0,0:0:0:0:
206,364,103106,6,0,P|218:282|244:204,1,165,2|0,3:0|0:0,0:0:0:0:
342,194,103544,2,0,P|326:166|296:156,1,55,2|2,3:2|0:3,0:0:0:0:
178,60,103763,1,10,0:2:0:0:
178,60,103873,1,2,0:2:0:0:
107,31,103982,1,2,3:3:0:0:
107,31,104092,1,2,0:3:0:0:
198,137,104201,6,0,P|150:140|144:199,1,101.749999611855,4|0,3:2|0:0,0:0:0:0:
78,233,104420,2,0,P|49:163|58:88,1,148.500000566483,2|2,0:0|3:0,0:0:0:0:
12,29,104639,2,0,P|38:54|37:76,2,41.2500015735627,10|2|2,0:0|0:3|0:3,0:0:0:0:
151,194,104858,1,2,3:0:0:0:
306,157,105077,38,0,B|378:166|340:220|416:228,1,131.99999597168,2|0,0:1|0:0,0:0:0:0:
435,223,105406,1,2,0:3:0:0:
507,165,105515,2,0,P|505:117|459:90,1,82.5000031471254,8|0,0:0|0:0,0:0:0:0:
442,23,105734,2,0,P|417:29|403:48,2,41.2500015735627,2|2|2,0:1|0:3|0:3,0:0:0:0:
306,157,105953,6,0,P|293:92|286:70,1,82.5000031471254,2|0,3:2|0:0,0:0:0:0:
207,19,106172,1,2,0:2:0:0:
207,19,106281,1,2,3:0:0:0:
144,71,106391,6,0,P|154:123|167:167,1,82.5,10|0,0:0|0:0,0:0:0:0:
185,223,106610,2,0,P|218:213|254:212,1,55,2|0,3:3|0:0,0:0:0:0:
487,240,106829,5,2,3:2:0:0:
452,266,106938,1,2,0:2:0:0:
410,250,107048,1,2,0:2:0:0:
376,276,107157,1,2,3:3:0:0:
323,338,107267,5,10,0:2:0:0:
290,274,107376,1,2,0:2:0:0:
224,303,107486,1,2,3:3:0:0:
191,239,107595,1,2,0:3:0:0:
113,227,107705,6,0,P|69:251|26:160,1,165.000006294251,4|2,3:1|0:0,0:0:0:0:
115,111,108033,1,2,3:0:0:0:
222,165,108143,2,0,P|251:173|272:174,2,41.2500015735627,10|2|2,0:0|0:3|0:3,0:0:0:0:
176,16,108362,2,0,P|186:77|194:111,1,82.5000031471254,2|0,3:0|0:0,0:0:0:0:
352,313,108581,22,0,B|374:248|315:251|336:185,1,131.99999597168,2|0,0:1|0:0,0:0:0:0:
354,173,108909,1,2,0:3:0:0:
486,109,109019,2,0,P|447:100|417:126,1,82.5000031471254,8|0,0:0|0:0,0:0:0:0:
384,246,109238,2,0,P|411:252|426:257,2,41.2500015735627,2|2|2,0:1|0:3|0:3,0:0:0:0:
492,282,109457,1,0,3:0:0:0:
278,291,109676,6,0,P|249:287|274:284,1,82.5000031471254,0|2,0:0|3:0,0:0:0:0:
214,208,109895,2,0,P|190:177|217:198,1,110,10|0,0:0|0:0,0:0:0:0:
238,101,110114,6,0,P|244:45|250:94,1,165,2|0,3:0|0:0,0:0:0:0:
274,132,110552,2,0,P|271:104|256:82,1,55,2|2,3:2|0:3,0:0:0:0:
0,42,110771,5,10,0:2:0:0:
0,42,110880,1,2,0:2:0:0:
53,101,110989,1,2,3:3:0:0:
53,101,111099,1,2,0:3:0:0:
13,172,111208,6,0,P|51:141|99:131,1,98.9999969787599,6|0,3:2|0:0,0:0:0:0:
314,39,111427,1,2,0:0:0:0:
188,53,111537,1,2,3:0:0:0:
184,90,111646,2,0,P|187:118|202:140,2,41.2500015735627,10|2|2,0:2|0:3|0:3,0:0:0:0:
193,203,111865,2,0,P|241:192|265:145,1,82.5000031471254,2|0,3:0|0:0,0:0:0:0:
413,196,112084,6,0,B|387:195|367:205|367:205|357:180|340:160,1,98.9999969787599,2|0,3:2|0:0,0:0:0:0:
403,38,112303,2,0,B|395:61|378:82|378:82|397:94|410:117,1,98.9999969787599,2|2,3:2|0:3,0:0:0:0:
497,193,112522,2,0,B|485:234|483:259|483:259|426:271|376:293,1,148.49999546814,10|0,0:0|0:0,0:0:0:0:
387,293,112741,2,0,P|385:316|378:344,2,49.4999984893799,0|2|2,3:0|0:3|0:3,0:0:0:0:
232,384,112960,21,2,3:0:0:0:
172,330,113070,1,2,0:2:0:0:
198,277,113179,1,2,0:0:0:0:
165,239,113289,1,2,3:2:0:0:
114,178,113398,5,10,0:2:0:0:
103,161,113508,1,2,0:2:0:0:
119,150,113617,1,2,3:3:0:0:
130,167,113727,1,2,0:3:0:0:
62,93,113836,6,0,B|41:125|-18:92|16:29|89:38|106:72,1,165,12|0,3:2|0:0,0:0:0:0:
183,93,114055,2,0,B|212:95|245:51|218:5|174:31|187:55,1,123.750004720688,8|0,3:2|0:0,0:0:0:0:
142,162,114274,6,0,B|160:162|160:197|123:198|108:163|120:146,1,82.5,8|0,3:2|0:0,0:0:0:0:
36,279,114712,5,2,0:0:0:0:
91,323,114931,2,0,P|110:326|121:329,2,27.5,0|0|2,0:0|0:0|0:0,0:0:0:0:
147,364,115369,2,0,P|166:367|177:370,2,27.5,0|0|2,0:0|0:0|0:0,0:0:0:0:
243,342,115807,1,2,0:0:0:0:
318,329,116026,1,10,0:0:0:0:
394,317,116245,1,0,0:0:0:0:
462,352,116464,85,2,0:0:0:0:
410,301,116683,2,0,P|407:278|402:263,2,27.5,0|0|2,0:0|0:0|0:0,0:0:0:0:
365,244,117121,2,0,P|362:221|357:206,2,27.5,0|0|2,0:0|0:0|0:0,0:0:0:0:
433,202,117559,1,10,0:0:0:0:
383,143,117778,1,10,0:0:0:0:
308,162,117997,1,0,0:0:0:0:
290,236,118216,5,2,0:0:0:0:
221,255,118435,2,0,P|207:251|194:249,2,27.5,0|0|2,0:0|0:0|0:0,0:0:0:0:
150,267,118873,2,0,P|136:263|123:261,2,27.5,0|0|2,0:0|0:0|0:0,0:0:0:0:
58,301,119311,1,0,0:0:0:0:
46,224,119530,1,10,0:0:0:0:
109,180,119749,1,2,0:0:0:0:
23,86,119968,85,2,0:0:0:0:
98,102,120187,1,0,0:0:0:0:
22,72,120406,1,2,0:0:0:0:
97,88,120625,2,0,P|135:96|176:108,1,82.5
200,114,121062,1,8,0:1:0:0:
200,114,121281,1,8,0:1:0:0:
512,263,121719,5,2,3:2:0:0:
439,217,121938,2,0,P|414:222|393:226,1,41.2500015735627,2|0,0:0|0:0,0:0:0:0:
327,243,122157,1,2,0:0:0:0:
365,314,122376,2,0,P|385:310|405:306,1,41.2500015735627,2|0,3:2|0:0,0:0:0:0:
437,299,122595,1,2,0:0:0:0:
384,184,122814,85,2,0:2:0:0:
400,268,123033,1,10,0:2:0:0:
416,352,123252,1,2,3:2:0:0:
206,307,123471,5,2,3:2:0:0:
59,216,123690,2,0,P|54:248|52:263,1,41.2500015735627,2|0,0:0|0:0,0:0:0:0:
42,349,123909,1,2,0:0:0:0:
123,331,124128,2,0,P|128:299|130:284,1,41.2500015735627,2|0,3:2|0:0,0:0:0:0:
133,256,124347,1,2,0:0:0:0:
71,217,124566,85,10,0:2:0:0:
54,350,124785,1,10,0:2:0:0:
178,299,125004,1,2,3:2:0:0:
288,165,125223,5,2,3:2:0:0:
237,10,125442,2,0,P|262:15|283:19,1,41.2500015735627,2|0,0:0|0:0,0:0:0:0:
349,36,125661,1,2,0:0:0:0:
185,80,125880,2,0,P|205:83|225:87,1,41.2500015735627,2|0,3:2|0:0,0:0:0:0:
257,95,126099,1,2,0:0:0:0:
136,139,126318,85,2,0:0:0:0:
237,10,126537,1,10,0:0:0:0:
288,165,126756,1,2,3:2:0:0:
466,104,126975,5,2,3:2:0:0:
486,179,127194,1,0,0:0:0:0:
411,199,127413,1,2,0:0:0:0:
391,124,127632,1,0,3:2:0:0:
386,111,127851,1,0,0:0:0:0:
50,42,128070,85,8,0:1:0:0:
38,43,128289,1,8,0:1:0:0:
56,116,128508,1,0,3:0:0:0:
69,190,128727,5,4,3:2:0:0:
120,211,128836,1,2,0:0:0:0:
131,242,128946,1,2,0:0:0:0:
123,264,129055,1,2,0:0:0:0:
112,276,129165,1,0,0:0:0:0:
59,328,129384,1,0,3:0:0:0:
133,350,129603,2,0,P|180:340|231:329,1,82.5000031471254
282,298,129931,1,0,0:0:0:0:
293,315,130041,2,0,P|288:349|284:369,1,41.2500015735627,10|0,0:0|0:0,0:0:0:0:
358,369,130260,2,0,P|361:348|364:328,1,41.2500015735627,0|0,3:0|0:0,0:0:0:0:
505,165,130479,5,2,3:2:0:0:
448,218,130588,2,0,P|452:250|457:283,1,65.9999979858399,2|0,0:0|0:0,0:0:0:0:
364,328,130807,1,2,0:0:0:0:
383,301,130916,2,0,P|378:268|373:235,1,65.9999979858399,2|0,0:0|0:0,0:0:0:0:
324,178,131135,1,2,3:2:0:0:
248,245,131354,1,2,0:0:0:0:
231,242,131573,1,8,0:0:0:0:
91,198,131792,2,0,L|46:207,4,33.0000012588501,8|2|2|2|2,0:0|0:3|0:3|0:3|0:3,0:0:0:0:
10,190,132230,70,0,P|70:176|98:169,1,82.5,2|0,3:2|0:0,0:0:0:0:
112,167,132449,2,0,P|114:150|119:107,1,55,2|0,0:0|0:0,0:0:0:0:
184,49,132668,2,0,P|188:76|191:103,1,55,2|0,0:0|0:0,0:0:0:0:
198,125,132887,2,0,P|225:129|252:132,1,55,0|0,3:0|0:0,0:0:0:0:
328,145,133106,1,0,0:0:0:0:
345,218,133325,1,2,0:0:0:0:
361,221,133435,1,2,0:0:0:0:
350,233,133544,1,10,0:0:0:0:
431,244,133763,1,0,3:0:0:0:
506,84,133982,5,2,3:2:0:0:
447,32,134092,2,0,P|408:28|373:56,1,65.9999979858399,2|0,0:0|0:0,0:0:0:0:
366,141,134311,1,2,0:0:0:0:
396,157,134420,2,0,P|435:161|470:133,1,65.9999979858399,2|0,0:0|0:0,0:0:0:0:
506,84,134639,1,2,3:2:0:0:
510,74,134858,1,2,0:0:0:0:
248,65,135077,5,8,0:1:0:0:
239,53,135296,2,0,P|243:39|245:21,4,33.0000012588501,8|2|2|2|2,0:1|0:3|0:3|0:3|0:3,0:0:0:0:
237,139,135734,5,14,3:2:0:0:
162,36,135953,2,0,P|133:32|106:28,1,55,2|0,0:0|0:0,0:0:0:0:
35,15,136172,1,10,3:2:0:0:
22,175,136391,2,0,P|51:179|78:183,1,41.2500015735627,2|0,0:0|0:0,0:0:0:0:
115,191,136610,1,10,3:2:0:0:
214,207,136829,6,0,P|212:192|210:179,1,27.5,2|0,0:0|0:0,0:0:0:0:
207,155,137048,1,10,3:2:0:0:
69,258,137267,2,0,P|66:271|65:285,1,27.5,2|0,0:0|0:0,0:0:0:0:
94,353,137486,37,10,3:2:0:0:
165,383,137595,2,0,P|196:346|237:342,1,65.9999979858399,2|0,0:0|0:0,0:0:0:0:
283,248,137814,1,2,0:0:0:0:
271,285,137924,2,0,P|310:312|351:305,1,65.9999979858399,10|0,3:2|0:0,0:0:0:0:
400,288,138143,2,0,P|419:264|444:258,1,55,2|0,0:0|0:0,0:0:0:0:
510,183,138362,2,0,P|461:178|393:165,1,110,10|8,3:2|0:1,0:0:0:0:
203,231,138800,2,0,P|199:247|198:264,4,33.0000012588501,8|2|2|2|2,3:1|0:3|0:3|0:3|0:3,0:0:0:0:
178,201,139238,5,14,3:2:0:0:
34,217,139457,2,0,P|29:189|22:163,1,55,2|0,0:2|0:0,0:0:0:0:
118,58,139676,2,0,P|128:113|137:157,1,82.5000031471254,10|0,3:2|0:0,0:0:0:0:
252,176,140114,6,0,P|260:138|265:104,1,55,10|0,3:2|0:0,0:0:0:0:
324,7,140333,2,0,L|319:45,1,27.5,2|2,0:0|0:0,0:0:0:0:
339,11,140442,2,0,L|334:49,1,27.5,2|2,0:0|0:0,0:0:0:0:
353,18,140552,1,10,3:2:0:0:
429,31,140771,1,0,0:0:0:0:
466,228,140989,6,0,P|431:261|361:248,1,110,10|2,3:2|0:0,0:0:0:0:
345,159,141427,2,0,P|380:126|450:139,1,110,10|2,3:2|0:0,0:0:0:0:
508,164,141865,1,10,3:2:0:0:
277,338,142084,5,0,0:0:0:0:
261,325,142303,2,0,P|256:301|243:266,4,44,10|2|2|2|2,3:2|0:3|0:3|0:3|0:3,0:0:0:0:
236,206,142741,38,0,P|184:217|117:236,1,110,2|0,0:0|0:0,0:0:0:0:
129,232,143617,2,0,P|78:200|149:108,1,197.99999395752,2|0,0:0|0:0,0:0:0:0:
136,106,144493,2,0,P|148:65|234:76,1,142.99999345398,2|0,0:0|0:0,0:0:0:0:
232,72,145369,2,0,P|265:83|268:131,1,88,2|0,0:0|0:0,0:0:0:0:
17,336,153252,101,2,0:0:0:0:
13,345,153471,1,2,0:0:0:0:
22,351,153690,2,0,P|51:334|104:323,1,82.5,2|2,0:3|0:3,0:0:0:0:
116,324,154128,2,0,B|144:277|94:266|123:216,1,110,2|8,0:0|0:0,0:0:0:0:
201,285,154785,1,0,0:0:0:0:
259,341,155442,5,2,0:3:0:0:
280,319,155661,1,2,0:0:0:0:
287,326,155771,2,0,P|332:333|378:345,1,82.5,2|0,0:3|0:0,0:0:0:0:
446,373,156318,2,0,P|440:335|432:302,1,55,10|2,0:0|0:0,0:0:0:0:
493,201,156756,85,2,0:0:0:0:
484,194,156975,1,2,0:0:0:0:
481,204,157194,2,0,P|447:214|391:225,1,82.5,2|2,0:3|0:3,0:0:0:0:
340,173,157632,5,2,0:0:0:0:
319,166,157851,1,0,0:0:0:0:
322,187,158070,1,10,0:0:0:0:
261,255,158289,2,0,P|256:231|248:206,1,27.5,2|0,0:0|0:0,0:0:0:0:
224,126,158508,1,4,0:0:0:0:
256,192,158617,12,4,159822,0:3:0:0:
20,181,160260,6,0,P|34:134|105:157,1,115.49999647522,4|0,3:1|0:0,0:0:0:0:
213,167,160479,1,2,0:0:0:0:
273,39,160588,1,2,3:0:0:0:
257,25,160698,2,0,B|246:32|245:52|245:52|291:112|298:210,1,173.24999471283,10|0,0:0|0:0,0:0:0:0:
295,184,160916,2,0,P|348:210|387:180,1,98.9999969787599,2|0,3:0|0:0,0:0:0:0:
512,261,161135,6,0,B|504:182|451:229|447:145,1,131.99999597168,2|0,0:1|0:0,0:0:0:0:
435,136,161464,1,2,0:3:0:0:
395,8,161573,2,0,P|380:47|372:87,1,82.5000031471254,8|0,0:0|0:0,0:0:0:0:
263,129,161792,2,0,P|273:162|284:182,2,41.2500015735627,2|2|2,3:1|0:3|0:3,0:0:0:0:
438,271,162011,1,0,3:0:0:0:
160,89,162230,6,0,P|155:137|194:165,1,98.9999969787599,2|2,0:0|3:0,0:0:0:0:
379,192,162449,2,0,P|340:164|296:183,1,98.9999969787599,10|0,0:0|0:0,0:0:0:0:
155,374,162668,2,0,B|158:293|241:318|233:236,1,165,2|0,3:0|0:0,0:0:0:0:
349,169,163106,2,0,P|322:175|296:183,1,55,0|2,3:0|0:3,0:0:0:0:
0,111,163325,5,10,0:0:0:0:
18,115,163435,1,2,0:0:0:0:
86,168,163544,1,2,3:3:0:0:
99,154,163654,1,2,0:3:0:0:
179,121,163763,6,0,P|177:93|245:90,1,110,4|0,3:2|0:0,0:0:0:0:
275,167,163982,2,0,P|264:87|299:14,1,165.000006294251,0|2,0:0|3:0,0:0:0:0:
365,44,164201,2,0,P|387:60|415:63,2,55,10|2|2,0:0|0:3|0:3,0:0:0:0:
431,136,164420,1,2,3:0:0:0:
174,242,164639,38,0,B|245:230|208:180|275:168,1,131.99999597168,2|0,0:1|3:0,0:0:0:0:
304,161,164968,1,2,0:3:0:0:
415,63,165077,2,0,P|445:99|492:92,1,98.9999969787599,8|0,0:0|0:0,0:0:0:0:
378,183,165296,2,0,P|384:205|392:226,2,32.99999899292,2|2|2,0:1|0:3|0:3,0:0:0:0:
480,374,165515,5,2,3:0:0:0:
416,317,165625,1,2,0:0:0:0:
455,252,165734,1,2,0:0:0:0:
421,227,165844,1,2,3:0:0:0:
449,156,165953,2,0,P|443:140|439:124,2,32.99999899292,10|2|2,0:0|0:3|0:3,0:0:0:0:
280,33,166172,5,2,3:2:0:0:
208,64,166281,1,2,0:2:0:0:
264,119,166391,1,2,3:0:0:0:
336,91,166500,2,0,P|291:79|189:61,1,131.99999597168,0|2,0:0|3:0,0:0:0:0:
4,106,166829,5,10,0:2:0:0:
93,122,166938,1,2,0:2:0:0:
69,200,167048,1,2,3:3:0:0:
39,193,167157,1,2,0:3:0:0:
42,277,167267,6,0,P|84:228|141:266,1,115.49999647522,4|0,3:1|0:0,0:0:0:0:
318,371,167486,1,2,0:0:0:0:
255,250,167595,1,2,3:0:0:0:
191,292,167705,2,0,P|293:271|395:248,1,173.24999471283,10|0,0:0|0:0,0:0:0:0:
360,256,167924,2,0,P|388:297|374:328,1,82.5000031471254,2|0,3:0|0:0,0:0:0:0:
191,292,168143,38,0,B|190:221|251:251|251:170,1,131.99999597168,2|0,0:1|3:0,0:0:0:0:
236,161,168471,1,2,0:3:0:0:
355,23,168581,2,0,P|401:34|455:39,1,82.5000031471254,8|0,0:0|0:0,0:0:0:0:
487,100,168800,2,0,P|483:125|481:150,2,41.2500015735627,2|2|2,3:1|0:3|0:3,0:0:0:0:
337,35,169019,1,0,3:0:0:0:
265,59,169238,6,0,P|286:94|325:107,1,82.5000031471254,2|2,0:0|3:0,0:0:0:0:
98,171,169457,2,0,P|94:115|125:86,1,82.5000031471254,10|0,0:0|0:0,0:0:0:0:
193,0,169676,2,0,P|187:97|227:187,1,197.99999395752,2|0,3:0|0:0,0:0:0:0:
236,184,170114,2,0,P|227:148|197:123,1,65.9999979858399,0|2,3:0|0:3,0:0:0:0:
25,309,170333,5,10,0:2:0:0:
46,304,170442,1,2,0:2:0:0:
126,271,170552,1,2,3:3:0:0:
134,283,170661,1,2,0:3:0:0:
168,378,170771,6,0,P|187:333|229:309,1,98.9999969787599,6|0,3:2|0:0,0:0:0:0:
397,296,170989,1,0,0:0:0:0:
314,226,171099,1,2,3:0:0:0:
290,215,171208,2,0,P|317:202|335:210,2,41.2500015735627,10|2|2,0:0|0:3|0:3,0:0:0:0:
398,167,171427,2,0,P|431:191|433:236,1,82.5000031471254,2|0,3:0|0:0,0:0:0:0:
258,26,171646,6,0,P|278:43|254:28,1,82.5000031471254,2|0,3:2|0:0,0:0:0:0:
184,90,171865,2,0,P|201:113|177:90,1,110,2|2,3:2|0:3,0:0:0:0:
83,62,172084,2,0,B|101:131|37:149|35:131|-7:154|0:205,1,165,10|0,0:0|0:0,0:0:0:0:
14,204,172303,2,0,P|22:221|29:248,2,27.5,0|2|2,0:0|0:3|0:3,0:0:0:0:
212,370,172522,37,2,3:0:0:0:
220,277,172632,1,2,0:2:0:0:
272,221,172741,1,2,0:2:0:0:
318,214,172851,1,2,3:0:0:0:
392,200,172960,5,10,0:2:0:0:
355,137,173070,1,2,0:2:0:0:
312,127,173179,1,2,3:3:0:0:
290,141,173289,1,2,0:3:0:0:
215,136,173398,6,0,B|194:58|259:11|259:11|246:57|283:86,1,206.25,14|0,3:2|0:0,0:0:0:0:
404,53,173617,2,0,B|362:62|353:100|353:100|361:60|334:31,1,148.49999546814,10|0,3:2|0:0,0:0:0:0:
158,183,173836,6,0,B|142:202|98:179|117:97|195:107|215:136,1,165,10|0,3:2|0:0,0:0:0:0:
211,242,174274,22,0,P|123:225|51:213,1,148.500000566483,4|0,3:1|0:0,0:0:0:0:
42,212,174603,1,2,0:0:0:0:
113,302,174712,2,0,P|149:309|163:312,2,37.1250001416206,8|2|2,0:0|0:3|0:3,0:0:0:0:
26,135,174931,6,0,P|33:93|129:114,1,165,2|0,3:2|0:3,0:0:0:0:
212,136,175369,1,2,0:0:0:0:
256,76,175479,1,0,0:0:0:0:
301,106,175588,1,10,0:0:0:0:
329,84,175698,2,0,P|357:80|402:73,1,55,0|2,0:0|0:3,0:0:0:0:
491,230,175916,1,2,0:3:0:0:
474,254,176026,6,0,P|465:193|453:96,1,148.500000566483,2|0,3:2|0:0,0:0:0:0:
461,78,176354,1,2,0:3:0:0:
387,171,176464,2,0,L|392:212,2,37.1250001416206,8|2|2,0:0|0:3|0:3,0:0:0:0:
308,114,176683,6,0,P|318:196|330:277,1,165,2|0,3:2|0:0,0:0:0:0:
334,298,177121,2,0,P|305:312|266:305,1,55,2|0,0:3|0:0,0:0:0:0:
173,296,177340,1,10,0:0:0:0:
215,237,177449,2,0,P|184:221|135:237,1,82.5000031471254,2|0,0:3|0:0,0:0:0:0:
29,345,177668,1,2,0:3:0:0:
59,364,177778,6,0,P|50:303|38:206,1,148.500000566483,2|0,3:2|0:0,0:0:0:0:
35,187,178106,1,2,0:0:0:0:
195,148,178216,2,0,L|189:189,2,37.1250001416206,8|2|2,0:0|0:3|0:3,0:0:0:0:
124,254,178435,2,0,P|115:193|100:79,1,165,2|0,3:2|0:0,0:0:0:0:
101,60,178873,2,0,P|128:40|165:44,1,55,2|0,0:0|0:0,0:0:0:0:
282,122,179092,1,8,0:0:0:0:
332,140,179201,1,2,0:0:0:0:
335,167,179311,2,0,P|361:181|390:172,1,55,2|2,0:3|0:3,0:0:0:0:
503,39,179530,6,0,P|437:51|345:64,1,148.500000566483,2|0,3:2|0:0,0:0:0:0:
330,66,179858,1,2,0:0:0:0:
443,126,179968,2,0,L|487:117,2,37.1250001416206,8|2|2,0:0|0:3|0:3,0:0:0:0:
293,259,180187,2,0,P|307:183|384:175,1,165,2|0,3:2|0:0,0:0:0:0:
402,192,180625,2,0,P|420:224|412:252,1,55,2|0,0:0|0:0,0:0:0:0:
250,329,180843,1,10,0:0:0:0:
181,297,180953,2,0,P|185:275|187:261,1,27.5,2|2,0:3|0:3,0:0:0:0:
163,295,181062,2,0,P|167:273|169:259,1,27.5
145,293,181172,2,0,P|149:271|151:257,1,27.5,8|2,0:0|0:3,0:0:0:0:
93,355,181281,6,0,P|62:317|80:236,1,131.99999597168,4|0,3:1|0:0,0:0:0:0:
77,218,181610,1,2,0:0:0:0:
186,146,181719,2,0,P|175:180|134:193,1,65.9999979858399,10|0,0:0|0:0,0:0:0:0:
22,162,181938,1,2,3:3:0:0:
122,93,182157,6,0,P|155:69|225:76,1,110,2|0,0:0|0:0,0:0:0:0:
243,72,182486,1,2,0:0:0:0:
308,117,182595,2,0,P|290:137|263:141,1,55,10|2,0:0|0:3,0:0:0:0:
277,1,182814,1,2,3:3:0:0:
445,81,183033,5,2,3:0:0:0:
409,146,183143,1,2,0:2:0:0:
446,174,183252,1,2,0:2:0:0:
434,207,183362,1,2,0:2:0:0:
448,218,183471,2,0,P|457:260|466:330,1,110,10|2,0:0|3:0,0:0:0:0:
356,203,183909,6,0,P|361:240|369:274,1,55,2|0,0:0|0:0,0:0:0:0:
387,369,184128,1,0,0:0:0:0:
282,249,184347,2,0,P|262:253|237:257,1,27.5,10|2,0:0|0:3,0:0:0:0:
286,277,184457,2,0,P|266:281|241:285,1,27.5,2|2,0:3|0:3,0:0:0:0:
290,354,184566,1,2,3:2:0:0:
62,229,184785,6,0,P|56:180|101:116,1,110,2|0,3:2|0:0,0:0:0:0:
91,102,185114,1,2,0:3:0:0:
207,99,185223,2,0,P|189:119|163:129,1,55,8|0,0:0|0:0,0:0:0:0:
10,73,185442,2,0,P|73:24|148:49,1,165,2|0,3:2|0:0,0:0:0:0:
207,99,185880,6,0,P|244:91|275:87,1,55,2|0,0:3|0:0,0:0:0:0:
334,35,186099,1,10,0:0:0:0:
395,77,186208,2,0,P|399:114|405:143,1,65.9999979858399,2|0,0:3|0:3,0:0:0:0:
486,250,186427,1,2,0:3:0:0:
501,222,186537,6,0,P|435:219|387:271,1,131.99999597168,2|0,3:2|0:0,0:0:0:0:
389,284,186865,1,2,0:3:0:0:
485,378,186975,2,0,P|479:343|442:319,1,65.9999979858399,8|0,0:0|0:0,0:0:0:0:
338,196,187194,2,0,P|311:233|359:371,1,197.99999395752,2|0,3:2|0:0,0:0:0:0:
351,366,187632,6,0,P|308:356|261:348,1,65.9999979858399,10|0,0:0|0:0,0:0:0:0:
46,259,187851,2,0,P|89:248|136:240,1,65.9999979858399,8|2,0:0|0:0,0:0:0:0:
299,97,188070,1,0,3:0:0:0:
296,83,188179,1,8,3:2:0:0:
305,70,188289,22,0,B|323:42|298:14|298:14|279:48|296:115|371:164|468:115|497:66|475:0|475:0|408:-4|360:74|394:159|463:176|463:176|391:223|348:221|366:184|277:87|241:183|270:207|198:223|122:185|109:92|141:24|141:24|162:87|207:49|259:117|220:192,1,1324.40002020874,4|0,3:0|0:0,0:0:0:0:
251,333,191792,85,2,3:2:0:0:
238,333,192230,5,2,0:3:0:0:
171,376,192449,1,2,3:2:0:0:
66,305,192668,1,2,3:2:0:0:
62,293,193106,85,2,0:3:0:0:
110,222,193325,1,2,3:2:0:0:
274,260,193544,1,2,3:2:0:0:
288,270,193982,5,2,0:3:0:0:
360,212,194201,1,0,3:0:0:0:
447,234,194420,1,2,3:2:0:0:
486,297,194858,2,0,P|498:298|516:305,7,27.5,2|0|0|0|0|0|0|0,0:3|0:0|0:0|0:0|0:0|0:0|0:0|0:0,0:0:0:0:
413,301,195296,86,0,B|410:339|366:364|366:364|413:346|450:362,1,165,2|0,3:2|0:0,0:0:0:0:
486,297,195734,2,0,P|478:261|420:212,1,110,2|0,0:3|3:0,0:0:0:0:
262,173,196172,1,2,3:2:0:0:
228,240,196610,1,2,0:3:0:0:
16,157,197048,5,2,3:2:0:0:
86,182,197486,1,2,0:3:0:0:
156,153,197924,1,0,3:0:0:0:
151,141,198033,1,2,0:0:0:0:
163,142,198143,1,2,0:0:0:0:
148,67,198362,2,0,B|202:60|202:60|228:75|228:75|284:66,1,123.750004720688,2|0,3:2|0:0,0:0:0:0:
468,34,198800,85,4,3:0:0:0:
476,47,199238,1,2,1:3:0:0:
393,18,199457,1,2,3:2:0:0:
245,147,199676,1,2,3:2:0:0:
241,162,200114,5,2,1:3:0:0:
307,217,200333,1,2,3:2:0:0:
397,132,200552,1,2,3:2:0:0:
409,129,200989,85,2,1:3:0:0:
467,203,201208,1,2,3:2:0:0:
426,272,201427,1,2,3:2:0:0:
484,345,201865,2,0,P|483:335|480:324,6,20.6250007867813,2|0|0|0|0|0|0,1:3|0:0|0:0|0:0|0:0|0:0|0:0,0:0:0:0:
426,272,202303,6,0,P|389:249|364:336,1,165,2|0,3:2|0:0,0:0:0:0:
283,369,202741,2,0,P|265:334|198:359,1,110,2|0,1:3|3:0,0:0:0:0:
32,270,203179,1,2,3:2:0:0:
104,251,203617,1,2,1:3:0:0:
149,93,204055,86,0,P|209:161|284:110,1,197.99999395752,4|0,3:2|0:0,0:0:0:0:
283,110,204493,2,0,P|325:57|385:91,1,148.500000566483,2|0,1:2|0:0,0:0:0:0:
384,90,204931,2,0,P|422:104|462:54,1,110,8|0,3:2|0:0,0:0:0:0:
462,56,205369,54,0,B|450:33|434:27|434:27|448:16|452:-9|452:-9|464:13|481:19|481:19|467:30|462:56,1,165,4|0,0:3|0:0,0:0:0:0:
