osu file format v14

[General]
AudioFilename: audio.mp3
AudioLeadIn: 0
PreviewTime: 68141
Countdown: 0
SampleSet: Soft
StackLeniency: 0.7
Mode: 0
LetterboxInBreaks: 0
WidescreenStoryboard: 0

[Editor]
DistanceSpacing: 1.4
BeatDivisor: 8
GridSize: 32
TimelineZoom: 1.2

[Metadata]
Title:BOOMERANG
TitleUnicode:부메랑
Artist:Wanna One
ArtistUnicode:워너원
Creator:TmacBoris
Version:Insane
Source:
Tags:kpop 0+1=1 I Promise You I.P.U 약속해요 YMC Entertainment CJ E&M Jisung 지성 Sungwoon 성운 Minhyun 민현 Seongwoo 성우 Jaehwan 재환 Daniel 다니엘 Jihoon 지훈 Woojin 우진 Jinyoung 진영 Daehwi 대휘 Guanlin 관린 賴冠霖 Produce 101
BeatmapID:1587022
BeatmapSetID:753836

[Difficulty]
HPDrainRate:6.5
CircleSize:4.5
OverallDifficulty:7
ApproachRate:9
SliderMultiplier:2.2
SliderTickRate:1

[Events]
//Background and Video events
Video,0,"Wanna One (워너원) - 'BOOMERANG (부메랑)' M_V.avi"
0,0,"Wanna one.png",0,0
//Break Periods
2,109141,117941
2,168841,171531
//Storyboard Layer 0 (Background)
//Storyboard Layer 1 (Fail)
//Storyboard Layer 2 (Pass)
//Storyboard Layer 3 (Foreground)
//Storyboard Sound Samples

[TimingPoints]
352,600,4,2,0,80,1,0
10541,600,4,2,0,80,1,0
10541,-100,4,2,0,80,0,0
20141,-66.6666666666667,4,2,0,80,0,1
23741,-100,4,2,0,80,0,1
24941,-66.6666666666667,4,2,0,80,0,1
27341,-100,4,2,0,80,0,0
28841,-111.111111111111,4,2,0,80,0,0
29741,-133.333333333333,4,2,0,80,0,0
35741,-200,4,2,0,80,0,0
36341,-111.111111111111,4,2,0,80,0,0
36941,-95.2380952380951,4,2,0,80,0,0
38141,-83.3333333333333,4,2,0,80,0,0
39341,-100,4,2,0,80,0,0
45041,-125,4,2,0,80,0,0
45491,-100,4,2,0,80,0,0
46541,-86.9565217391304,4,2,0,80,0,0
47741,-76.9230769230769,4,2,0,80,0,0
48941,-200,4,2,0,80,0,0
50141,-153.846153846153,4,2,0,80,0,0
51341,-125,4,2,0,80,0,0
56141,-142.857142857143,4,2,0,80,0,0
58541,-100,4,2,0,80,0,0
63341,-95.2380952380952,4,2,0,80,0,0
64541,-90.9090909090909,4,2,0,80,0,0
65741,-86.9565217391304,4,2,0,80,0,0
66941,-83.3333333333333,4,2,0,80,0,0
68141,-100,4,2,0,80,0,0
70541,-66.6666666666667,4,2,0,80,0,1
74141,-100,4,2,0,80,0,1
75341,-66.6666666666667,4,2,0,80,0,1
77741,-80,4,2,0,80,0,1
80141,-66.6666666666667,4,2,0,80,0,1
83741,-100,4,2,0,80,0,1
84941,-66.6666666666667,4,2,0,80,0,1
87341,-100,4,2,0,80,0,1
89741,-111.111111111111,4,2,0,80,0,0
94541,-100,4,2,0,80,0,0
96941,-90.9090909090909,4,2,0,80,0,0
98141,-133.333333333333,4,2,0,80,0,0
99341,-200,4,2,0,80,0,0
100541,-125,4,2,0,80,0,0
101741,-111.111111111111,4,2,0,80,0,0
102941,-125,4,2,0,80,0,0
104141,-111.111111111111,4,2,0,80,0,0
106541,-100,4,2,0,80,0,0
108941,-125,4,2,0,80,0,0
118541,-100,4,2,0,80,0,0
123341,-95.2380952380952,4,2,0,80,0,0
124541,-90.9090909090909,4,2,0,80,0,0
125741,-86.9565217391304,4,2,0,80,0,0
126941,-83.3333333333333,4,2,0,80,0,0
128141,-100,4,2,0,80,0,0
130541,-66.6666666666667,4,2,0,80,0,1
134141,-100,4,2,0,80,0,1
135341,-66.6666666666667,4,2,0,80,0,1
137741,-80,4,2,0,80,0,1
140141,-66.6666666666667,4,2,0,80,0,1
143741,-100,4,2,0,80,0,1
144941,-66.6666666666667,4,2,0,80,0,1
147341,-100,4,2,0,80,0,1
149741,-166.666666666667,4,2,0,80,0,0
156941,-142.857142857143,4,2,0,80,0,0
162941,-125,4,2,0,80,0,0
166541,-111.111111111111,4,2,0,80,0,0
172131,600,4,2,0,80,1,0
172131,-133.333333333333,4,2,0,80,0,0
181731,-111.111111111111,4,2,0,80,0,0
188781,-100,4,2,0,80,0,0
193731,-66.6666666666667,4,2,0,80,0,1
197331,-100,4,2,0,80,0,1
198531,-66.6666666666667,4,2,0,80,0,1
200931,-80,4,2,0,80,0,1
203331,-66.6666666666667,4,2,0,80,0,1
206931,-100,4,2,0,80,0,1
208131,-66.6666666666667,4,2,0,80,0,1
210531,-100,4,2,0,80,0,1
212931,-100,4,2,0,80,0,0
214529,600,4,2,0,80,1,0

[HitObjects]
93,82,10541,6,0,P|138:67|209:66,1,110
277,69,10991,1,0,0:0:0:0:
277,69,11141,2,0,L|273:124,1,55
269,200,11441,2,0,P|298:196|329:177,2,55
191,200,11891,1,0,0:0:0:0:
193,276,12041,2,0,P|238:291|309:292,1,110
377,287,12491,2,0,P|422:266|439:246,1,55
438,238,12716,1,0,0:0:0:0:
443,211,12791,1,0,0:0:0:0:
441,184,12866,1,0,0:0:0:0:
430,158,12941,6,0,P|385:143|314:142,1,110
247,147,13391,2,0,L|242:84,2,55
251,223,13841,2,0,P|222:219|191:200,2,55
329,223,14291,1,0,0:0:0:0:
327,299,14441,2,0,P|282:314|211:315,1,110
143,310,14891,1,0,0:0:0:0:
79,268,15041,1,0,0:0:0:0:
66,244,15116,1,0,0:0:0:0:
61,217,15191,1,0,0:0:0:0:
63,190,15266,1,0,0:0:0:0:
74,164,15341,5,0,0:0:0:0:
112,68,15541,1,0,0:0:0:0:
176,148,15741,1,0,0:0:0:0:
47,98,15941,5,0,0:0:0:0:
184,76,16141,1,0,0:0:0:0:
133,205,16341,1,0,0:0:0:0:
103,24,16541,5,0,0:0:0:0:
218,165,16741,1,0,0:0:0:0:
38,191,16941,1,0,0:0:0:0:
122,128,17141,5,0,0:0:0:0:
202,64,17341,1,0,0:0:0:0:
218,165,17541,1,0,0:0:0:0:
310,250,17741,6,0,L|264:205,1,55
343,186,18041,2,0,L|388:141,1,55
407,219,18341,2,0,L|452:265,1,55
374,284,18641,2,0,L|328:330,1,55
110,217,19241,2,0,B|96:164|106:115|106:115|147:72|204:54,1,220
452,43,20141,5,0,0:0:0:0:
327,339,20441,2,0,L|335:247,1,82.5000031471254
191,339,20741,2,0,L|130:266,2,82.5000031471254
84,211,21191,1,0,0:0:0:0:
364,36,21491,2,0,L|356:118,1,82.5000031471254
339,282,21791,1,0,0:0:0:0:
417,136,21941,1,0,0:0:0:0:
445,298,22091,1,0,0:0:0:0:
323,186,22241,2,0,P|272:166|174:212,1,165.000006294251
457,33,22841,6,0,L|464:115,1,82.5000031471254
318,37,23141,2,0,L|257:109,2,82.5000031471254
211,164,23591,1,0,0:0:0:0:
214,240,23741,5,0,0:0:0:0:
259,303,23891,1,0,0:0:0:0:
334,323,24041,1,0,0:0:0:0:
459,232,24341,1,0,0:0:0:0:
459,232,24491,2,0,L|498:229,4,27.5
343,237,24941,5,0,0:0:0:0:
34,353,25241,2,0,L|42:261,1,82.5000031471254
55,105,25541,1,0,0:0:0:0:
160,231,25691,2,0,L|99:158,1,82.5000031471254
211,295,25991,1,0,0:0:0:0:
413,34,26291,2,0,L|405:116,1,82.5000031471254
388,280,26591,1,0,0:0:0:0:
466,134,26741,1,0,0:0:0:0:
494,296,26891,1,0,0:0:0:0:
366,191,27041,2,0,L|407:194,3,41.2500015735627
446,197,27341,5,0,0:0:0:0:
353,35,27641,1,0,0:0:0:0:
492,116,27941,1,0,0:0:0:0:
306,116,28241,2,0,L|265:114,6,27.5
375,122,28841,5,0,0:0:0:0:
376,191,28991,2,0,P|377:213|363:248,1,49.4999984893799
332,298,29291,1,0,0:0:0:0:
332,298,29741,6,0,P|257:292|249:207,1,165.000006294251
272,109,30641,2,0,P|208:110|140:186,1,165.000006294251
134,287,31541,5,0,0:0:0:0:
176,320,31691,2,0,L|171:366,2,41.2500015735627
228,308,32141,1,0,0:0:0:0:
268,273,32291,1,0,0:0:0:0:
270,112,32741,6,0,P|280:73|330:52,1,82.5000031471254
421,46,33341,1,0,0:0:0:0:
480,134,33641,2,0,P|467:172|432:191,1,82.5000031471254
378,193,34091,2,0,L|282:184,1,82.5000031471254
242,180,34541,5,0,0:0:0:0:
242,180,35141,2,0,L|237:235,1,41.2500015735627
234,274,35441,1,0,0:0:0:0:
204,338,35741,2,0,P|166:344|139:343,1,55
113,209,36341,5,0,0:0:0:0:
113,209,36491,1,0,0:0:0:0:
113,209,36641,2,0,L|180:209,1,49.4999984893799
242,199,36941,6,0,P|271:189|287:166,1,57.7499982376099
304,131,37166,1,0,0:0:0:0:
302,89,37241,1,0,0:0:0:0:
252,25,37391,1,0,0:0:0:0:
171,22,37541,2,0,L|168:54,2,28.874999118805
92,41,37841,2,0,P|61:79|54:99,1,57.7499982376099
57,127,38066,1,0,0:0:0:0:
61,172,38141,6,0,L|67:241,1,65.9999979858399
149,195,38441,2,0,L|172:260,1,65.9999979858399
240,194,38741,2,0,L|280:251,1,65.9999979858399
327,169,39041,2,0,L|380:213,1,65.9999979858399
449,238,39341,6,0,L|495:241,4,27.5
295,223,39941,2,0,P|263:217|229:198,1,55
174,171,40241,2,0,B|145:171|145:171|119:193,1,55
103,262,40541,2,0,P|109:294|128:328,1,55
185,353,40841,1,0,0:0:0:0:
185,276,40991,1,0,0:0:0:0:
252,312,41141,2,0,L|341:320,1,82.5
361,318,41441,1,0,0:0:0:0:
385,306,41516,1,0,0:0:0:0:
402,284,41591,1,0,0:0:0:0:
426,211,41741,6,0,L|430:183,4,27.5
436,134,42191,1,0,0:0:0:0:
436,134,42341,2,0,P|412:104|379:91,1,55
321,102,42641,2,0,P|340:44|380:20,2,110
322,179,43391,1,0,0:0:0:0:
310,254,43541,2,0,P|291:275|267:288,1,55
228,293,43766,1,0,0:0:0:0:
189,289,43841,2,0,P|164:276|146:255,1,55
146,217,44066,1,0,0:0:0:0:
148,178,44141,6,0,L|157:68,2,110
139,301,45041,2,0,P|84:284|55:259,1,88
37,193,45491,1,0,0:0:0:0:
37,116,45641,2,0,L|41:61,1,55
118,61,45941,2,0,L|113:115,1,55
110,192,46241,1,0,0:0:0:0:
110,192,46316,1,0,0:0:0:0:
110,192,46391,1,0,0:0:0:0:
151,270,46541,6,0,P|105:278|82:275,2,63.250001206398
234,241,46991,1,0,0:0:0:0:
307,193,47141,2,0,P|329:169|342:140,1,63.250001206398
352,52,47441,2,0,L|283:45,1,63.250001206398
188,39,47741,6,0,P|154:43|123:65,1,71.4999967269899
72,147,48041,1,0,0:0:0:0:
107,243,48191,1,0,0:0:0:0:
188,301,48341,1,0,0:0:0:0:
225,302,48416,1,0,0:0:0:0:
261,299,48491,1,0,0:0:0:0:
295,294,48566,1,0,0:0:0:0:
331,287,48641,1,0,0:0:0:0:
365,278,48716,1,0,0:0:0:0:
398,267,48791,1,0,0:0:0:0:
433,254,48866,1,0,0:0:0:0:
464,237,48941,6,0,P|490:207|495:167,1,82.5
491,128,49541,2,0,L|485:62,1,55
394,30,50141,2,0,B|346:31|339:67|294:70,1,107.249995090485
246,74,50741,2,0,P|216:74|175:50,1,71.4999967269899
57,43,51341,6,0,L|65:145,1,88
78,253,51941,1,0,0:0:0:0:
93,312,52091,1,0,0:0:0:0:
136,355,52241,1,0,0:0:0:0:
136,355,52691,1,0,0:0:0:0:
320,355,53141,2,0,P|361:333|390:249,1,132
390,194,53741,5,0,0:0:0:0:
278,49,54191,1,0,0:0:0:0:
101,109,54641,1,0,0:0:0:0:
107,295,55091,1,0,0:0:0:0:
288,348,55541,1,0,0:0:0:0:
390,194,56141,5,0,0:0:0:0:
387,156,56591,1,0,0:0:0:0:
384,118,57041,1,0,0:0:0:0:
380,79,57491,1,0,0:0:0:0:
377,41,57941,1,0,0:0:0:0:
377,41,58541,5,0,0:0:0:0:
365,194,58841,2,0,L|358:262,1,55
349,325,59141,2,0,P|302:299|284:238,1,110
287,94,59741,2,0,L|293:16,2,55
284,249,60341,2,0,P|258:296|197:314,1,110
53,304,60941,6,0,L|62:193,1,110
69,117,61391,1,0,0:0:0:0:
69,117,61541,2,0,P|87:72|151:34,1,110
290,45,62141,2,0,L|347:50,2,55
166,136,62741,2,0,B|206:152|218:188|262:198,1,110
416,219,63341,5,0,0:0:0:0:
400,57,63641,1,0,0:0:0:0:
352,211,63941,1,0,0:0:0:0:
336,50,64241,1,0,0:0:0:0:
288,203,64541,5,0,0:0:0:0:
288,203,64691,1,0,0:0:0:0:
203,206,64841,1,0,0:0:0:0:
203,206,64991,1,0,0:0:0:0:
249,276,65141,1,0,0:0:0:0:
249,276,65291,1,0,0:0:0:0:
164,279,65441,1,0,0:0:0:0:
164,279,65591,1,0,0:0:0:0:
124,199,65741,5,0,0:0:0:0:
85,123,65891,1,0,0:0:0:0:
83,209,66041,1,0,0:0:0:0:
126,112,66191,1,0,0:0:0:0:
42,197,66341,1,0,0:0:0:0:
167,124,66491,1,0,0:0:0:0:
13,167,66641,1,0,0:0:0:0:
196,154,66791,1,0,0:0:0:0:
159,238,66941,5,0,0:0:0:0:
159,238,67016,1,0,0:0:0:0:
159,238,67091,1,0,0:0:0:0:
251,229,67241,1,0,0:0:0:0:
251,229,67316,1,0,0:0:0:0:
251,229,67391,1,0,0:0:0:0:
310,299,67541,1,0,0:0:0:0:
278,309,67616,1,0,0:0:0:0:
246,315,67691,1,0,0:0:0:0:
213,318,67766,1,0,0:0:0:0:
180,319,67841,1,0,0:0:0:0:
147,316,67916,1,0,0:0:0:0:
115,310,67991,1,0,0:0:0:0:
83,301,68066,1,0,0:0:0:0:
52,289,68141,6,0,L|6:244,1,55
85,225,68441,2,0,L|130:180,1,55
52,161,68741,2,0,L|7:116,1,55
85,97,69041,2,0,L|123:58,1,55
353,39,69641,2,0,B|392:77|408:124|408:124|395:182|356:227,1,220
47,347,70541,5,0,0:0:0:0:
375,318,70841,2,0,L|283:326,1,82.5000031471254
362,189,71141,2,0,L|289:128,2,82.5000031471254
234,82,71591,1,0,0:0:0:0:
54,358,71891,2,0,L|62:276,1,82.5000031471254
83,112,72191,1,0,0:0:0:0:
157,259,72341,1,0,0:0:0:0:
9,189,72491,1,0,0:0:0:0:
171,166,72641,2,0,P|252:173|303:235,1,165.000006294251
39,32,73241,6,0,L|32:114,1,82.5000031471254
33,282,73541,2,0,L|94:210,2,82.5000031471254
140,155,73991,1,0,0:0:0:0:
216,157,74141,2,0,L|279:162,2,55
369,169,74741,1,0,0:0:0:0:
369,169,74891,1,0,0:0:0:0:
369,169,75341,5,0,0:0:0:0:
59,55,75641,2,0,L|151:63,1,82.5000031471254
306,74,75941,1,0,0:0:0:0:
201,200,76091,2,0,L|262:127,1,82.5000031471254
150,264,76391,1,0,0:0:0:0:
414,66,76691,2,0,L|406:148,1,82.5000031471254
383,312,76991,1,0,0:0:0:0:
221,274,77141,1,0,0:0:0:0:
333,153,77291,1,0,0:0:0:0:
301,315,77441,2,0,P|231:339|175:340,1,123.750004720688
123,338,77741,6,0,B|84:299|84:299|84:237,1,103.125
86,192,78041,2,0,P|94:149|116:122,1,68.75
219,94,78341,2,0,P|204:65|177:38,2,68.75
222,211,78791,1,0,0:0:0:0:
225,234,78866,1,0,0:0:0:0:
236,255,78941,1,0,0:0:0:0:
346,291,79091,1,0,0:0:0:0:
456,252,79241,2,0,P|475:224|475:177,1,68.75
458,74,79541,1,0,0:0:0:0:
347,35,79691,1,0,0:0:0:0:
324,38,79766,1,0,0:0:0:0:
303,49,79841,1,0,0:0:0:0:
25,91,80141,5,0,0:0:0:0:
206,366,80441,2,0,L|198:274,1,82.5000031471254
342,366,80741,2,0,L|403:293,2,82.5000031471254
449,238,81191,1,0,0:0:0:0:
169,63,81491,2,0,L|177:145,1,82.5000031471254
194,309,81791,1,0,0:0:0:0:
116,163,81941,1,0,0:0:0:0:
88,325,82091,1,0,0:0:0:0:
210,213,82241,2,0,P|249:175|357:181,1,165.000006294251
59,31,82841,6,0,L|52:113,1,82.5000031471254
198,35,83141,2,0,L|259:107,2,82.5000031471254
305,162,83591,1,0,0:0:0:0:
302,238,83741,5,0,0:0:0:0:
257,301,83891,1,0,0:0:0:0:
182,321,84041,1,0,0:0:0:0:
57,230,84341,1,0,0:0:0:0:
57,230,84491,2,0,L|18:227,4,27.5
173,235,84941,5,0,0:0:0:0:
482,351,85241,2,0,L|474:259,1,82.5000031471254
461,103,85541,1,0,0:0:0:0:
356,229,85691,2,0,L|417:156,1,82.5000031471254
305,293,85991,1,0,0:0:0:0:
103,32,86291,2,0,L|111:114,1,82.5000031471254
128,278,86591,1,0,0:0:0:0:
50,132,86741,1,0,0:0:0:0:
22,294,86891,1,0,0:0:0:0:
150,189,87041,2,0,L|191:186,3,41.2500015735627
238,181,87341,5,0,0:0:0:0:
264,174,87416,1,0,0:0:0:0:
289,163,87491,1,0,0:0:0:0:
311,147,87566,1,0,0:0:0:0:
330,127,87641,1,0,0:0:0:0:
353,53,87791,1,0,0:0:0:0:
277,71,87941,1,0,0:0:0:0:
200,72,88091,1,0,0:0:0:0:
174,66,88166,1,0,0:0:0:0:
150,51,88241,2,0,L|119:23,6,27.5
100,109,88841,6,0,L|94:166,1,55
90,240,89141,2,0,P|98:273|121:298,1,55
173,333,89441,1,0,0:0:0:0:
173,333,89591,1,0,0:0:0:0:
173,333,89741,5,0,0:0:0:0:
199,197,90041,2,0,L|257:191,1,49.4999984893799
317,188,90341,1,0,0:0:0:0:
440,250,90641,2,0,B|443:220|443:220|422:189,1,49.4999984893799
392,147,90941,2,0,P|358:114|307:103,1,98.9999969787599
172,128,91541,1,0,0:0:0:0:
139,262,91841,2,0,P|177:267|227:253,1,74.2499977340699
244,247,92141,6,0,P|274:222|277:164,1,98.9999969787599
229,35,92741,1,0,0:0:0:0:
90,41,93041,2,0,L|34:45,2,49.4999984893799
229,35,93641,1,0,0:0:0:0:
263,169,93941,2,0,L|165:177,1,98.9999969787599
129,180,94316,2,0,L|126:151,2,24.74999924469
133,218,94541,5,0,0:0:0:0:
166,259,94691,1,0,0:0:0:0:
209,295,94841,1,0,0:0:0:0:
255,326,94991,1,0,0:0:0:0:
306,335,95141,1,0,0:0:0:0:
360,323,95291,1,0,0:0:0:0:
411,303,95441,1,0,0:0:0:0:
459,277,95591,1,0,0:0:0:0:
476,225,95741,2,0,L|480:169,3,55
490,93,96341,2,0,P|460:96|431:111,1,55
398,145,96641,2,0,L|398:181,3,27.5
397,202,96941,5,0,0:0:0:0:
393,232,97016,1,0,0:0:0:0:
380,259,97091,1,0,0:0:0:0:
364,284,97166,1,0,0:0:0:0:
339,303,97241,1,0,0:0:0:0:
313,316,97316,1,0,0:0:0:0:
283,324,97391,1,0,0:0:0:0:
254,324,97466,1,0,0:0:0:0:
223,317,97541,1,0,0:0:0:0:
197,303,97616,1,0,0:0:0:0:
174,284,97691,1,0,0:0:0:0:
156,259,97766,1,0,0:0:0:0:
144,231,97841,1,0,0:0:0:0:
138,201,97916,1,0,0:0:0:0:
141,172,97991,1,0,0:0:0:0:
149,142,98066,1,0,0:0:0:0:
165,117,98141,5,0,0:0:0:0:
211,83,98291,1,0,0:0:0:0:
265,62,98441,2,0,L|273:31,2,20.6250007867813
296,110,98741,1,0,0:0:0:0:
317,154,98891,1,0,0:0:0:0:
326,194,99041,1,0,0:0:0:0:
326,194,99191,1,0,0:0:0:0:
326,183,100541,6,0,P|316:221|355:266,1,88
401,273,100991,1,0,0:0:0:0:
460,256,101141,2,0,L|464:203,1,44
407,186,101441,2,0,L|401:123,1,44
395,73,101741,6,0,P|352:73|289:88,1,98.9999969787599
234,116,102191,1,0,0:0:0:0:
191,171,102341,1,0,0:0:0:0:
182,240,102491,1,0,0:0:0:0:
190,309,102641,2,0,L|246:306,1,49.4999984893799
300,297,102941,2,0,P|326:268|313:210,1,88
276,182,103391,1,0,0:0:0:0:
216,169,103541,2,0,L|163:164,1,44
146,222,103841,2,0,L|83:227,1,44
56,173,104141,6,0,B|54:155|54:155|62:142|62:142|60:124,1,49.4999984893799
64,56,104441,1,0,0:0:0:0:
130,35,104591,1,0,0:0:0:0:
199,33,104741,2,0,P|226:44|246:65,1,49.4999984893799
252,125,105041,2,0,P|279:114|299:93,1,49.4999984893799
317,35,105341,1,0,0:0:0:0:
395,43,105491,1,0,0:0:0:0:
395,43,105566,1,0,0:0:0:0:
395,43,105641,1,0,0:0:0:0:
442,93,105791,2,0,L|439:126,1,24.74999924469
434,152,105941,1,0,0:0:0:0:
429,177,106016,1,0,0:0:0:0:
419,200,106091,1,0,0:0:0:0:
406,221,106166,1,0,0:0:0:0:
389,239,106241,2,0,P|364:254|335:258,1,49.4999984893799
267,264,106541,5,0,0:0:0:0:
139,178,106841,1,0,0:0:0:0:
139,129,106991,1,0,0:0:0:0:
170,91,107141,1,0,0:0:0:0:
283,40,107441,1,0,0:0:0:0:
343,30,107591,1,0,0:0:0:0:
399,50,107741,2,0,L|404:117,1,55
408,182,108041,1,0,0:0:0:0:
391,257,108191,1,0,0:0:0:0:
331,304,108341,1,0,0:0:0:0:
304,315,108416,1,0,0:0:0:0:
277,322,108491,1,0,0:0:0:0:
251,325,108566,1,0,0:0:0:0:
224,326,108641,1,0,0:0:0:0:
196,323,108716,1,0,0:0:0:0:
169,317,108791,1,0,0:0:0:0:
143,307,108866,1,0,0:0:0:0:
119,295,108941,5,0,0:0:0:0:
79,49,118541,5,0,0:0:0:0:
91,202,118841,2,0,L|98:270,1,55
107,333,119141,2,0,P|154:307|172:246,1,110
169,102,119741,2,0,L|163:24,2,55
172,257,120341,2,0,P|198:304|259:322,1,110
403,312,120941,6,0,L|394:201,1,110
387,125,121391,1,0,0:0:0:0:
387,125,121541,2,0,P|369:80|305:42,1,110
166,53,122141,2,0,L|109:58,2,55
290,144,122741,2,0,B|250:160|238:196|194:206,1,110
40,227,123341,5,0,0:0:0:0:
56,65,123641,1,0,0:0:0:0:
104,219,123941,1,0,0:0:0:0:
120,58,124241,1,0,0:0:0:0:
168,211,124541,5,0,0:0:0:0:
168,211,124691,1,0,0:0:0:0:
253,214,124841,1,0,0:0:0:0:
253,214,124991,1,0,0:0:0:0:
207,284,125141,1,0,0:0:0:0:
207,284,125291,1,0,0:0:0:0:
292,287,125441,1,0,0:0:0:0:
292,287,125591,1,0,0:0:0:0:
332,207,125741,5,0,0:0:0:0:
371,131,125891,1,0,0:0:0:0:
373,217,126041,1,0,0:0:0:0:
330,120,126191,1,0,0:0:0:0:
414,205,126341,1,0,0:0:0:0:
289,132,126491,1,0,0:0:0:0:
443,175,126641,1,0,0:0:0:0:
260,162,126791,1,0,0:0:0:0:
297,246,126941,5,0,0:0:0:0:
297,246,127016,1,0,0:0:0:0:
297,246,127091,1,0,0:0:0:0:
205,237,127241,1,0,0:0:0:0:
205,237,127316,1,0,0:0:0:0:
205,237,127391,1,0,0:0:0:0:
146,307,127541,1,0,0:0:0:0:
178,317,127616,1,0,0:0:0:0:
210,323,127691,1,0,0:0:0:0:
243,326,127766,1,0,0:0:0:0:
276,327,127841,1,0,0:0:0:0:
309,324,127916,1,0,0:0:0:0:
341,318,127991,1,0,0:0:0:0:
373,309,128066,1,0,0:0:0:0:
398,299,128141,6,0,L|436:260,1,55
508,234,128441,2,0,L|469:194,1,55
445,123,128741,2,0,L|406:161,1,55
333,187,129041,2,0,L|372:225,1,55
154,303,129641,2,0,B|131:253|133:203|133:203|166:154|218:126,1,220
465,37,130541,5,0,0:0:0:0:
137,66,130841,2,0,L|229:58,1,82.5000031471254
150,195,131141,2,0,L|223:256,2,82.5000031471254
278,302,131591,1,0,0:0:0:0:
458,26,131891,2,0,L|450:108,1,82.5000031471254
429,272,132191,1,0,0:0:0:0:
355,125,132341,1,0,0:0:0:0:
503,195,132491,1,0,0:0:0:0:
341,218,132641,2,0,P|260:211|209:149,1,165.000006294251
473,352,133241,6,0,L|480:270,1,82.5000031471254
479,102,133541,2,0,L|418:174,2,82.5000031471254
372,229,133991,1,0,0:0:0:0:
296,227,134141,2,0,L|233:222,2,55
143,215,134741,1,0,0:0:0:0:
143,215,134891,1,0,0:0:0:0:
143,215,135341,5,0,0:0:0:0:
453,329,135641,2,0,L|361:321,1,82.5000031471254
206,310,135941,1,0,0:0:0:0:
311,184,136091,2,0,L|250:257,1,82.5000031471254
362,120,136391,1,0,0:0:0:0:
98,318,136691,2,0,L|106:236,1,82.5000031471254
129,72,136991,1,0,0:0:0:0:
291,110,137141,1,0,0:0:0:0:
179,231,137291,1,0,0:0:0:0:
211,69,137441,2,0,P|281:45|337:44,1,123.750004720688
389,46,137741,6,0,B|428:85|428:85|428:147,1,103.125
426,192,138041,2,0,P|418:235|396:262,1,68.75
293,290,138341,2,0,P|308:319|335:346,2,68.75
290,173,138791,1,0,0:0:0:0:
287,150,138866,1,0,0:0:0:0:
276,129,138941,1,0,0:0:0:0:
166,93,139091,1,0,0:0:0:0:
56,132,139241,2,0,P|37:160|37:207,1,68.75
54,310,139541,1,0,0:0:0:0:
165,349,139691,1,0,0:0:0:0:
188,346,139766,1,0,0:0:0:0:
209,335,139841,1,0,0:0:0:0:
487,293,140141,5,0,0:0:0:0:
306,18,140441,2,0,L|314:110,1,82.5000031471254
170,18,140741,2,0,L|109:91,2,82.5000031471254
63,146,141191,1,0,0:0:0:0:
343,321,141491,2,0,L|335:239,1,82.5000031471254
318,75,141791,1,0,0:0:0:0:
396,221,141941,1,0,0:0:0:0:
424,59,142091,1,0,0:0:0:0:
302,171,142241,2,0,P|263:209|155:203,1,165.000006294251
453,353,142841,6,0,L|460:271,1,82.5000031471254
314,349,143141,2,0,L|253:277,2,82.5000031471254
207,222,143591,1,0,0:0:0:0:
210,146,143741,5,0,0:0:0:0:
255,83,143891,1,0,0:0:0:0:
330,63,144041,1,0,0:0:0:0:
455,154,144341,1,0,0:0:0:0:
455,154,144491,2,0,L|494:157,4,27.5
339,149,144941,5,0,0:0:0:0:
30,33,145241,2,0,L|38:125,1,82.5000031471254
51,281,145541,1,0,0:0:0:0:
156,155,145691,2,0,L|95:228,1,82.5000031471254
207,91,145991,1,0,0:0:0:0:
409,352,146291,2,0,L|401:270,1,82.5000031471254
384,106,146591,1,0,0:0:0:0:
462,252,146741,1,0,0:0:0:0:
490,90,146891,1,0,0:0:0:0:
362,195,147041,2,0,L|321:198,3,41.2500015735627
274,203,147341,5,0,0:0:0:0:
248,210,147416,1,0,0:0:0:0:
223,221,147491,1,0,0:0:0:0:
201,237,147566,1,0,0:0:0:0:
182,257,147641,1,0,0:0:0:0:
159,331,147791,1,0,0:0:0:0:
235,313,147941,1,0,0:0:0:0:
312,312,148091,1,0,0:0:0:0:
338,318,148166,1,0,0:0:0:0:
362,333,148241,2,0,L|393:361,6,27.5
412,275,148841,6,0,L|418:218,1,55
422,144,149141,2,0,P|414:111|391:86,1,55
339,51,149441,1,0,0:0:0:0:
339,51,149591,1,0,0:0:0:0:
339,51,149741,6,0,L|240:59,1,98.9999969787599
252,197,150641,2,0,L|153:205,1,98.9999969787599
58,306,151541,2,0,P|84:327|115:338,1,65.9999979858399
160,348,151991,1,0,0:0:0:0:
160,348,152066,1,0,0:0:0:0:
160,348,152141,6,0,L|168:249,1,98.9999969787599
306,261,153041,2,0,L|314:162,1,98.9999969787599
319,116,153641,1,0,0:0:0:0:
266,40,153941,2,0,L|200:34,1,65.9999979858399
153,35,154391,1,0,0:0:0:0:
153,35,154466,1,0,0:0:0:0:
153,35,154541,6,0,L|144:133,1,98.9999969787599
129,271,155441,2,0,P|70:248|38:215,2,98.9999969787599
221,275,156641,1,0,0:0:0:0:
221,275,156791,1,0,0:0:0:0:
221,275,156866,1,0,0:0:0:0:
221,275,156941,6,0,L|337:264,2,115.49999647522
260,174,158141,2,0,L|141:184,2,115.49999647522
367,168,159341,5,0,0:0:0:0:
319,214,159791,1,0,0:0:0:0:
270,259,160241,1,0,0:0:0:0:
222,304,160691,1,0,0:0:0:0:
173,350,161141,1,0,0:0:0:0:
173,350,161441,1,0,0:0:0:0:
173,350,161591,1,0,0:0:0:0:
173,350,161666,1,0,0:0:0:0:
173,350,161741,6,0,P|121:335|75:293,2,115.49999647522
358,348,163091,1,0,0:0:0:0:
358,348,163241,1,0,0:0:0:0:
400,232,163541,1,0,0:0:0:0:
403,108,163841,1,0,0:0:0:0:
403,108,163991,1,0,0:0:0:0:
403,108,164066,1,0,0:0:0:0:
403,108,164141,6,0,P|461:123|508:183,2,132
218,109,165491,1,0,0:0:0:0:
77,229,165941,1,0,0:0:0:0:
141,334,166241,1,0,0:0:0:0:
141,334,166391,1,0,0:0:0:0:
141,334,166466,1,0,0:0:0:0:
141,334,166541,6,0,L|138:362,4,24.74999924469
149,285,166991,1,0,0:0:0:0:
175,243,167141,1,0,0:0:0:0:
217,217,167291,1,0,0:0:0:0:
265,208,167441,2,0,L|262:179,4,24.74999924469
273,257,167891,1,0,0:0:0:0:
299,299,168041,1,0,0:0:0:0:
341,325,168191,1,0,0:0:0:0:
390,327,168341,1,0,0:0:0:0:
432,301,168491,1,0,0:0:0:0:
458,259,168641,1,0,0:0:0:0:
436,48,172131,6,0,L|312:36,1,123.750004720688
297,208,173031,2,0,L|173:196,1,123.750004720688
34,300,173931,2,0,P|61:331|97:351,1,82.5000031471254
150,374,174381,1,0,0:0:0:0:
150,374,174456,1,0,0:0:0:0:
150,374,174531,6,0,L|159:251,1,123.750004720688
330,266,175431,2,0,L|339:143,1,123.750004720688
344,84,176031,1,0,0:0:0:0:
235,42,176331,2,0,L|151:34,1,82.5000031471254
94,36,176781,1,0,0:0:0:0:
94,36,176856,1,0,0:0:0:0:
94,36,176931,6,0,L|82:159,1,123.750004720688
205,282,177831,2,0,P|132:253|93:213,2,123.750004720688
320,274,179031,1,0,0:0:0:0:
320,274,179181,1,0,0:0:0:0:
320,274,179256,1,0,0:0:0:0:
320,274,179331,6,0,L|449:262,2,123.750004720688
205,282,180531,2,0,L|194:158,2,123.750004720688
86,353,181731,6,0,B|80:331|80:331|82:302,1,49.4999984893799
84,235,182031,1,0,0:0:0:0:
91,166,182181,1,0,0:0:0:0:
180,218,182406,1,0,0:0:0:0:
283,211,182631,2,0,B|289:189|289:189|287:160,2,49.4999984893799
270,243,183006,1,0,0:0:0:0:
329,328,183231,1,0,0:0:0:0:
464,298,183531,2,0,P|480:245|477:188,1,98.9999969787599
473,63,184131,6,0,B|429:80|429:80|376:62,1,98.9999969787599
313,42,184581,2,0,P|271:35|230:36,1,74.2499977340699
135,45,185031,1,0,0:0:0:0:
77,83,185181,1,0,0:0:0:0:
70,186,185406,1,0,0:0:0:0:
86,288,185631,2,0,P|137:307|166:304,1,74.2499977340699
190,304,185931,2,0,L|305:293,1,98.9999969787599
411,359,186531,6,0,P|426:306|421:260,1,98.9999969787599
357,139,187131,2,0,P|410:124|456:129,2,98.9999969787599
236,207,188031,1,0,0:0:0:0:
117,134,188331,2,0,P|91:154|72:178,1,49.4999984893799
52,234,188631,1,0,0:0:0:0:
52,234,188781,1,0,0:0:0:0:
52,234,188856,1,0,0:0:0:0:
52,234,188931,6,0,L|28:214,4,27.5
95,265,189381,1,0,0:0:0:0:
148,277,189531,1,0,0:0:0:0:
199,265,189681,1,0,0:0:0:0:
244,235,189831,2,0,L|264:259,4,27.5
211,191,190281,1,0,0:0:0:0:
200,139,190431,1,0,0:0:0:0:
212,86,190581,1,0,0:0:0:0:
248,47,190731,1,0,0:0:0:0:
300,34,190881,1,0,0:0:0:0:
353,47,191031,1,0,0:0:0:0:
492,112,191331,6,0,L|446:157,1,55
381,179,191631,2,0,L|420:217,1,55
487,251,191931,2,0,L|449:289,1,55
376,318,192231,2,0,L|415:356,1,55
184,355,192831,2,0,B|145:317|129:270|129:270|142:212|181:167,1,220
465,37,193731,5,0,0:0:0:0:
137,66,194031,2,0,L|229:58,1,82.5000031471254
150,195,194331,2,0,L|223:256,2,82.5000031471254
278,302,194781,1,0,0:0:0:0:
458,26,195081,2,0,L|450:108,1,82.5000031471254
429,272,195381,1,0,0:0:0:0:
355,125,195531,1,0,0:0:0:0:
503,195,195681,1,0,0:0:0:0:
341,218,195831,2,0,P|260:211|209:149,1,165.000006294251
473,352,196431,6,0,L|480:270,1,82.5000031471254
479,102,196731,2,0,L|418:174,2,82.5000031471254
372,229,197181,1,0,0:0:0:0:
296,227,197331,2,0,L|233:222,2,55
143,215,197931,1,0,0:0:0:0:
143,215,198081,1,0,0:0:0:0:
143,215,198531,5,0,0:0:0:0:
453,329,198831,2,0,L|361:321,1,82.5000031471254
206,310,199131,1,0,0:0:0:0:
311,184,199281,2,0,L|250:257,1,82.5000031471254
362,120,199581,1,0,0:0:0:0:
98,318,199881,2,0,L|106:236,1,82.5000031471254
129,72,200181,1,0,0:0:0:0:
291,110,200331,1,0,0:0:0:0:
179,231,200481,1,0,0:0:0:0:
211,69,200631,2,0,P|281:45|337:44,1,123.750004720688
389,46,200931,6,0,B|428:85|428:85|428:147,1,103.125
426,192,201231,2,0,P|418:235|396:262,1,68.75
293,290,201531,2,0,P|308:319|335:346,2,68.75
290,173,201981,1,0,0:0:0:0:
287,150,202056,1,0,0:0:0:0:
276,129,202131,1,0,0:0:0:0:
166,93,202281,1,0,0:0:0:0:
56,132,202431,2,0,P|37:160|37:207,1,68.75
54,310,202731,1,0,0:0:0:0:
165,349,202881,1,0,0:0:0:0:
188,346,202956,1,0,0:0:0:0:
209,335,203031,1,0,0:0:0:0:
487,293,203331,5,0,0:0:0:0:
306,18,203631,2,0,L|314:110,1,82.5000031471254
170,18,203931,2,0,L|109:91,2,82.5000031471254
63,146,204381,1,0,0:0:0:0:
343,321,204681,2,0,L|335:239,1,82.5000031471254
318,75,204981,1,0,0:0:0:0:
396,221,205131,1,0,0:0:0:0:
424,59,205281,1,0,0:0:0:0:
302,171,205431,2,0,P|263:209|155:203,1,165.000006294251
453,353,206031,6,0,L|460:271,1,82.5000031471254
314,349,206331,2,0,L|253:277,2,82.5000031471254
207,222,206781,1,0,0:0:0:0:
210,146,206931,5,0,0:0:0:0:
255,83,207081,1,0,0:0:0:0:
330,63,207231,1,0,0:0:0:0:
455,154,207531,1,0,0:0:0:0:
455,154,207681,2,0,L|494:157,4,27.5
339,149,208131,5,0,0:0:0:0:
30,33,208431,2,0,L|38:125,1,82.5000031471254
51,281,208731,1,0,0:0:0:0:
156,155,208881,2,0,L|95:228,1,82.5000031471254
207,91,209181,1,0,0:0:0:0:
409,352,209481,2,0,L|401:270,1,82.5000031471254
384,106,209781,1,0,0:0:0:0:
462,252,209931,1,0,0:0:0:0:
490,90,210081,1,0,0:0:0:0:
362,195,210231,2,0,L|321:198,3,41.2500015735627
274,203,210531,5,0,0:0:0:0:
248,210,210606,1,0,0:0:0:0:
223,221,210681,1,0,0:0:0:0:
201,237,210756,1,0,0:0:0:0:
182,257,210831,1,0,0:0:0:0:
159,331,210981,1,0,0:0:0:0:
235,313,211131,1,0,0:0:0:0:
312,312,211281,1,0,0:0:0:0:
338,318,211356,1,0,0:0:0:0:
362,333,211431,2,0,L|393:361,6,27.5
412,275,212031,6,0,L|418:218,1,55
422,144,212331,2,0,P|414:111|391:86,1,55
339,51,212631,1,0,0:0:0:0:
339,51,212781,1,0,0:0:0:0:
339,51,212931,5,0,0:0:0:0:
