osu file format v14

[General]
AudioFilename: audio.mp3
AudioLeadIn: 0
PreviewTime: 38352
Countdown: 0
SampleSet: Soft
StackLeniency: 0.7
Mode: 0
LetterboxInBreaks: 0
WidescreenStoryboard: 1

[Editor]
Bookmarks: 57590,76790,86390,95990
DistanceSpacing: 0.8
BeatDivisor: 4
GridSize: 32
TimelineZoom: 2.699999

[Metadata]
Title:Grain Burger
TitleUnicode:Grain Burger
Artist:WangleLine
ArtistUnicode:WangleLine
Creator:keevy
Version:Normal
Source:
Tags:breakcore dnb hyokar Pigment Red electronic instrumental drum and bass edm dance music at the bottom of bandcamp
BeatmapID:3873314
BeatmapSetID:1881362

[Difficulty]
HPDrainRate:3.5
CircleSize:3.2
OverallDifficulty:5
ApproachRate:6
SliderMultiplier:1.2
SliderTickRate:1

[Events]
//Background and Video events
0,0,"bg.jpg",0,0
//Break Periods
//Storyboard Layer 0 (Background)
//Storyboard Layer 1 (Fail)
//Storyboard Layer 2 (Pass)
//Storyboard Layer 3 (Foreground)
//Storyboard Layer 4 (Overlay)
//Storyboard Sound Samples

[TimingPoints]
54,300,4,2,1,35,1,0
14454,-100,4,2,1,50,0,0
19104,-100,4,2,1,5,0,0
19254,-100,4,2,1,40,0,0
38304,-100,4,2,1,50,0,0
38454,-100,4,2,1,60,0,0
38604,-100,4,2,1,60,0,0
57804,-100,4,2,1,65,0,0
86454,-100,4,2,1,60,0,0
91854,-100,4,2,1,65,0,0
92754,-100,4,2,1,70,0,0
96654,-100,4,2,1,5,0,0

[Colours]
Combo1 : 225,217,155
Combo2 : 196,196,225

[HitObjects]
425,115,19254,6,0,P|351:125|291:268,1,240,0|0,3:2|0:0,0:0:0:0:
307,357,20154,1,0,3:2:0:0:
214,349,20454,2,0,P|136:327|114:283,1,120,0|0,0:2|0:0,0:0:0:0:
26,268,21054,2,0,P|40:191|75:151,1,120,0|0,3:2|0:0,0:0:0:0:
130,89,21654,2,0,L|323:33,2,180,0|0|0,3:2|3:2|3:2,0:0:0:0:
64,159,22854,2,0,P|31:208|25:267,1,120
117,297,23454,2,0,P|155:341|213:348,1,120,0|0,3:2|3:2,0:0:0:0:
316,365,24054,5,0,3:2:0:0:
483,228,24654,2,0,P|401:235|354:253,1,120,0|0,0:0|3:2,0:0:0:0:
260,274,25254,2,0,P|193:251|151:197,1,120
161,107,25854,1,0,3:2:0:0:
357,16,26454,2,0,P|340:90|361:280,1,240,0|0,3:2|0:0,0:0:0:0:
415,340,27354,1,0,3:2:0:0:
489,261,27654,2,0,P|481:147|443:7,1,240
319,198,28854,6,0,P|241:227|116:195,2,180,0|0|0,3:2|3:2|3:2,0:0:0:0:
356,96,30054,1,0,0:0:0:0:
286,13,30354,2,0,P|194:10|138:30,1,120,0|0,0:0|3:2,0:0:0:0:
105,90,30954,1,0,3:2:0:0:
12,63,31254,2,0,P|66:134|112:296,1,240,0|0,3:2|0:0,0:0:0:0:
56,355,32154,1,0,3:2:0:0:
150,373,32454,2,0,B|276:335|212:298|382:243,1,240,0|0,0:0|3:2,0:0:0:0:
463,94,33654,6,0,P|374:44|304:65,2,180,0|0|0,3:2|3:2|3:2,0:0:0:0:
490,186,34854,2,0,L|462:338,1,120,0|0,3:2|0:0,0:0:0:0:
391,362,35454,1,0,0:0:0:0:
301,327,35754,1,0,0:0:0:0:
252,244,36054,2,0,P|278:161|340:70,1,180,0|0,0:2|0:0,0:0:0:0:
207,4,36954,1,0,0:0:0:0:
111,15,37254,2,0,P|69:70|69:132,1,120,0|0,3:2|3:2,0:0:0:0:
15,200,37854,2,0,P|41:264|105:298,1,120,0|0,3:2|3:2,0:0:0:0:
146,221,38454,5,4,1:2:0:0:
146,221,38604,2,0,L|281:183,1,120,2|2,0:0|0:0,0:0:0:0:
302,163,39054,1,2,0:0:0:0:
362,237,39354,1,8,0:0:0:0:
343,331,39654,1,0,0:0:0:0:
429,373,39954,2,0,P|491:344|492:271,1,120,8|0,0:0|1:2,0:0:0:0:
506,253,40404,1,0,1:2:0:0:
506,253,40554,1,8,0:0:0:0:
456,170,40854,5,0,1:2:0:0:
456,170,41004,2,0,P|470:96|409:37,1,120,2|2,0:0|0:0,0:0:0:0:
403,45,41454,1,2,0:0:0:0:
321,94,41754,1,8,0:0:0:0:
230,63,42054,2,0,P|150:68|102:118,1,120,0|8,1:2|0:0,0:0:0:0:
25,108,42654,1,0,0:0:0:0:
19,203,42954,1,8,0:0:0:0:
99,255,43254,5,0,1:2:0:0:
99,255,43404,2,0,B|169:274|130:298|214:329,1,120,2|2,0:0|0:0,0:0:0:0:
243,315,43854,1,2,0:0:0:0:
332,350,44154,1,8,0:0:0:0:
418,307,44454,2,0,P|422:219|394:140,1,120,0|8,1:2|0:0,0:0:0:0:
326,150,45054,2,0,P|336:71|368:28,1,120,2|10,0:0|0:0,0:0:0:0:
452,22,45654,5,0,1:2:0:0:
452,22,45804,2,0,P|488:94|506:183,1,120,2|2,0:0|0:0,0:0:0:0:
500,180,46254,1,2,0:0:0:0:
488,275,46554,2,0,P|436:267|360:303,1,120,8|0,0:0|1:2,0:0:0:0:
288,334,47154,1,8,0:0:0:0:
203,287,47454,2,0,L|225:151,1,120,0|8,0:0|0:0,0:0:0:0:
207,73,48054,5,0,0:0:0:0:
207,73,48204,2,0,P|153:19|51:78,1,180,2|2,0:0|0:0,0:0:0:0:
43,143,48954,1,8,0:0:0:0:
112,209,49254,2,0,P|205:231|252:274,1,120,0|8,1:2|0:0,0:0:0:0:
271,228,49704,1,0,0:0:0:0:
271,228,49854,1,0,0:0:0:0:
349,282,50154,1,8,0:0:0:0:
431,233,50454,5,0,1:2:0:0:
431,233,50604,2,0,P|456:308|444:370,1,120,2|2,0:0|0:0,0:0:0:0:
407,366,51054,1,2,0:0:0:0:
311,353,51354,2,0,L|163:319,1,120,8|0,0:0|1:2,0:0:0:0:
98,333,51954,1,8,0:0:0:0:
42,254,52254,2,0,P|59:184|116:152,1,120,0|8,0:0|0:0,0:0:0:0:
98,64,52854,5,0,1:2:0:0:
98,63,53004,2,0,L|239:26,1,120,2|2,0:0|0:0,0:0:0:0:
262,34,53454,1,2,0:0:0:0:
347,78,53754,2,0,P|359:142|337:226,1,120,8|0,0:0|1:2,0:0:0:0:
312,226,54204,1,0,1:2:0:0:
312,226,54354,1,8,0:0:0:0:
360,308,54654,2,0,P|430:273|457:224,1,120,0|8,0:0|0:0,0:0:0:0:
503,158,55254,5,0,1:2:0:0:
503,158,55404,2,0,P|459:69|400:40,1,120,2|2,0:0|1:2,0:0:0:0:
396,51,55854,1,2,1:2:0:0:
306,86,56154,1,8,0:0:0:0:
221,40,56454,2,0,P|195:104|208:169,1,120,0|8,0:0|0:0,0:0:0:0:
107,177,57054,2,0,P|127:256|173:289,1,120,0|8,0:0|0:0,0:0:0:0:
250,311,57654,5,4,1:2:0:0:
250,311,57804,2,0,L|368:244,1,120,2|0,0:0|0:0,0:0:0:0:
362,204,58254,1,0,1:2:0:0:
298,131,58554,1,8,0:0:0:0:
221,72,58854,1,2,1:2:0:0:
128,44,59154,2,0,P|66:73|65:146,1,120,8|0,0:0|0:0,0:0:0:0:
14,140,59604,1,0,1:2:0:0:
14,140,59754,1,10,0:0:0:0:
49,235,60054,5,0,1:2:0:0:
49,235,60204,2,0,P|35:309|96:368,1,120,0|0,1:2|0:0,0:0:0:0:
103,352,60654,1,0,0:0:0:0:
187,306,60954,1,8,0:0:0:0:
282,321,61254,2,0,P|362:316|410:266,1,120,0|8,1:2|0:0,0:0:0:0:
487,276,61854,1,0,0:0:0:0:
493,181,62154,1,8,0:0:0:0:
413,129,62454,5,0,1:2:0:0:
413,129,62604,2,0,B|343:110|381:85|297:54,1,120,2|0,0:0|0:0,0:0:0:0:
269,69,63054,1,0,1:2:0:0:
180,34,63354,1,8,0:0:0:0:
94,77,63654,2,0,P|90:165|118:244,1,120,2|8,1:2|0:0,0:0:0:0:
186,234,64254,2,0,P|176:313|144:356,1,120,0|10,1:2|0:0,0:0:0:0:
60,362,64854,5,0,1:2:0:0:
60,362,65004,2,0,P|24:290|6:201,1,120,0|0,1:2|1:2,0:0:0:0:
12,204,65454,1,0,1:2:0:0:
55,118,65754,1,8,0:0:0:0:
147,142,66054,2,0,P|214:133|269:97,1,120,8|8,0:0|0:0,0:0:0:0:
354,110,66654,2,0,L|332:246,1,120,0|8,1:2|0:0,0:0:0:0:
300,262,67104,1,0,1:2:0:0:
300,262,67254,6,0,P|343:335|400:345,1,120,8|0,0:0|1:2,0:0:0:0:
467,327,67854,1,0,1:2:0:0:
479,231,68154,1,8,0:0:0:0:
400,175,68454,2,0,P|307:153|260:110,1,120,2|8,1:2|0:0,0:0:0:0:
241,156,68904,1,2,1:2:0:0:
241,156,69054,1,0,1:2:0:0:
163,102,69354,1,10,0:0:0:0:
81,151,69654,5,0,1:2:0:0:
81,151,69804,2,0,P|56:76|68:14,1,120,0|0,1:2|0:0,0:0:0:0:
105,18,70254,1,0,1:2:0:0:
201,31,70554,2,0,L|349:65,1,120,8|0,0:0|1:2,0:0:0:0:
414,51,71154,1,8,0:0:0:0:
470,130,71454,2,0,P|453:200|396:232,1,120,0|8,0:2|0:0,0:0:0:0:
414,326,72054,5,0,1:2:0:0:
414,326,72204,2,0,L|273:363,1,120,2|0,0:0|0:0,0:0:0:0:
250,358,72654,2,0,P|223:297|228:212,1,120,0|8,1:2|0:0,0:0:0:0:
285,172,73254,1,2,1:2:0:0:
249,82,73554,1,8,0:0:0:0:
152,76,73854,2,0,P|82:111|55:160,1,120,0|10,1:2|0:0,0:0:0:0:
9,226,74454,5,0,1:2:0:0:
9,226,74604,2,0,P|53:315|112:344,1,120,0|0,1:2|1:2,0:0:0:0:
116,333,75054,1,0,1:2:0:0:
206,298,75354,1,8,0:0:0:0:
291,344,75654,2,0,P|317:280|304:215,1,120,0|8,0:0|0:0,0:0:0:0:
405,207,76254,2,0,P|385:128|339:95,1,120,0|8,1:2|0:0,0:0:0:0:
313,25,76854,5,14,1:2:0:0:
313,25,77004,2,0,B|226:41|270:75|147:119,1,180,2|0,0:0|0:0,0:0:0:0:
112,103,77604,2,0,L|136:246,1,120,2|0,1:2|0:0,0:0:0:0:
96,254,78054,1,0,1:2:0:0:
156,328,78354,1,8,0:0:0:0:
156,328,78504,2,0,L|301:265,1,120,10|0,0:0|1:2,0:0:0:0:
310,299,78954,1,10,0:0:0:0:
396,339,79254,5,0,1:2:0:0:
396,339,79404,2,0,P|436:265|439:187,1,120,0|0,1:2|0:0,0:0:0:0:
406,197,79854,1,0,1:2:0:0:
433,104,80154,1,8,0:0:0:0:
358,42,80454,2,0,P|280:43|239:77,1,120,2|8,1:2|0:0,0:0:0:0:
236,161,81054,2,0,P|161:174|118:127,1,120,0|8,1:2|0:0,0:0:0:0:
37,156,81654,5,2,1:2:0:0:
37,156,81804,2,0,P|66:230|66:280,1,120,2|0,0:0|0:0,0:0:0:0:
60,317,82254,1,2,0:0:0:0:
154,352,82554,1,8,0:0:0:0:
154,352,82704,2,0,L|303:314,1,120,2|0,0:0|1:2,0:0:0:0:
312,300,83154,1,10,0:0:0:0:
392,351,83454,2,0,P|435:297|444:233,1,120,0|10,1:2|0:0,0:0:0:0:
498,168,84054,6,0,B|367:161|401:227|279:226,1,180,0|0,1:2|0:0,0:0:0:0:
285,203,84654,1,0,1:2:0:0:
203,253,84954,1,8,0:0:0:0:
115,214,85254,2,0,P|51:169|45:108,1,120,0|8,1:2|0:0,0:0:0:0:
75,41,85854,2,0,L|216:57,1,120,2|8,1:2|0:2,0:0:0:0:
285,18,86454,5,14,0:2:0:0:
285,18,86604,2,0,L|322:159,1,120,2|2,1:2|1:2,0:0:0:0:
322,181,87054,2,0,P|261:208|176:203,1,120,2|10,1:2|0:0,0:0:0:0:
137,147,87654,1,2,1:2:0:0:
45,175,87954,2,0,P|31:221|34:248,1,60,10|0,0:0|1:2,0:0:0:0:
41,280,88254,2,0,P|76:350|125:377,1,120,0|10,1:2|0:0,0:0:0:0:
209,378,88854,5,0,1:2:0:0:
209,378,89004,2,0,L|232:235,1,120,2|2,1:2|1:2,0:0:0:0:
202,218,89454,1,2,1:2:0:0:
227,125,89754,2,0,P|265:116|294:116,1,60,10|0,0:0|0:0,0:0:0:0:
331,130,90054,2,0,P|357:194|344:259,1,120,2|10,1:2|0:0,0:0:0:0:
445,267,90654,2,0,P|425:346|379:379,1,120,2|10,0:1|0:0,0:0:0:0:
301,368,91254,5,0,1:2:0:0:
301,368,91404,2,0,L|160:341,1,120,2|2,0:0|0:0,0:0:0:0:
135,351,91854,2,0,P|96:278|111:210,1,120,2|10,1:2|0:0,0:0:0:0:
119,149,92454,1,2,1:2:0:0:
211,173,92754,2,0,P|253:155|263:133,1,60,10|0,0:0|1:2,0:0:0:0:
291,108,93054,2,0,P|355:119|412:154,1,120,0|10,1:2|0:0,0:0:0:0:
494,121,93654,6,0,P|481:47|428:21,1,120,0|10,1:2|0:0,0:0:0:0:
354,29,94254,1,0,1:2:0:0:
354,29,94404,2,0,L|210:-9,1,120,2|2,1:2|1:2,0:0:0:0:
190,1,94854,1,0,1:2:0:0:
130,76,95154,1,10,0:0:0:0:
34,64,95454,2,0,P|10:97|4:123,1,60,2|0,1:2|1:2,0:0:0:0:
3,163,95754,1,10,0:0:0:0:
80,219,96054,1,6,1:2:0:0:
