osu file format v14

[General]
AudioFilename: audio.mp3
AudioLeadIn: 0
PreviewTime: 38352
Countdown: 0
SampleSet: Soft
StackLeniency: 0.2
Mode: 0
LetterboxInBreaks: 0
WidescreenStoryboard: 0

[Editor]
Bookmarks: 57590,76790,86390,95990
DistanceSpacing: 0.8
BeatDivisor: 4
GridSize: 32
TimelineZoom: 4.599997

[Metadata]
Title:Grain Burger
TitleUnicode:Grain Burger
Artist:WangleLine
ArtistUnicode:WangleLine
Creator:keevy
Version:Determination
Source:
Tags:breakcore dnb hyokar Pigment Red electronic instrumental drum and bass edm dance music at the bottom of bandcamp
BeatmapID:3873310
BeatmapSetID:1881362

[Difficulty]
HPDrainRate:5
CircleSize:4
OverallDifficulty:9.2
ApproachRate:9.6
SliderMultiplier:2
SliderTickRate:1

[Events]
//Background and Video events
0,0,"bg.jpg",0,0
//Break Periods
//Storyboard Layer 0 (Background)
//Storyboard Layer 1 (Fail)
//Storyboard Layer 2 (Pass)
//Storyboard Layer 3 (Foreground)
//Storyboard Layer 4 (Overlay)
//Storyboard Sound Samples

[TimingPoints]
54,300,4,2,1,35,1,0
504,-250,4,2,1,35,0,0
2454,-100,4,2,1,35,0,0
2904,-500,4,2,1,35,0,0
4854,-100,4,2,1,35,0,0
5304,-333.333333333333,4,2,1,35,0,0
7254,-100,4,2,1,35,0,0
7704,-333.333333333333,4,2,1,35,0,0
14454,-100,4,2,1,50,0,0
14904,-133.333333333333,4,2,1,50,0,0
19104,-133.333333333333,4,2,1,5,0,0
19254,-100,4,2,1,40,0,0
19704,-166.666666666667,4,2,1,40,0,0
21354,-133.333333333333,4,2,1,40,0,0
21654,-100,4,2,1,40,0,0
22554,-166.666666666667,4,2,1,40,0,0
23754,-100,4,2,1,40,0,0
24504,-133.333333333333,4,2,1,40,0,0
24954,-100,4,2,1,40,0,0
26904,-133.333333333333,4,2,1,40,0,0
27354,-100,4,2,1,40,0,0
33504,-50,4,2,1,40,0,0
33654,-66.6666666666667,4,2,1,40,0,0
34104,-100,4,2,1,40,0,0
38304,-83.3333333333333,4,2,1,50,0,0
38454,-66.6666666666667,4,2,1,60,0,0
38604,-38.4615384615385,4,2,1,60,0,0
38904,-66.6666666666667,4,2,1,60,0,0
39054,-40,4,2,1,60,0,0
39279,-58.8235294117647,4,2,1,60,0,0
39654,-66.6666666666667,4,2,1,60,0,0
39954,-52.6315789473684,4,2,1,60,0,0
40554,-66.6666666666667,4,2,1,60,0,0
41004,-35.7142857142857,4,2,1,60,0,0
41304,-31.25,4,2,1,60,0,0
41454,-66.6666666666667,4,2,1,60,0,0
42354,-35.7142857142857,4,2,1,60,0,0
42579,-100,4,2,1,60,0,0
42954,-50,4,2,1,60,0,0
43404,-45.4545454545455,4,2,1,60,0,0
44454,-66.6666666666667,4,2,1,60,0,0
44754,-50,4,2,1,60,0,0
45054,-42.5531914893617,4,2,1,60,0,0
45354,-100,4,2,1,60,0,0
45804,-43.4782608695652,4,2,1,60,0,0
46254,-66.6666666666667,4,2,1,60,0,0
47154,-41.6666666666667,4,2,1,60,0,0
47604,-100,4,2,1,60,0,0
47904,-33.3333333333333,4,2,1,60,0,0
48204,-33.3333333333333,4,2,1,60,0,0
48954,-50,4,2,1,60,0,0
49554,-35.7142857142857,4,2,1,60,0,0
50004,-50,4,2,1,60,0,0
50604,-41.6666666666667,4,2,1,60,0,0
51204,-66.6666666666667,4,2,1,60,0,0
51654,-50,4,2,1,60,0,0
51879,-50,4,2,1,60,0,0
51954,-40,4,2,1,60,0,0
52854,-35.7142857142857,4,2,1,60,0,0
53004,-41.6666666666667,4,2,1,60,0,0
53304,-66.6666666666667,4,2,1,60,0,0
53454,-33.3333333333333,4,2,1,60,0,0
53754,-50,4,2,1,60,0,0
54054,-100,4,2,1,60,0,0
54354,-66.6666666666667,4,2,1,60,0,0
55404,-50,4,2,1,60,0,0
57354,-37.037037037037,4,2,1,60,0,0
57804,-28.5714285714286,4,2,1,65,0,0
58254,-66.6666666666667,4,2,1,65,0,0
58854,-50,4,2,1,65,0,0
62604,-30.3030303030303,4,2,1,65,0,0
63054,-66.6666666666667,4,2,1,65,0,0
63354,-43.4782608695652,4,2,1,65,0,0
63654,-66.6666666666667,4,2,1,65,0,0
63954,-50,4,2,1,65,0,0
64404,-66.6666666666667,4,2,1,65,0,0
65154,-45.4545454545455,4,2,1,65,0,0
65454,-66.6666666666667,4,2,1,65,0,0
66354,-40,4,2,1,65,0,0
66654,-66.6666666666667,4,2,1,65,0,0
68004,-58.8235294117647,4,2,1,65,0,0
69504,-66.6666666666667,4,2,1,65,0,0
69954,-40,4,2,1,65,0,0
70404,-66.6666666666667,4,2,1,65,0,0
70704,-100,4,2,1,65,0,0
71154,-40,4,2,1,65,0,0
71454,-66.6666666666667,4,2,1,65,0,0
71754,-50,4,2,1,65,0,0
72204,-35.7142857142857,4,2,1,65,0,0
72654,-66.6666666666667,4,2,1,65,0,0
72954,-50,4,2,1,65,0,0
73404,-66.6666666666667,4,2,1,65,0,0
73554,-50,4,2,1,65,0,0
74004,-66.6666666666667,4,2,1,65,0,0
74754,-50,4,2,1,65,0,0
75054,-66.6666666666667,4,2,1,65,0,0
75954,-40,4,2,1,65,0,0
76404,-66.6666666666667,4,2,1,65,0,0
76554,-50,4,2,1,65,0,0
77004,-58.8235294117647,4,2,1,65,0,0
77604,-71.4285714285714,4,2,1,65,0,0
78804,-50,4,2,1,65,0,0
78954,-66.6666666666667,4,2,1,65,0,0
79554,-50,4,2,1,65,0,0
79854,-66.6666666666667,4,2,1,65,0,0
80154,-50,4,2,1,65,0,0
80754,-58.8235294117647,4,2,1,65,0,0
81204,-100,4,2,1,65,0,0
81354,-50,4,2,1,65,0,0
81804,-66.6666666666667,4,2,1,65,0,0
81954,-58.8235294117647,4,2,1,65,0,0
82704,-66.6666666666667,4,2,1,65,0,0
84354,-50,4,2,1,65,0,0
84654,-66.6666666666667,4,2,1,65,0,0
85554,-50,4,2,1,65,0,0
86454,-50,4,2,1,60,0,0
87654,-66.6666666666667,4,2,1,60,0,0
87954,-50,4,2,1,60,0,0
89454,-66.6666666666667,4,2,1,60,0,0
89754,-50,4,2,1,60,0,0
90054,-66.6666666666667,4,2,1,60,0,0
90354,-83.3333333333333,4,2,1,60,0,0
90654,-50,4,2,1,60,0,0
90954,-58.8235294117647,4,2,1,60,0,0
91254,-50,4,2,1,60,0,0
91554,-40,4,2,1,60,0,0
91854,-50,4,2,1,65,0,0
92154,-40,4,2,1,65,0,0
92379,-50,4,2,1,65,0,0
92754,-55.5555555555556,4,2,1,70,0,0
93354,-66.6666666666667,4,2,1,70,0,0
96654,-66.6666666666667,4,2,1,5,0,0

[Colours]
Combo1 : 225,217,155
Combo2 : 196,196,225

[HitObjects]
475,197,54,5,2,0:2:0:0:
428,375,204,1,2,0:2:0:0:
428,375,354,1,2,0:2:0:0:
428,375,504,6,0,B|454:243|353:156|269:171|318:221|135:171|175:36,1,480,2|0,0:0|0:0,0:0:0:0:
350,38,2454,6,0,B|393:33|397:69|397:69|327:45|266:86,1,200,2|0,0:0|0:0,0:0:0:0:
219,143,2904,2,0,B|186:230|77:222|140:115|199:168,1,200,2|0,0:0|0:0,0:0:0:0:
340,10,4854,6,0,P|375:90|389:212,1,200,2|0,0:0|0:0,0:0:0:0:
291,382,5304,2,0,B|308:306|392:264|378:320|486:295|487:180,1,299.999990844727,2|0,0:0|0:0,0:0:0:0:
423,75,7254,6,0,P|362:97|335:146,2,100,2|0|0,0:0|0:0|0:0,0:0:0:0:
444,308,7704,2,0,B|427:232|343:190|357:246|249:221|248:106,1,299.999990844727,2|0,0:0|0:0,0:0:0:0:
88,89,9654,5,2,0:0:0:0:
188,86,9804,1,0,0:0:0:0:
43,176,9954,1,0,0:0:0:0:
118,10,10104,6,0,P|141:82|145:367,1,359.999989013672,2|0,0:0|0:0,0:0:0:0:
66,366,12054,5,2,0:0:0:0:
139,319,12204,1,0,0:0:0:0:
217,313,12354,1,0,0:0:0:0:
284,343,12504,2,0,P|304:318|308:310,2,29.9999990844727
285,220,13054,5,2,0:0:0:0:
329,282,13204,1,0,0:0:0:0:
403,287,13354,1,0,0:0:0:0:
470,257,13504,2,0,P|490:282|494:290,2,29.9999990844727
440,102,14054,5,2,0:0:0:0:
340,53,14204,1,0,0:0:0:0:
365,156,14354,1,0,0:0:0:0:
365,156,14454,6,0,P|395:108|436:74,2,100,2|0|0,0:0|0:0|0:0,0:0:0:0:
277,170,14904,2,0,B|192:144|245:112|141:77,2,162.500006198883,2|2|2,0:0|0:0|0:0,0:0:0:0:
129,210,15879,1,2,0:0:0:0:
129,210,15954,2,0,P|188:137|313:86,1,225.000008583069,2|0,0:0|0:0,0:0:0:0:
256,192,16554,12,0,19104,0:0:0:0:
153,43,19254,6,0,P|137:96|169:249,1,200,0|0,3:2|0:0,0:0:0:0:
239,222,19704,2,0,P|235:268|217:294,2,59.9999981689454,0|0|0,3:2|0:0|0:0,0:0:0:0:
82,253,20154,2,0,P|86:207|104:181,2,59.9999981689454,0|0|0,3:2|0:0|0:2,0:0:0:0:
150,312,20604,5,0,3:2:0:0:
150,312,20754,1,0,0:0:0:0:
150,312,20904,1,0,0:0:0:0:
254,361,21054,6,0,P|289:347|320:308,1,59.9999981689454,0|0,3:2|0:0,0:0:0:0:
412,318,21354,2,0,P|425:274|414:225,1,75.0000028610231
260,87,21654,6,0,P|255:157|286:203,1,100,0|0,3:2|0:0,0:0:0:0:
267,182,21954,1,0,0:0:0:0:
508,45,22104,6,0,P|468:84|318:127,1,200,0|0,3:2|0:0,0:0:0:0:
259,86,22554,2,0,P|279:64|306:51,2,59.9999981689454,0|0|0,3:2|0:0|0:0,0:0:0:0:
400,175,23004,2,0,P|378:200|353:210,2,59.9999981689454,0|0|0,3:2|0:0|0:0,0:0:0:0:
267,182,23454,5,0,3:2:0:0:
211,358,23604,1,0,0:0:0:0:
211,358,23679,1,0,0:0:0:0:
211,358,23754,2,0,P|188:298|191:243,1,100,0|0,3:2|0:0,0:0:0:0:
106,208,24054,6,0,B|228:167|139:121|288:88,1,200,0|0,3:2|0:0,0:0:0:0:
267,182,24504,2,0,P|212:143|181:131,1,75.0000028610231,0|0,3:2|0:0,0:0:0:0:
106,120,24804,1,0,0:0:0:0:
364,46,24954,2,0,P|360:110|337:146,1,100,0|0,3:2|0:0,0:0:0:0:
342,139,25254,1,0,0:0:0:0:
171,0,25404,2,0,P|149:44|149:93,1,100,0|0,3:2|0:0,0:0:0:0:
149,93,25704,1,0,0:0:0:0:
256,70,25854,5,0,3:2:0:0:
256,70,26004,1,0,0:0:0:0:
432,105,26154,2,0,P|376:114|333:152,1,100,0|0,3:2|0:0,0:0:0:0:
140,322,26454,6,0,B|136:240|197:224|218:255|262:210|249:156,1,200,0|0,3:2|0:0,0:0:0:0:
132,193,26904,2,0,P|189:222|212:241,1,75.0000028610231,0|0,3:2|0:0,0:0:0:0:
261,303,27204,1,0,0:0:0:0:
369,327,27354,2,0,P|365:263|342:227,1,100,0|0,3:2|0:0,0:0:0:0:
347,233,27654,1,0,0:0:0:0:
176,373,27804,2,0,P|154:328|154:279,1,100,0|0,3:2|0:0,0:0:0:0:
154,279,28104,1,0,3:2:0:0:
261,303,28254,5,0,0:0:0:0:
439,272,28404,1,0,3:2:0:0:
439,272,28479,1,0,3:2:0:0:
439,272,28554,2,0,P|408:320|363:325,1,100,0|0,3:2|3:2,0:0:0:0:
261,303,28779,1,0,3:2:0:0:
261,303,28854,6,0,P|233:244|239:86,1,200,0|0,3:2|0:0,0:0:0:0:
103,172,29304,2,0,P|135:203|199:204,1,100,0|0,3:2|0:0,0:0:0:0:
301,151,29604,1,0,0:0:0:0:
415,62,29754,6,0,P|347:56|225:115,1,200,0|0,3:2|0:0,0:0:0:0:
180,33,30204,2,0,P|133:90|107:228,1,200,0|0,3:2|0:0,0:0:0:0:
22,169,30654,1,0,3:2:0:0:
22,169,30804,1,0,0:0:0:0:
56,327,30954,2,0,P|103:297|153:289,1,100,0|0,3:2|0:0,0:0:0:0:
233,199,31254,6,0,P|311:247|391:360,1,200,0|0,3:2|0:0,0:0:0:0:
466,253,31704,2,0,P|404:234|358:270,1,100,0|0,3:2|0:0,0:0:0:0:
233,199,32004,1,0,0:0:0:0:
248,375,32154,6,0,B|246:297|313:292|331:326|390:288|372:216,1,200,0|0,3:2|0:0,0:0:0:0:
311,118,32604,1,0,3:2:0:0:
466,253,32754,1,0,0:0:0:0:
362,36,32904,1,0,0:0:0:0:
233,199,33054,2,0,P|221:142|229:99,1,100,0|0,3:2|0:0,0:0:0:0:
131,47,33279,1,0,0:0:0:0:
131,47,33354,2,0,P|141:90|155:104,1,50,0|0,3:2|0:0,0:0:0:0:
73,188,33504,6,0,P|93:174|128:166,3,33.3333333333333,0|0|0|0,3:2|3:2|3:2|3:2,0:0:0:0:
162,273,33654,6,0,P|228:238|386:253,1,225.000008583069,0|0,3:2|0:0,0:0:0:0:
374,247,33954,1,0,0:0:0:0:
456,161,34104,2,0,P|483:207|501:272,1,100,0|0,3:2|0:0,0:0:0:0:
497,251,34404,1,0,0:0:0:0:
368,152,34554,2,0,P|386:113|431:71,1,100,0|0,3:2|0:0,0:0:0:0:
290,179,34854,6,0,P|235:144|95:110,1,200,0|0,3:2|0:0,0:0:0:0:
18,43,35304,2,0,P|59:111|73:211,1,150,0|0,3:2|0:0,0:0:0:0:
73,179,35604,6,0,P|22:193|9:248,1,100,0|0,3:2|0:0,0:0:0:0:
6,233,35904,1,0,3:2:0:0:
114,313,36054,2,0,P|174:290|216:280,1,100,0|0,0:2|0:0,0:0:0:0:
293,221,36354,2,0,P|347:237|394:265,1,100,0|0,3:2|0:0,0:0:0:0:
510,293,36654,5,0,0:0:0:0:
435,190,36804,1,0,3:2:0:0:
512,106,36954,1,0,0:0:0:0:
512,106,37029,1,0,0:0:0:0:
512,106,37104,1,0,0:0:0:0:
512,106,37179,1,0,0:0:0:0:
512,106,37254,2,0,P|455:107|384:132,1,100,0|0,3:2|0:0,0:0:0:0:
263,306,37554,2,0,P|268:240|281:195,1,100,0|0,3:2|0:0,0:0:0:0:
84,108,37854,2,0,P|137:78|149:74,1,50,0|0,3:2|0:0,0:0:0:0:
210,91,38004,5,0,3:2:0:0:
197,166,38079,1,0,3:2:0:0:
233,196,38154,1,0,3:2:0:0:
277,208,38229,1,0,3:2:0:0:
299,257,38304,2,0,P|333:247|366:214,1,59.9999981689454,0|0,1:2|0:0,0:0:0:0:
469,224,38454,6,0,B|482:202|505:206|505:206|484:211|485:221|477:223,1,75.0000028610231,4|0,1:2|0:0,0:0:0:0:
481,321,38604,6,0,B|525:357|465:395|431:351|375:248|507:258|451:128|451:155|396:134|374:103|374:103|377:148|429:172,1,389.999982147218,2|0,0:0|0:0,0:0:0:0:
501,68,38904,2,0,P|469:88|433:139,1,75.0000028610231,2|0,0:0|0:0,0:0:0:0:
299,257,39054,2,0,B|70:301|172:363|81:377,1,250,2|0,0:0|1:2,0:0:0:0:
39,279,39279,1,0,0:0:0:0:
39,279,39354,2,0,B|93:295|81:272|127:295,1,85.0000016212464,8|0,0:0|0:0,0:0:0:0:
433,335,39504,5,0,0:0:0:0:
433,335,39579,1,0,0:0:0:0:
433,335,39654,2,0,P|436:309|417:260,1,75.0000028610231
303,367,39804,2,0,P|278:327|277:299,1,75.0000028610231,0|0,1:2|0:0,0:0:0:0:
512,223,39954,6,0,B|461:268|383:236|397:147|401:147|405:145|411:75|346:60|313:91,1,284.999992389679,8|0,0:0|0:0,0:0:0:0:
412,65,40254,2,0,P|402:69|314:126,1,94.9999974632264,0|0,1:2|0:0,0:0:0:0:
179,219,40404,1,0,1:2:0:0:
122,213,40479,1,0,0:0:0:0:
95,172,40554,2,0,B|87:155|87:155|116:80,1,75.0000028610231,8|0,0:0|0:0,0:0:0:0:
287,212,40704,2,0,B|287:235|287:235|257:291,1,75.0000028610231
306,348,40854,5,0,1:2:0:0:
91,300,41004,2,0,B|23:314|43:382|43:382|133:256|253:236|253:236|250:284|287:306,1,419.999987182618,2|0,0:0|0:0,0:0:0:0:
333,240,41304,2,0,B|249:204|326:158|118:101,1,160,2|0,0:0|0:0,0:0:0:0:
331,80,41454,2,0,P|297:135|266:139,1,75.0000028610231,2|0,0:0|0:0,0:0:0:0:
0,72,41604,5,0,1:2:0:0:
0,72,41679,1,0,0:0:0:0:
0,72,41754,2,0,P|0:118|18:146,1,75.0000028610231,8|0,0:0|0:0,0:0:0:0:
168,25,41904,2,0,P|189:62|187:99,1,75.0000028610231
121,175,42054,5,0,1:2:0:0:
243,340,42204,1,0,1:2:0:0:
243,340,42279,1,0,1:2:0:0:
243,340,42354,2,0,B|339:354|372:268|310:270|375:175|462:204,1,279.999991455078,8|0,0:0|0:0,0:0:0:0:
451,201,42579,2,0,L|465:262,1,50,8|0,0:0|0:0,0:0:0:0:
481,325,42729,1,0,0:0:0:0:
481,325,42804,1,0,1:2:0:0:
216,235,42954,6,0,P|176:211|165:140,1,100,8|0,0:0|0:0,0:0:0:0:
287,73,43104,2,0,P|334:118|319:182,1,100
117,49,43254,5,0,1:2:0:0:
402,78,43404,2,0,B|464:89|467:141|467:141|368:101|234:124|242:181,1,330.000010070801,2|0,0:0|0:0,0:0:0:0:
216,235,43704,2,0,P|162:202|173:157,1,110.000003356934,2|0,0:0|0:0,0:0:0:0:
117,49,43854,2,0,B|144:120|75:159|56:123|-4:201|44:274,1,220.000006713867,2|0,0:0|1:2,0:0:0:0:
3,110,44079,1,0,0:0:0:0:
3,110,44154,2,0,P|57:146|85:198,1,110.000003356934,8|0,0:0|0:0,0:0:0:0:
205,373,44304,5,0,0:0:0:0:
205,373,44379,1,0,0:0:0:0:
205,373,44454,2,0,P|179:340|178:286,1,75.0000028610231,0|0,1:2|0:0,0:0:0:0:
269,167,44604,2,0,P|300:228|293:258,1,75.0000028610231,0|0,1:2|0:0,0:0:0:0:
509,376,44754,6,0,B|522:306|452:268|449:303|389:255|404:196,1,200,8|2,0:0|0:2,0:0:0:0:
458,161,44979,1,2,1:2:0:0:
458,161,45054,6,0,B|492:265|456:321|417:303|405:354|428:398,1,234.999996414185,2|2,0:0|1:2,0:0:0:0:
421,381,45279,1,2,0:0:0:0:
421,381,45354,2,0,P|386:380|372:371,2,50,10|0|0,0:0|0:0|0:0,0:0:0:0:
512,300,45654,5,0,1:2:0:0:
309,177,45804,2,0,B|169:194|261:337|279:220|310:167|426:120|485:178,1,345.000006580353,2|0,0:0|0:0,0:0:0:0:
389,66,46104,2,0,B|433:34|455:71|393:68|376:86|386:152,1,115.000002193451,2|0,0:0|0:0,0:0:0:0:
512,300,46254,2,0,P|503:247|453:155,1,150.000005722046,2|0,0:0|1:2,0:0:0:0:
303,61,46479,1,0,0:0:0:0:
291,71,46554,2,0,P|285:29|320:-4,1,75.0000028610231,8|0,0:0|0:0,0:0:0:0:
484,167,46704,2,0,P|480:219|447:246,1,75.0000028610231,0|0,0:0|1:2,0:0:0:0:
405,297,46854,5,0,1:2:0:0:
160,54,47004,1,0,1:2:0:0:
160,54,47079,1,0,1:2:0:0:
160,54,47154,2,0,B|119:35|70:98|23:246|224:54|339:261|283:272,1,359.999989013672,8|8,0:0|0:0,0:0:0:0:
225,317,47454,2,0,B|187:279|208:222|293:186|232:129,1,179.999994506836
249,151,47604,2,0,P|259:131|259:150,1,50,0|0,1:2|1:2,0:0:0:0:
125,253,47754,1,8,0:0:0:0:
75,234,47829,1,8,0:0:0:0:
28,213,47904,1,0,1:2:0:0:
22,200,47979,1,0,0:0:0:0:
17,189,48054,1,0,0:0:0:0:
482,270,48204,6,0,B|368:224|368:224|406:218,1,150,2|0,0:0|0:0,0:0:0:0:
384,73,48354,2,0,B|425:146|362:141|418:234,1,150,2|0,0:0|0:0,0:0:0:0:
249,151,48504,2,0,B|334:83|334:83|395:79,1,150,2|0,0:0|0:0,0:0:0:0:
143,49,48654,2,0,P|210:95|232:190,1,150,2|0,0:0|0:0,0:0:0:0:
465,110,48954,6,0,P|410:105|382:66,1,100,8|0,0:0|0:0,0:0:0:0:
368,294,49104,1,0,0:0:0:0:
368,294,49179,1,0,1:2:0:0:
368,294,49254,2,0,P|298:299|268:219,1,150,0|0,1:2|0:0,0:0:0:0:
232,254,49404,2,0,P|182:262|149:209,1,100,0|0,1:2|0:0,0:0:0:0:
59,318,49554,6,0,B|138:321|126:237|92:153|209:120|239:163,1,279.999991455078,8|0,0:0|0:0,0:0:0:0:
71,108,49779,1,0,1:2:0:0:
71,108,49854,2,0,P|131:158|154:221,1,139.999995727539
185,318,50004,2,0,P|160:240|180:204,1,100,0|0,1:2|0:0,0:0:0:0:
243,98,50154,5,8,0:0:0:0:
320,90,50229,1,8,0:0:0:0:
377,120,50304,1,0,1:2:0:0:
409,156,50379,1,0,1:2:0:0:
423,192,50454,2,0,P|473:208|514:176,1,100,0|0,1:2|0:0,0:0:0:0:
512,74,50604,6,0,B|194:250|383:258|264:331,1,359.999989013672,2|0,0:0|0:0,0:0:0:0:
367,382,50904,2,0,B|254:276|272:376|198:307,1,179.999994506836,2|0,0:0|0:0,0:0:0:0:
185,318,51054,2,0,B|74:330|146:363|37:377,1,119.999996337891,2|0,0:0|0:0,0:0:0:0:
41,265,51204,2,0,P|104:279|118:307,1,75.0000028610231,0|0,1:2|0:0,0:0:0:0:
256,302,51354,2,0,P|235:235|240:124,1,150.000005722046,8|0,0:0|0:0,0:0:0:0:
201,84,51579,1,0,1:2:0:0:
201,84,51654,2,0,B|202:48|176:41|176:41|172:66|199:88,1,100,0|0,1:2|0:0,0:0:0:0:
446,134,51804,5,0,1:2:0:0:
446,134,51879,1,0,1:2:0:0:
446,134,51954,2,0,B|375:83|380:20|380:20|345:73|239:57,1,250,8|0,0:0|0:0,0:0:0:0:
280,60,52179,1,8,0:0:0:0:
280,60,52254,1,0,0:0:0:0:
280,60,52329,1,8,0:0:0:0:
289,71,52404,2,0,B|330:144|330:144|265:115,1,125,0|0,1:2|1:2,0:0:0:0:
110,140,52554,2,0,B|92:211|92:211|145:138,1,125,8|0,0:0|0:0,0:0:0:0:
279,212,52704,5,0,1:2:0:0:
279,212,52779,1,0,1:2:0:0:
279,212,52854,2,0,B|327:316|327:316|238:286,1,139.999995727539,0|0,1:2|0:0,0:0:0:0:
104,341,53004,6,0,B|166:298|166:298|454:221,1,359.999989013672,2|0,0:0|0:0,0:0:0:0:
511,169,53304,2,0,B|457:138|457:138|505:131,1,75.0000028610231,2|2,0:0|0:0,0:0:0:0:
427,320,53454,6,0,B|488:335|488:335|319:126,1,300.000011444092,2|0,0:0|1:2,0:0:0:0:
352,67,53679,1,0,0:0:0:0:
352,67,53754,2,0,B|401:75|401:75|247:129,1,200,8|0,0:0|0:0,0:0:0:0:
182,102,53979,1,0,1:2:0:0:
182,102,54054,2,0,L|151:48,1,50,0|0,1:2|0:0,0:0:0:0:
150,183,54204,2,0,L|183:229,1,50,0|0,1:2|0:0,0:0:0:0:
38,145,54354,6,0,L|-2:-9,1,150.000005722046,8|0,0:0|0:0,0:0:0:0:
0,0,54579,1,0,1:2:0:0:
0,0,54654,1,0,0:0:0:0:
252,129,54804,1,0,1:2:0:0:
181,309,54954,1,8,0:0:0:0:
181,309,55029,1,8,0:0:0:0:
181,309,55104,2,0,B|215:305|215:305|266:256,1,75.0000028610231,0|0,1:2|1:2,0:0:0:0:
362,226,55254,1,0,1:2:0:0:
362,226,55404,6,0,B|496:258|496:258|381:131,1,300,2|0,0:0|0:0,0:0:0:0:
324,86,55704,2,0,P|314:37|377:20,1,100,2|0,1:2|0:0,0:0:0:0:
439,61,55854,2,0,L|243:128,1,200,2|0,1:2|1:2,0:0:0:0:
169,185,56079,1,0,1:2:0:0:
169,185,56154,2,0,L|274:211,1,100,8|0,0:0|0:0,0:0:0:0:
303,289,56304,1,0,0:0:0:0:
356,328,56379,1,8,0:0:0:0:
407,364,56454,1,0,0:0:0:0:
93,297,56604,5,0,1:2:0:0:
93,297,56679,1,0,1:2:0:0:
93,297,56754,2,0,L|151:97,1,200,8|0,0:0|0:0,0:0:0:0:
161,24,56979,1,8,0:0:0:0:
161,24,57054,2,0,B|222:14|222:14|181:52,1,100
233,106,57204,2,0,B|284:131|284:131|223:140,1,100,0|0,1:2|0:0,0:0:0:0:
40,104,57354,6,0,B|229:228|229:228|261:322,1,270.000001029968,8|8,0:0|0:0,0:0:0:0:
243,269,57579,1,8,0:0:0:0:
243,269,57654,5,4,1:2:0:0:
415,106,57804,2,0,B|348:118|348:118|169:345|169:345|451:198|451:198|483:215,1,700.00000667572,2|0,0:0|0:0,0:0:0:0:
494,314,58179,1,8,0:0:0:0:
494,314,58254,2,0,B|396:257|396:257|392:217,1,150.000005722046,0|0,1:2|1:2,0:0:0:0:
258,32,58554,2,0,L|222:104,1,75.0000028610231,8|0,0:0|0:0,0:0:0:0:
199,75,58704,2,0,L|288:47,1,75.0000028610231,0|0,0:0|1:2,0:0:0:0:
39,56,58854,6,0,B|36:135|36:135|79:183,1,100,2|0,1:2|0:0,0:0:0:0:
33,230,59004,2,0,B|18:253|18:253|145:199,1,100,0|0,1:2|0:0,0:0:0:0:
182,181,59154,1,8,0:0:0:0:
261,357,59304,1,2,1:2:0:0:
261,357,59379,1,0,1:2:0:0:
261,357,59454,2,0,B|195:247|195:247|198:167,1,200,0|0,0:0|1:2,0:0:0:0:
419,316,59754,2,0,B|389:172|389:172|336:115,1,200,10|0,0:0|0:0,0:0:0:0:
352,133,59979,1,8,0:0:0:0:
352,133,60054,5,0,1:2:0:0:
473,84,60204,1,0,1:2:0:0:
307,214,60354,2,0,B|330:64|330:64|375:33,1,200,8|0,0:0|0:0,0:0:0:0:
473,84,60654,6,0,B|506:117|506:117|355:55,1,200,0|0,0:0|1:2,0:0:0:0:
292,29,60879,1,0,1:2:0:0:
292,29,60954,2,0,L|214:103,1,100,8|8,0:0|0:0,0:0:0:0:
173,105,61104,2,0,L|155:222,1,100,0|8,1:2|0:0,0:0:0:0:
88,248,61254,5,0,1:2:0:0:
45,87,61404,1,0,1:2:0:0:
45,87,61479,1,0,1:2:0:0:
45,87,61554,2,0,B|112:86|112:86|324:225,1,300,8|8,0:0|0:0,0:0:0:0:
347,104,61854,2,0,B|314:112|314:112|246:153,1,100
191,258,62004,1,0,1:2:0:0:
191,258,62079,1,0,1:2:0:0:
191,258,62154,2,0,B|224:241|224:241|319:222,1,100,8|0,0:0|0:0,0:0:0:0:
389,327,62304,5,0,1:2:0:0:
451,286,62379,1,8,0:0:0:0:
512,245,62454,1,0,1:2:0:0:
65,189,62604,6,0,B|64:242|64:242|291:389|291:389|166:151|166:151|162:50,1,660.000006294251,2|0,0:0|0:0,0:0:0:0:
276,154,62979,1,8,0:0:0:0:
276,154,63054,2,0,B|285:184|285:184|180:115,1,150.000005722046,0|0,1:2|1:2,0:0:0:0:
81,81,63279,1,0,0:0:0:0:
81,81,63354,2,0,B|213:23|213:23|267:71|267:71|420:35,1,345.000006580353,8|8,0:0|0:0,0:0:0:0:
494,18,63654,6,0,B|478:39|478:39|456:122,1,75.0000028610231,2|0,1:2|0:0,0:0:0:0:
365,123,63804,2,0,B|381:144|381:144|403:227,1,75.0000028610231,0|0,1:2|0:0,0:0:0:0:
512,264,63954,2,0,B|465:204|465:204|345:261,1,200,8|2,0:0|0:0,0:0:0:0:
353,257,64179,1,8,0:2:0:0:
353,257,64254,5,0,1:2:0:0:
201,357,64404,2,0,L|283:369,1,75.0000028610231,0|0,1:2|0:0,0:0:0:0:
271,337,64554,2,0,L|198:377,1,75.0000028610231,10|0,0:0|0:0,0:0:0:0:
91,366,64704,1,0,1:2:0:0:
55,354,64779,1,8,0:2:0:0:
21,319,64854,1,0,1:2:0:0:
140,223,65004,6,0,B|151:260|151:260|165:210,1,75.0000028610231,0|0,1:2|0:0,0:0:0:0:
231,177,65154,2,0,B|133:119|133:119|46:216,1,220.000006713867,8|0,0:0|1:2,0:0:0:0:
13,109,65379,1,0,1:2:0:0:
13,109,65454,2,0,L|109:127,1,75.0000028610231,0|0,1:2|0:0,0:0:0:0:
167,116,65604,2,0,L|250:83,1,75.0000028610231,0|0,1:2|0:0,0:0:0:0:
343,127,65754,1,8,0:0:0:0:
482,130,65904,1,0,1:2:0:0:
482,130,65979,1,0,1:2:0:0:
482,130,66054,1,8,0:0:0:0:
341,28,66204,5,0,1:2:0:0:
341,28,66279,1,0,1:2:0:0:
341,28,66354,2,0,B|380:104|380:104|401:276,1,250,8|0,0:0|0:0,0:0:0:0:
308,255,66579,1,8,0:0:0:0:
308,255,66654,2,0,L|371:189,1,75.0000028610231,0|0,1:2|0:0,0:0:0:0:
510,221,66804,2,0,L|405:236,1,75.0000028610231,0|0,1:2|0:0,0:0:0:0:
229,214,66954,6,0,B|214:301|214:301|267:333,1,150.000005722046,8|0,0:0|1:2,0:0:0:0:
266,333,67179,1,8,0:0:0:0:
266,333,67254,1,8,0:0:0:0:
47,145,67404,5,2,1:2:0:0:
33,196,67479,1,0,1:2:0:0:
63,227,67554,1,0,1:2:0:0:
312,164,67704,5,0,1:2:0:0:
327,91,67779,1,0,1:2:0:0:
273,43,67854,1,0,1:2:0:0:
103,16,68004,6,0,B|121:37|121:37|140:106,1,85.0000016212464,8|0,0:0|0:0,0:0:0:0:
233,110,68154,2,0,B|215:131|215:131|196:200,1,85.0000016212464,8|0,0:0|0:0,0:0:0:0:
136,263,68304,1,0,1:2:0:0:
173,328,68379,1,0,1:2:0:0:
225,348,68454,2,0,B|354:303|354:303|284:297,1,170.000003242493,2|0,1:2|1:2,0:0:0:0:
465,258,68754,2,0,P|395:284|454:355,1,170.000003242493,8|2,0:0|1:2,0:0:0:0:
427,353,68979,1,8,0:0:0:0:
427,353,69054,5,0,1:2:0:0:
390,233,69204,2,0,L|364:142,1,85.0000016212464,0|0,1:2|0:0,0:0:0:0:
351,38,69354,1,10,0:0:0:0:
424,20,69429,1,0,1:2:0:0:
475,48,69504,2,0,L|498:130,1,75.0000028610231,8|0,0:0|1:2,0:0:0:0:
495,120,69654,5,0,1:2:0:0:
297,172,69804,2,0,B|243:141|243:141|194:140,1,75.0000028610231,0|0,1:2|0:0,0:0:0:0:
77,193,69954,2,0,B|185:136|185:136|221:233|221:233|276:261,1,250,8|0,0:0|0:0,0:0:0:0:
242,244,70179,1,8,0:0:0:0:
242,244,70254,5,0,1:2:0:0:
168,33,70404,2,0,L|150:131,1,75.0000028610231,0|0,1:2|1:2,0:0:0:0:
25,342,70554,1,8,0:0:0:0:
97,311,70629,1,0,1:2:0:0:
152,337,70704,2,0,P|177:363|189:392,1,50,0|8,1:2|0:0,0:0:0:0:
257,369,70854,5,0,1:2:0:0:
110,226,71004,1,0,1:2:0:0:
110,226,71079,1,0,1:2:0:0:
110,226,71154,2,0,B|8:243|8:243|163:69|163:69|153:112,1,375,8|8,0:0|0:0,0:0:0:0:
51,68,71454,2,0,B|34:65|34:65|96:108,1,75.0000028610231,0|8,0:2|0:0,0:0:0:0:
188,172,71604,1,0,1:2:0:0:
379,99,71754,2,0,P|339:47|282:97,1,100,8|0,0:0|0:0,0:0:0:0:
250,95,71904,1,0,1:2:0:0:
250,95,71979,1,0,1:2:0:0:
250,95,72054,5,0,1:2:0:0:
162,375,72204,2,0,B|294:33|294:33|381:227,1,559.999982910157,2|0,0:0|0:0,0:0:0:0:
316,259,72579,1,0,0:0:0:0:
316,259,72654,2,0,L|246:216,1,75.0000028610231,0|0,1:2|0:0,0:0:0:0:
103,302,72804,2,0,L|189:288,1,75.0000028610231,2|0,1:2|0:0,0:0:0:0:
458,299,72954,6,0,B|451:276|451:276|378:253|378:253|336:322|336:322|376:385,1,200,8|0,0:0|0:0,0:0:0:0:
345,337,73179,1,8,0:0:0:0:
345,337,73254,1,2,1:2:0:0:
416,226,73404,2,0,L|451:141,1,75.0000028610231,0|0,1:2|0:0,0:0:0:0:
489,86,73554,2,0,B|499:142|499:142|425:-10,1,200,8|2,0:0|0:0,0:0:0:0:
436,13,73779,1,8,0:0:0:0:
436,13,73854,5,0,1:2:0:0:
300,163,74004,2,0,L|225:127,1,75.0000028610231,0|0,1:2|0:0,0:0:0:0:
150,133,74154,2,0,B|256:66|256:66|327:67,1,150.000005722046,10|0,0:0|0:0,0:0:0:0:
280,66,74379,1,8,0:0:0:0:
280,66,74454,5,0,1:2:0:0:
36,31,74604,2,0,L|79:120,1,75.0000028610231,0|0,1:2|0:0,0:0:0:0:
150,133,74754,2,0,B|94:197|94:197|123:266|123:266|109:332,1,200,8|0,0:0|1:2,0:0:0:0:
33,269,75054,2,0,B|12:308|12:308|114:250,1,150.000005722046,0|0,1:2|1:2,0:0:0:0:
204,239,75279,1,0,1:2:0:0:
204,239,75354,2,0,L|291:268,1,75.0000028610231,8|0,0:0|0:0,0:0:0:0:
289,250,75504,2,0,L|367:226,1,75.0000028610231,0|8,0:0|0:0,0:0:0:0:
389,249,75654,5,0,0:0:0:0:
186,9,75804,1,0,1:2:0:0:
186,9,75879,1,0,1:2:0:0:
186,9,75954,2,0,B|158:66|158:66|263:182|263:182|263:131,1,250,8|0,0:0|0:0,0:0:0:0:
263,151,76179,1,8,0:0:0:0:
263,151,76254,5,0,1:2:0:0:
114,129,76404,2,0,L|13:163,1,75.0000028610231,0|0,1:2|0:0,0:0:0:0:
260,57,76554,2,0,B|402:7|402:7|350:51,1,200,8|8,0:0|0:0,0:0:0:0:
364,38,76779,1,8,0:0:0:0:
364,38,76854,5,14,1:2:0:0:
72,20,77004,2,0,B|244:116|316:277|316:277|408:236|480:299,1,510.000009727478,2|0,0:0|0:0,0:0:0:0:
495,180,77604,2,0,B|434:164|365:207|355:265|355:265|340:204|402:165,1,279.999991455078,2|0,1:2|0:0,0:0:0:0:
384,177,77979,1,0,1:2:0:0:
384,177,78054,5,0,1:2:0:0:
272,76,78204,1,0,1:2:0:0:
425,103,78354,1,8,0:0:0:0:
190,35,78504,5,10,0:0:0:0:
190,35,78579,2,0,P|244:109|263:184,1,139.999995727539,0|8,1:2|0:0,0:0:0:0:
174,182,78804,2,0,P|138:134|125:85,1,100,0|0,1:2|0:0,0:0:0:0:
272,76,78954,2,0,P|200:129|170:209,1,150.000005722046,10|0,0:0|0:0,0:0:0:0:
148,255,79179,1,8,0:0:0:0:
148,255,79254,2,0,L|182:331,1,75.0000028610231,0|0,1:2|0:0,0:0:0:0:
107,358,79404,2,0,L|66:268,1,75.0000028610231,0|0,1:2|0:0,0:0:0:0:
0,241,79554,6,0,L|237:351,1,200,8|0,0:0|0:0,0:0:0:0:
234,384,79779,1,8,0:0:0:0:
234,384,79854,2,0,P|261:341|243:300,1,75.0000028610231,0|0,1:2|0:0,0:0:0:0:
174,182,80004,2,0,P|155:213|152:253,1,75.0000028610231,0|0,1:2|0:0,0:0:0:0:
401,340,80154,2,0,B|289:300|363:253|213:218,1,200,8|0,0:0|0:0,0:0:0:0:
242,225,80379,1,8,0:0:0:0:
242,225,80454,5,2,1:2:0:0:
414,180,80604,1,0,1:2:0:0:
414,180,80679,1,0,1:2:0:0:
414,180,80754,2,0,B|440:182|454:220|454:220|383:201|331:257,1,170.000003242493,8|0,0:0|0:0,0:0:0:0:
305,300,80979,1,8,0:0:0:0:
305,300,81053,2,0,P|279:343|241:352,1,85.0000016212464,0|0,1:2|0:0,0:0:0:0:
164,384,81204,2,0,P|154:353|151:316,1,50,0|0,1:2|0:0,0:0:0:0:
69,166,81354,2,0,P|123:263|125:161,1,200,8|0,0:0|0:0,0:0:0:0:
149,238,81579,1,8,0:0:0:0:
149,238,81654,5,2,1:2:0:0:
183,29,81804,2,0,L|240:110,1,75.0000028610231,2|0,0:0|0:0,0:0:0:0:
226,90,81954,2,0,B|325:72|377:-1|377:-1|458:46,1,255.000004863739,10|0,0:0|0:0,0:0:0:0:
440,36,82254,2,0,B|448:116|448:116|340:140|255:235|255:235|245:306|180:334,1,425.000008106232,2|0,0:0|0:0,0:0:0:0:
178,180,82704,2,0,B|200:236|290:267|290:174|391:214|427:337,1,300.000011444092,2|0,0:0|1:2,0:0:0:0:
499,211,83154,2,0,P|434:238|419:315,1,150.000005722046,10|0,0:0|0:0,0:0:0:0:
417,310,83379,1,8,0:0:0:0:
417,310,83454,5,0,1:2:0:0:
468,131,83604,1,0,1:2:0:0:
269,332,83754,2,0,B|254:233|317:210|361:241|396:171|362:95,1,225.000008583069,10|8,0:0|0:0,0:0:0:0:
358,79,84054,2,0,B|320:57|335:15|335:15|370:40|357:81,1,150.000005722046,0|0,1:2|1:2,0:0:0:0:
512,39,84354,6,0,B|467:79|467:79|341:37|224:112,1,300,8|8,0:0|0:0,0:0:0:0:
186,34,84654,2,0,P|250:41|270:68,1,75.0000028610231,0|0,1:2|0:0,0:0:0:0:
233,177,84804,2,0,P|169:170|149:143,1,75.0000028610231,0|0,1:2|0:0,0:0:0:0:
38,32,84954,2,0,P|86:93|71:185,1,150.000005722046,8|0,0:0|0:0,0:0:0:0:
83,162,85179,1,8,0:0:0:0:
83,162,85254,5,0,1:2:0:0:
73,312,85404,1,0,1:2:0:0:
73,312,85479,1,0,1:2:0:0:
73,312,85554,2,0,B|46:332|61:383|61:383|150:267|264:276,1,300,8|8,0:0|0:0,0:0:0:0:
262,359,85854,2,0,P|199:305|175:299,1,100,2|0,1:2|0:0,0:0:0:0:
104,236,86004,2,0,B|66:220|71:189|71:189|82:207|122:222,1,100,0|0,1:2|0:0,0:0:0:0:
187,204,86154,6,0,B|210:120|271:125|277:127|284:128|320:159|380:69|355:18|277:0|253:72,1,300,8|0,0:2|0:0,0:0:0:0:
161,62,86454,2,0,P|237:125|272:230,1,200,14|2,0:2|1:2,0:0:0:0:
271,217,86679,1,0,1:2:0:0:
271,217,86754,5,2,1:2:0:0:
468,109,86904,1,2,1:2:0:0:
468,109,86979,1,0,1:2:0:0:
468,109,87054,2,0,P|464:177|440:186,1,100,2|0,1:2|0:0,0:0:0:0:
367,158,87204,2,0,P|370:89|394:80,1,100,10|0,0:0|0:0,0:0:0:0:
511,347,87354,2,0,B|476:369|438:289|420:226|367:221|332:271,1,200,10|2,0:0|1:2,0:0:0:0:
500,242,87579,1,0,1:2:0:0:
500,242,87654,6,0,P|422:294|376:357,1,150.000005722046,2|2,1:2|1:2,0:0:0:0:
191,356,87954,2,0,P|139:288|173:261,1,100,10|0,0:0|0:0,0:0:0:0:
292,187,88104,2,0,P|272:232|214:236,1,100,2|0,1:2|1:2,0:0:0:0:
35,129,88254,6,0,P|123:93|142:193,1,200,0|2,1:2|1:2,0:0:0:0:
154,171,88479,1,0,1:2:0:0:
154,171,88554,1,10,0:0:0:0:
18,284,88704,1,2,1:2:0:0:
18,284,88779,1,0,1:2:0:0:
18,284,88854,2,0,P|91:241|129:271,1,100,0|0,1:2|0:0,0:0:0:0:
50,353,89004,2,0,P|98:349|128:311,1,100,2|0,1:2|0:0,0:0:0:0:
292,187,89154,6,0,B|228:194|251:273|260:340|204:352,1,200,10|2,0:0|1:2,0:0:0:0:
173,252,89379,1,0,1:2:0:0:
178,257,89454,2,0,B|212:228|305:322|352:264,1,150.000005722046,2|2,1:2|1:2,0:0:0:0:
500,226,89754,2,0,P|395:183|414:113,1,200,10|2,0:0|0:0,0:0:0:0:
410,119,89979,1,0,1:2:0:0:
410,119,90054,6,0,P|451:93|447:46,1,75.0000028610231,2|0,1:2|1:2,0:0:0:0:
308,48,90204,2,0,P|267:74|271:121,1,75.0000028610231,2|0,1:2|1:2,0:0:0:0:
87,83,90354,6,0,L|153:113,1,59.9999981689454,10|0,0:0|0:0,0:0:0:0:
134,119,90504,2,0,L|68:89,1,59.9999981689454,2|8,1:2|0:0,0:0:0:0:
96,196,90654,6,0,B|100:217|100:217|33:307|33:307|40:330,1,150,2|0,1:2|0:0,0:0:0:0:
0,241,90804,2,0,B|9:261|9:261|112:268|112:268|135:294,1,150,2|0,1:2|0:0,0:0:0:0:
182,365,90954,6,0,B|359:273|359:273|308:335,1,255.000004863739,10|8,0:0|0:0,0:0:0:0:
438,303,91254,2,0,P|387:246|398:212,1,100,0|0,1:2|0:0,0:0:0:0:
506,265,91404,2,0,P|498:217|451:188,1,100,2|0,0:0|0:0,0:0:0:0:
497,74,91554,6,0,P|447:154|286:177,1,250,10|2,0:0|0:0,0:0:0:0:
332,68,91779,1,8,0:0:0:0:
332,68,91854,2,0,P|369:111|363:171,1,100,2|0,1:2|0:0,0:0:0:0:
175,129,92004,2,0,P|179:177|213:213,1,100,2|0,1:2|0:0,0:0:0:0:
318,314,92154,6,0,B|308:237|169:234|230:282|97:310|100:177,1,250,10|2,0:0|0:0,0:0:0:0:
8,185,92379,1,8,0:0:0:0:
8,185,92454,2,0,P|62:165|86:128,1,100,2|0,1:2|0:0,0:0:0:0:
175,129,92604,2,0,P|171:54|137:31,1,100,2|0,1:2|0:0,0:0:0:0:
392,0,92754,6,0,P|305:41|280:132,1,179.999994506836,10|2,0:0|0:0,0:0:0:0:
278,115,92979,1,0,1:2:0:0:
278,115,93054,2,0,P|320:139|333:180,1,89.9999972534181,0|0,1:2|0:0,0:0:0:0:
400,219,93204,2,0,P|373:267|332:277,1,89.9999972534181,2|0,1:2|0:0,0:0:0:0:
169,222,93354,2,0,P|233:247|256:343,1,150.000005722046,10|2,0:0|0:0,0:0:0:0:
490,62,93654,6,0,P|451:61|420:82,1,75.0000028610231,0|0,1:2|0:0,0:0:0:0:
444,151,93804,2,0,P|483:152|514:131,1,75.0000028610231,2|0,0:0|0:0,0:0:0:0:
281,20,93954,2,0,P|343:83|361:164,1,150.000005722046,10|2,0:0|1:2,0:0:0:0:
360,140,94179,1,0,0:0:0:0:
360,140,94254,2,0,P|314:155|302:192,1,75.0000028610231,2|0,1:2|0:0,0:0:0:0:
228,178,94404,2,0,P|231:224|261:250,1,75.0000028610231,2|0,0:0|1:2,0:0:0:0:
422,249,94554,2,0,P|363:243|318:318,1,150.000005722046,10|2,0:0|0:0,0:0:0:0:
317,312,94779,1,8,0:0:0:0:
317,312,94854,6,0,P|278:338|241:323,1,75.0000028610231,2|0,1:2|1:2,0:0:0:0:
186,376,95004,2,0,P|155:327|163:299,1,75.0000028610231,2|0,1:2|1:2,0:0:0:0:
228,178,95154,2,0,P|182:232|96:204,1,150.000005722046,10|2,0:0|1:2,0:0:0:0:
39,179,95379,1,8,0:0:0:0:
39,179,95454,2,0,L|12:95,1,75.0000028610231,2|0,1:2|1:2,1:0:0:0:
94,71,95604,2,0,L|67:-13,1,75.0000028610231,2|2,1:2|1:2,0:0:0:0:
263,0,95754,5,10,0:0:0:0:
318,12,95829,1,2,1:2:0:0:
356,56,95904,1,10,0:0:0:0:
369,110,95979,1,10,0:0:0:0:
352,165,96054,5,6,1:2:0:0:
