osu file format v14

[General]
AudioFilename: audio.mp3
AudioLeadIn: 0
PreviewTime: 66163
Countdown: 0
SampleSet: Soft
StackLeniency: 0.4
Mode: 0
LetterboxInBreaks: 0
WidescreenStoryboard: 1

[Editor]
Bookmarks: 0,22068,44137,55172,66206,88275
DistanceSpacing: 0.8
BeatDivisor: 8
GridSize: 32
TimelineZoom: 2.999999

[Metadata]
Title:Doinkus
TitleUnicode:Doinkus
Artist:WangleLine
ArtistUnicode:WangleLine
Creator:hehe
Version:Insane
Source:
Tags:electronic instrumental breakcore trance experimental handsome
BeatmapID:4052850
BeatmapSetID:1951967

[Difficulty]
HPDrainRate:4
CircleSize:4
OverallDifficulty:8
ApproachRate:9
SliderMultiplier:1.4
SliderTickRate:1

[Events]
//Background and Video events
0,0,"fran-s-cano-fran-s-cano.jpg",0,0
//Break Periods
//Storyboard Layer 0 (Background)
//Storyboard Layer 1 (Fail)
//Storyboard Layer 2 (Pass)
//Storyboard Layer 3 (Foreground)
//Storyboard Layer 4 (Overlay)
//Storyboard Sound Samples

[TimingPoints]
0,344.827586206897,4,2,1,65,1,0
0,-71.4285714285714,4,2,1,65,0,0
11034,-100,4,2,1,70,0,0
22068,-71.4285714285714,4,2,1,75,0,0
44137,-71.4285714285714,4,2,1,80,0,0
66206,-62.5,4,2,1,90,0,1
88275,-100,4,2,1,90,0,0

[Colours]
Combo1 : 244,196,0
Combo2 : 232,60,60
Combo3 : 23,180,255

[HitObjects]
131,81,0,6,0,P|226:95|334:108,1,195.999994018555,0|0,3:0|3:0,0:0:0:0:
391,56,517,1,4,0:3:0:0:
460,103,689,2,0,P|463:125|471:168,1,48.9999985046387,0|0,3:0|0:0,0:0:0:0:
398,204,862,2,0,P|395:182|387:139,1,48.9999985046387,0|0,3:0|0:0,0:0:0:0:
512,219,1034,2,0,P|502:264|494:324,1,97.9999970092774,0|2,3:0|0:3,0:0:0:0:
500,354,1293,1,2,0:3:0:0:
500,354,1379,6,0,P|439:353|384:361,1,97.9999970092774,0|0,3:0|0:0,0:0:0:0:
398,204,1724,2,0,P|337:203|282:211,1,97.9999970092774,0|4,3:0|0:3,0:0:0:0:
255,278,2068,1,0,3:0:0:0:
186,227,2241,1,0,0:0:0:0:
186,227,2327,1,0,0:0:0:0:
186,227,2413,2,2,L|178:176,3,48.9999985046387,2|2|2|2,3:3|0:3|0:3|0:3,0:3:0:0:
153,256,2758,6,0,P|144:298|132:359,1,97.9999970092774,0|0,3:0|0:0,0:0:0:0:
12,384,3103,2,0,P|21:342|33:281,1,97.9999970092774,0|4,3:0|0:3,0:0:0:0:
55,194,3448,2,0,P|20:207|-4:214,1,48.9999985046387,0|0,3:0|0:0,0:0:0:0:
73,115,3620,2,0,P|108:102|132:95,1,48.9999985046387,0|0,3:0|0:0,0:0:0:0:
189,142,3793,2,2,P|195:183|194:304,1,146.999995513916,2|2,3:3|0:3,0:3:0:0:
195,288,4137,6,0,P|254:282|307:279,1,97.9999970092774,0|4,3:0|0:3,0:0:0:0:
275,150,4482,2,0,P|333:143|386:140,1,97.9999970092774,0|4,3:0|0:3,0:0:0:0:
444,193,4827,1,0,3:0:0:0:
507,82,5000,1,0,0:0:0:0:
507,82,5086,1,0,0:0:0:0:
507,82,5172,2,2,L|501:22,3,48.9999985046387,2|2|2|2,3:3|0:3|0:3|0:3,0:3:0:0:
469,10,5517,6,0,P|397:4|358:5,1,97.9999970092774,0|0,3:0|0:0,0:0:0:0:
250,159,5862,2,0,P|322:165|361:164,1,97.9999970092774,0|4,3:0|0:3,0:0:0:0:
306,40,6206,2,0,P|309:70|310:97,1,48.9999985046387,0|0,3:0|0:0,0:0:0:0:
230,68,6379,2,0,P|227:38|226:11,1,48.9999985046387,0|0,3:0|0:0,0:0:0:0:
148,4,6551,2,2,P|107:17|0:37,1,146.999995513916,2|2,3:3|0:3,0:3:0:0:
4,36,6896,6,0,P|14:91|23:146,1,97.9999970092774,0|0,3:0|0:0,0:0:0:0:
176,137,7241,2,0,P|185:191|194:246,1,97.9999970092774,0|4,3:0|0:3,0:0:0:0:
263,267,7586,1,0,3:0:0:0:
193,369,7758,1,0,0:0:0:0:
193,369,7844,1,0,0:0:0:0:
193,369,7931,2,2,L|131:357,3,48.9999985046387,2|2|2|2,3:3|0:3|0:3|0:3,0:3:0:0:
109,376,8275,6,0,P|101:333|90:266,1,97.9999970092774,0|0,3:0|0:0,0:0:0:0:
157,181,8620,2,0,P|165:224|176:291,1,97.9999970092774,0|0,3:0|0:0,0:0:0:0:
298,313,8965,2,0,P|275:307|239:302,1,48.9999985046387,0|0,3:0|0:0,0:0:0:0:
244,220,9137,2,0,P|267:226|303:231,1,48.9999985046387,0|0,3:0|0:0,0:0:0:0:
359,183,9310,2,2,P|373:232|387:333,1,146.999995513916,2|2,3:3|0:3,0:3:0:0:
386,326,9655,5,0,3:0:0:0:
470,356,9827,2,0,P|475:316|475:291,1,48.9999985046387,4|0,0:3|0:0,0:0:0:0:
443,235,10000,1,0,3:0:0:0:
316,302,10172,2,0,P|321:262|321:237,1,48.9999985046387,4|0,0:3|0:0,0:0:0:0:
245,220,10344,2,0,P|242:269|235:318,1,97.9999970092774,0|0,3:0|0:0,0:0:0:0:
200,336,10603,1,0,0:0:0:0:
200,336,10689,2,2,L|147:343,3,48.9999985046387,2|2|2|2,3:3|0:3|0:3|0:3,0:3:0:0:
135,365,11034,5,0,3:0:0:0:
55,342,11206,1,0,0:0:0:0:
6,275,11378,1,0,3:0:0:0:
8,193,11551,1,4,0:3:0:0:
60,128,11724,5,0,3:0:0:0:
152,196,11896,1,0,3:0:0:0:
200,93,12068,2,0,P|243:92|282:88,1,70,0|2,3:0|0:3,0:0:0:0:
298,68,12327,1,2,0:3:0:0:
298,68,12413,5,0,3:0:0:0:
376,44,12585,1,0,0:0:0:0:
452,75,12757,1,0,3:0:0:0:
490,148,12930,1,4,0:3:0:0:
473,229,13103,2,0,P|416:227|377:230,1,70,0|0,3:0|0:0,0:0:0:0:
372,232,13362,1,0,0:0:0:0:
372,232,13448,2,2,P|370:276|371:314,1,70,2|2,3:3|0:3,0:3:0:0:
303,358,13793,5,0,3:0:0:0:
247,295,13965,1,0,0:0:0:0:
216,217,14137,1,0,3:0:0:0:
211,134,14310,1,4,0:3:0:0:
235,54,14482,5,0,3:0:0:0:
117,14,14655,1,0,0:0:0:0:
33,108,14827,2,2,P|46:159|50:184,1,70,2|2,0:3|0:3,0:3:0:0:
37,209,15086,1,2,0:3:0:0:
37,209,15172,5,0,3:0:0:0:
116,183,15344,1,4,0:3:0:0:
200,180,15516,1,0,3:0:0:0:
281,200,15689,1,4,0:3:0:0:
354,242,15862,2,0,P|353:286|357:323,1,70,0|0,3:0|0:0,0:0:0:0:
348,346,16120,1,0,0:0:0:0:
348,346,16206,2,2,P|389:348|426:356,1,70,2|2,3:3|0:3,0:3:0:0:
500,303,16551,5,0,3:0:0:0:
499,219,16723,1,0,0:0:0:0:
460,146,16895,1,0,3:0:0:0:
390,101,17068,1,4,0:3:0:0:
307,95,17240,5,0,3:0:0:0:
377,195,17413,1,0,3:0:0:0:
304,286,17586,2,2,P|268:294|230:301,1,70,2|2,3:3|0:3,0:3:0:0:
202,312,17844,1,2,0:3:0:0:
202,312,17931,5,0,3:0:0:0:
217,229,18103,1,0,0:0:0:0:
199,148,18275,1,0,3:0:0:0:
150,80,18448,1,4,0:3:0:0:
78,37,18620,2,0,P|74:81|74:123,1,70,0|0,3:0|0:0,0:0:0:0:
47,130,18879,1,0,0:0:0:0:
47,130,18965,2,2,P|53:175|58:205,1,70,2|2,3:3|0:3,0:3:0:0:
11,269,19310,5,0,3:0:0:0:
85,305,19482,1,0,0:0:0:0:
168,299,19654,1,0,3:0:0:0:
236,252,19827,1,4,0:3:0:0:
271,177,19999,5,0,3:0:0:0:
191,65,20172,1,0,3:0:0:0:
323,18,20344,2,2,P|337:62|344:97,1,70,2|2,3:3|0:3,0:3:0:0:
342,120,20603,1,2,0:3:0:0:
342,120,20689,5,0,3:0:0:0:
424,126,20861,1,4,0:3:0:0:
485,181,21033,1,0,3:0:0:0:
501,262,21206,1,4,0:3:0:0:
465,336,21379,2,0,P|416:332|376:330,1,70,0|0,3:0|0:0,0:0:0:0:
371,305,21637,1,0,0:0:0:0:
371,305,21724,2,2,P|326:307|283:317,1,70,2|2,3:3|0:3,0:3:0:0:
225,372,22068,6,0,P|226:314|224:253,1,97.9999970092774,0|0,3:0|0:0,0:0:0:0:
225,274,22327,1,0,0:0:0:0:
225,274,22413,1,0,3:0:0:0:
290,224,22586,1,4,0:3:0:0:
157,137,22758,1,0,3:0:0:0:
235,11,22931,1,0,3:0:0:0:
235,11,23017,1,0,0:0:0:0:
235,11,23103,2,0,P|246:71|243:164,1,146.999995513916,0|2,3:0|0:3,0:0:0:0:
244,156,23448,6,0,P|182:163|138:173,1,97.9999970092774,0|0,3:0|0:0,0:0:0:0:
105,248,23793,1,0,3:0:0:0:
0,183,23965,2,0,L|7:125,1,48.9999985046387,4|0,0:3|0:0,0:0:0:0:
58,26,24137,2,0,P|75:87|85:141,1,97.9999970092774,0|0,3:0|0:0,0:0:0:0:
124,146,24396,1,0,0:0:0:0:
124,146,24482,2,2,L|186:156,3,48.9999985046387,2|2|2|2,3:3|0:3|0:3|0:3,0:3:0:0:
208,119,24827,6,0,P|220:170|229:232,1,97.9999970092774,0|0,3:0|0:0,0:0:0:0:
361,176,25172,2,0,P|373:227|382:289,1,97.9999970092774,0|4,3:0|0:3,0:0:0:0:
462,135,25517,1,0,3:0:0:0:
397,19,25689,1,0,3:0:0:0:
316,107,25862,2,2,P|248:111|162:130,1,146.999995513916,2|2,3:3|0:3,0:3:0:0:
170,127,26206,6,0,P|174:180|174:243,1,97.9999970092774,0|4,3:0|0:3,0:0:0:0:
63,290,26551,2,0,P|59:237|59:174,1,97.9999970092774,0|4,3:0|0:3,0:0:0:0:
11,105,26896,1,0,3:0:0:0:
165,36,27068,1,0,0:0:0:0:
165,36,27155,1,0,0:0:0:0:
165,36,27241,2,2,L|224:50,3,48.9999985046387,2|2|2|2,3:3|0:3|0:3|0:3,0:3:0:0:
252,17,27586,6,0,P|263:76|268:134,1,97.9999970092774,0|0,3:0|0:0,0:0:0:0:
266,113,27844,1,0,0:0:0:0:
266,113,27931,1,0,3:0:0:0:
225,223,28103,1,4,0:3:0:0:
347,186,28275,2,0,P|316:191|272:205,1,48.9999985046387,0|0,3:0|0:0,0:0:0:0:
333,268,28448,2,0,P|302:273|258:287,1,48.9999985046387,0|0,3:0|0:0,0:0:0:0:
489,355,28620,2,2,P|491:296|462:200,1,146.999995513916,2|2,3:3|0:3,0:3:0:0:
474,216,28965,6,0,P|408:216|355:207,1,97.9999970092774,0|0,3:0|0:0,0:0:0:0:
384,347,29310,2,0,P|318:347|265:338,1,97.9999970092774,0|4,3:0|0:3,0:0:0:0:
245,271,29655,1,0,3:0:0:0:
177,382,29827,1,0,0:0:0:0:
177,382,29913,1,0,0:0:0:0:
177,382,30000,2,2,L|184:319,3,48.9999985046387,2|2|2|2,3:3|0:3|0:3|0:3,0:3:0:0:
137,313,30344,6,0,P|131:250|123:200,1,97.9999970092774,0|0,3:0|0:0,0:0:0:0:
125,215,30603,1,0,0:0:0:0:
125,215,30689,1,0,3:0:0:0:
139,91,30862,1,0,0:0:0:0:
41,148,31034,2,0,P|76:150|110:154,1,48.9999985046387,0|0,3:0|0:0,0:0:0:0:
187,157,31206,2,0,P|222:159|256:163,1,48.9999985046387,0|0,3:0|0:0,0:0:0:0:
199,32,31379,2,2,P|124:47|30:56,1,146.999995513916,2|2,3:3|0:3,0:3:0:0:
53,54,31724,6,0,P|63:117|65:162,1,97.9999970092774,0|4,3:0|0:3,0:0:0:0:
162,222,32068,2,0,P|158:173|151:124,1,97.9999970092774,0|4,3:0|0:3,0:0:0:0:
300,166,32413,1,0,3:0:0:0:
204,59,32586,1,0,0:0:0:0:
204,59,32672,1,0,0:0:0:0:
204,59,32758,2,2,L|262:43,3,48.9999985046387,2|2|2|2,3:3|0:3|0:3|0:3,0:3:0:0:
287,12,33103,6,0,P|286:70|288:131,1,97.9999970092774,0|0,3:0|0:0,0:0:0:0:
287,110,33362,1,0,0:0:0:0:
287,110,33448,1,0,3:0:0:0:
222,160,33621,1,4,0:3:0:0:
355,247,33793,1,0,3:0:0:0:
277,373,33966,1,0,3:0:0:0:
277,373,34052,1,0,0:0:0:0:
277,373,34138,2,0,P|266:313|269:220,1,146.999995513916,0|2,3:0|0:3,0:0:0:0:
267,227,34483,6,0,P|330:221|374:211,1,97.9999970092774,0|0,3:0|0:0,0:0:0:0:
407,136,34828,1,0,3:0:0:0:
512,201,35000,2,0,L|505:259,1,48.9999985046387,4|0,0:3|0:0,0:0:0:0:
454,358,35172,2,0,P|437:297|427:243,1,97.9999970092774,0|0,3:0|0:0,0:0:0:0:
388,238,35431,1,0,0:0:0:0:
388,238,35517,2,2,L|326:228,3,48.9999985046387,2|2|2|2,3:3|0:3|0:3|0:3,0:3:0:0:
304,265,35862,6,0,P|292:214|283:152,1,97.9999970092774,0|0,3:0|0:0,0:0:0:0:
151,208,36207,2,0,P|139:157|130:95,1,97.9999970092774,0|4,3:0|0:3,0:0:0:0:
50,249,36552,1,0,3:0:0:0:
115,365,36724,1,0,0:0:0:0:
196,277,36897,2,2,P|264:273|350:254,1,146.999995513916,2|2,0:3|0:3,0:3:0:0:
341,256,37241,6,0,P|338:204|338:141,1,97.9999970092774,0|4,3:0|0:3,0:0:0:0:
449,94,37586,2,0,P|452:146|452:209,1,97.9999970092774,0|4,3:0|0:3,0:0:0:0:
501,279,37931,1,0,3:0:0:0:
347,348,38103,1,0,0:0:0:0:
347,348,38190,1,0,0:0:0:0:
347,348,38276,2,2,L|288:334,3,48.9999985046387,2|2|2|2,3:3|0:3|0:3|0:3,0:3:0:0:
260,367,38621,6,0,P|249:308|244:250,1,97.9999970092774,0|0,3:0|0:0,0:0:0:0:
245,270,38879,1,0,0:0:0:0:
245,270,38966,1,0,3:0:0:0:
287,161,39138,1,4,0:3:0:0:
165,198,39310,2,0,P|196:193|240:179,1,48.9999985046387,0|0,3:0|0:0,0:0:0:0:
183,107,39483,2,0,P|214:102|258:88,1,48.9999985046387,0|0,3:0|0:0,0:0:0:0:
23,29,39655,2,2,P|21:88|50:184,1,146.999995513916,2|2,3:3|0:3,0:3:0:0:
44,172,40000,6,0,P|110:172|163:181,1,97.9999970092774,0|0,3:0|0:0,0:0:0:0:
128,37,40345,2,0,P|194:37|247:46,1,97.9999970092774,0|4,3:0|0:3,0:0:0:0:
267,113,40690,1,0,3:0:0:0:
335,2,40862,1,0,0:0:0:0:
335,2,40948,1,0,0:0:0:0:
335,2,41035,2,2,L|328:65,3,48.9999985046387,2|2|2|2,3:3|0:3|0:3|0:3,0:3:0:0:
375,71,41379,6,0,P|381:134|389:184,1,97.9999970092774,0|0,3:0|0:0,0:0:0:0:
386,168,41638,1,0,0:0:0:0:
386,168,41724,1,0,3:0:0:0:
373,293,41897,1,4,0:3:0:0:
489,245,42069,2,0,P|454:243|420:239,1,48.9999985046387,0|0,3:0|0:0,0:0:0:0:
321,225,42241,2,0,P|286:223|252:219,1,48.9999985046387,0|0,3:0|0:0,0:0:0:0:
243,344,42413,2,2,P|184:349|69:371,1,146.999995513916,2|2,3:3|0:3,0:3:0:0:
97,363,42758,5,0,3:0:0:0:
209,265,42931,1,0,3:0:0:0:
111,153,43103,1,0,3:0:0:0:
0,252,43276,1,0,3:0:0:0:
97,363,43448,5,0,3:0:0:0:
101,339,43534,1,0,3:0:0:0:
104,315,43620,1,0,3:0:0:0:
108,291,43706,1,0,3:0:0:0:
111,267,43793,2,2,L|149:262,6,24.4999992523194,2|2|2|2|2|2|2,0:3|0:3|0:3|0:3|0:3|0:3|0:3,0:3:0:0:
187,274,44137,5,0,3:0:0:0:
187,274,44310,2,0,P|179:228|169:177,1,97.9999970092774,4|8,0:0|0:0,0:0:0:0:
267,236,44655,1,4,0:3:0:0:
267,236,44828,2,0,P|259:190|249:139,1,97.9999970092774,4|0,3:2|3:0,0:0:0:0:
353,250,45172,1,8,0:0:0:0:
353,250,45345,2,2,P|345:204|335:153,1,97.9999970092774,4|0,0:2|3:0,0:3:0:0:
405,101,45689,5,0,0:0:0:0:
250,26,45862,2,0,P|303:32|370:40,1,97.9999970092774,8|4,0:0|0:3,0:0:0:0:
191,88,46206,1,0,3:0:0:0:
241,189,46379,1,0,0:0:0:0:
241,189,46465,1,0,0:0:0:0:
241,189,46551,2,2,L|253:137,3,48.9999985046387,8|2|2|2,0:0|0:3|0:3|0:3,0:3:0:0:
297,122,46896,6,0,P|316:185|325:230,1,97.9999970092774,0|0,3:0|0:0,0:0:0:0:
476,261,47241,2,0,P|465:213|450:166,1,97.9999970092774,8|4,0:0|0:3,0:0:0:0:
512,38,47586,1,0,3:0:0:0:
382,122,47758,1,0,3:0:0:0:
263,13,47931,2,2,P|208:27|104:43,1,146.999995513916,8|2,0:0|0:3,0:3:0:0:
118,41,48275,6,0,P|120:100|127:161,1,97.9999970092774,0|4,3:0|0:3,0:0:0:0:
79,155,48534,1,0,3:0:0:0:
79,155,48620,2,0,P|80:213|87:274,1,97.9999970092774,8|4,0:0|0:3,0:0:0:0:
53,292,48879,1,0,3:0:0:0:
53,292,48965,1,0,3:0:0:0:
159,368,49137,1,0,3:0:0:0:
159,368,49224,1,0,3:0:0:0:
159,368,49310,1,8,0:0:0:0:
214,260,49482,1,2,3:0:0:0:
281,312,49655,6,0,P|352:302|391:299,1,97.9999970092774,0|0,3:0|0:0,0:0:0:0:
378,299,49913,1,0,0:0:0:0:
378,299,50000,1,8,0:0:0:0:
460,357,50172,1,4,0:3:0:0:
504,193,50344,2,0,P|473:197|428:208,1,48.9999985046387,0|0,3:0|0:0,0:0:0:0:
512,270,50517,2,0,P|481:274|436:285,1,48.9999985046387,0|0,3:0|0:0,0:0:0:0:
346,232,50689,2,2,P|338:179|339:71,1,146.999995513916,8|2,0:0|0:3,0:3:0:0:
337,85,51034,6,0,P|266:92|227:100,1,97.9999970092774,0|0,3:0|0:0,0:0:0:0:
240,96,51293,1,0,0:0:0:0:
240,96,51379,1,8,0:0:0:0:
116,24,51551,1,4,0:3:0:0:
154,233,51724,2,0,P|151:177|155:125,1,97.9999970092774,0|0,3:0|0:0,0:0:0:0:
164,98,51982,1,0,0:0:0:0:
164,98,52068,2,2,L|103:113,3,48.9999985046387,8|2|2|2,0:0|0:3|0:3|0:3,0:3:0:0:
68,96,52413,6,0,P|65:144|68:193,1,97.9999970092774,0|0,3:0|0:0,0:0:0:0:
235,197,52758,2,0,P|232:245|235:294,1,97.9999970092774,8|0,0:0|0:0,0:0:0:0:
163,334,53103,1,0,3:0:0:0:
316,217,53275,1,0,3:0:0:0:
164,98,53448,2,2,P|155:160|154:265,1,146.999995513916,8|2,0:0|0:3,0:3:0:0:
152,244,53793,6,0,P|98:251|48:260,1,97.9999970092774,0|4,3:0|0:3,0:0:0:0:
240,136,54137,2,0,P|294:129|344:120,1,97.9999970092774,8|4,0:0|0:3,0:0:0:0:
177,78,54482,1,0,3:0:0:0:
238,223,54655,1,0,0:0:0:0:
238,223,54741,1,0,0:0:0:0:
238,223,54827,2,2,L|233:293,3,48.9999985046387,8|2|2|2,0:0|0:3|0:3|0:3,0:3:0:0:
274,301,55172,6,0,P|175:315|66:339,1,195.999994018555,0|8,3:0|0:0,0:0:0:0:
10,273,55689,1,0,0:3:0:0:
77,208,55862,1,0,3:0:0:0:
77,208,55948,1,0,0:0:0:0:
77,208,56034,1,0,3:0:0:0:
77,208,56120,1,0,0:0:0:0:
77,208,56206,2,0,L|93:270,3,48.9999985046387,8|0|2|2,0:0|0:0|0:3|0:3,0:0:0:0:
135,272,56551,6,0,P|137:184|149:64,1,195.999994018555,0|8,3:0|0:0,0:0:0:0:
195,12,57068,1,0,0:3:0:0:
260,72,57241,1,2,3:3:0:0:
283,66,57327,1,2,0:3:0:0:
308,66,57413,1,2,0:3:0:0:
331,72,57499,1,2,0:3:0:0:
353,84,57585,1,8,0:0:0:0:
371,100,57672,1,2,0:3:0:0:
385,121,57758,1,2,0:3:0:0:
393,143,57844,1,2,0:3:0:0:
396,168,57931,6,0,P|309:173|194:187,1,195.999994018555,0|8,3:0|0:0,0:0:0:0:
152,288,58448,1,0,0:3:0:0:
273,272,58620,1,0,3:0:0:0:
273,272,58706,1,0,0:0:0:0:
273,272,58793,1,0,3:0:0:0:
273,272,58879,1,0,0:0:0:0:
273,272,58965,2,2,L|280:211,3,48.9999985046387,8|2|2|2,0:0|0:3|0:3|0:3,0:3:0:0:
314,189,59310,6,0,P|219:173|110:158,1,195.999994018555,0|8,3:0|0:0,0:0:0:0:
79,87,59827,1,0,0:3:0:0:
6,170,60000,1,2,3:3:0:0:
2,194,60086,1,2,0:3:0:0:
6,218,60172,1,2,0:3:0:0:
16,240,60258,1,2,0:3:0:0:
32,259,60344,1,8,0:0:0:0:
52,272,60431,1,2,0:3:0:0:
75,279,60517,1,2,0:3:0:0:
100,280,60603,1,2,0:3:0:0:
123,273,60689,6,0,P|116:199|112:62,1,195.999994018555,0|8,3:0|0:0,0:0:0:0:
75,2,61206,1,0,0:3:0:0:
198,54,61379,1,0,3:0:0:0:
198,54,61465,1,0,0:0:0:0:
198,54,61551,1,0,3:0:0:0:
198,54,61637,1,0,0:0:0:0:
198,54,61724,2,2,L|193:119,3,48.9999985046387,8|2|2|2,0:0|0:3|0:3|0:3,0:3:0:0:
230,135,62068,6,0,P|315:126|440:122,1,195.999994018555,0|8,3:0|0:0,0:0:0:0:
485,74,62586,1,0,0:3:0:0:
496,205,62758,1,2,3:3:0:0:
472,199,62844,1,2,0:3:0:0:
447,199,62930,1,2,0:3:0:0:
424,204,63016,1,2,0:3:0:0:
402,215,63102,1,8,0:0:0:0:
383,231,63189,1,2,0:3:0:0:
369,251,63275,1,2,0:3:0:0:
359,274,63361,1,2,0:3:0:0:
356,298,63448,6,0,P|262:287|135:277,1,195.999994018555,0|8,3:0|0:0,0:0:0:0:
63,292,63965,1,0,0:0:0:0:
5,180,64137,1,0,3:0:0:0:
5,180,64224,1,0,0:0:0:0:
5,180,64310,1,0,3:0:0:0:
5,180,64396,1,0,0:0:0:0:
5,180,64482,2,2,L|17:250,3,48.9999985046387,8|2|2|2,0:0|0:3|0:3|0:3,0:3:0:0:
61,236,64827,6,0,P|145:218|263:197,1,195.999994018555,0|8,3:0|0:0,0:0:0:0:
395,258,65344,1,0,0:3:0:0:
312,263,65517,1,2,3:3:0:0:
295,230,65603,1,2,0:3:0:0:
285,194,65689,1,2,0:3:0:0:
283,158,65775,1,2,0:3:0:0:
289,122,65862,2,2,L|335:116,6,24.4999992523194,2|2|2|2|2|2|2,0:3|0:3|0:3|0:3|0:3|0:3|0:3,0:3:0:0:
344,115,66206,5,0,3:0:0:0:
287,43,66379,2,0,P|222:54|160:61,1,112,4|8,0:2|0:0,0:0:0:0:
309,206,66724,1,0,0:0:0:0:
252,134,66897,2,0,P|187:145|125:152,1,112,4|0,3:2|3:0,0:0:0:0:
274,297,67240,1,8,0:0:0:0:
217,225,67413,2,0,P|152:236|90:243,1,112,4|0,0:0|3:0,0:0:0:0:
18,360,67758,5,2,0:0:0:0:
16,173,67931,2,0,P|25:226|40:294,1,112,8|2,0:0|0:0,0:0:0:0:
162,370,68275,2,0,P|153:317|138:249,1,112,2|2,3:2|0:2,0:0:0:0:
120,225,68534,1,2,0:2:0:0:
120,225,68620,2,2,P|203:228|308:228,1,168,8|2,0:0|0:3,0:3:0:0:
288,228,68965,6,0,P|287:157|291:104,1,112,2|0,3:2|0:0,0:0:0:0:
289,116,69224,1,0,0:0:0:0:
290,116,69310,1,10,0:2:0:0:
239,3,69482,1,0,0:0:0:0:
363,77,69655,1,2,3:2:0:0:
206,151,69827,1,2,0:2:0:0:
184,67,70000,2,2,L|118:78,3,56,8|2|2|2,0:0|0:3|0:3|0:3,0:3:0:0:
89,54,70344,6,0,P|83:117|88:177,1,112,2|0,3:2|0:0,0:0:0:0:
221,249,70689,2,0,P|218:193|224:138,1,112,10|0,0:2|0:0,0:0:0:0:
224,138,70948,1,0,0:0:0:0:
224,138,71034,1,2,3:2:0:0:
371,222,71206,1,2,0:2:0:0:
371,222,71293,1,2,0:2:0:0:
371,222,71379,2,2,P|377:148|376:35,1,168,8|2,0:0|0:3,0:3:0:0:
378,54,71724,6,0,P|300:64|244:65,1,112,2|0,3:2|0:0,0:0:0:0:
138,32,72068,1,10,0:2:0:0:
232,144,72241,1,0,0:0:0:0:
47,225,72413,2,0,P|54:160|59:97,1,112,0|2,3:0|0:0,0:0:0:0:
45,70,72672,1,2,0:0:0:0:
45,70,72758,2,0,P|131:67|224:79,1,168,8|2,0:0|0:3,0:0:0:0:
212,77,73103,6,0,P|218:140|225:187,1,112,0|2,3:0|0:0,0:0:0:0:
114,234,73448,2,0,P|120:297|127:344,1,112,8|2,0:0|0:0,0:0:0:0:
127,345,73706,1,0,0:0:0:0:
127,345,73793,1,2,3:2:0:0:
307,306,73965,1,0,0:0:0:0:
307,306,74051,1,0,0:0:0:0:
307,306,74137,2,2,L|302:368,3,56,8|2|2|2,0:0|0:3|0:3|0:3,0:3:0:0:
344,377,74482,6,0,P|412:368|468:366,1,112,2|0,3:2|0:0,0:0:0:0:
395,211,74827,2,0,P|327:220|271:222,1,112,10|0,0:2|0:0,0:0:0:0:
450,282,75172,1,2,3:2:0:0:
470,117,75344,1,2,0:2:0:0:
307,138,75517,2,2,P|230:151|129:151,1,168,10|2,0:0|0:3,0:3:0:0:
140,151,75862,6,0,P|151:217|157:276,1,112,0|2,3:0|0:0,0:0:0:0:
238,305,76206,1,8,0:0:0:0:
100,371,76379,1,2,0:0:0:0:
12,221,76551,2,0,P|23:287|29:346,1,112,0|0,3:0|0:0,0:0:0:0:
83,173,76896,6,0,P|87:199|90:234,1,56,0|0,3:0|3:0,0:0:0:0:
94,169,77068,2,0,P|98:195|101:230,1,56,0|0,3:0|3:0,0:0:0:0:
168,269,77241,5,0,3:0:0:0:
225,341,77414,2,0,P|290:330|352:323,1,112,4|8,0:2|0:0,0:0:0:0:
203,178,77759,1,0,0:0:0:0:
260,250,77932,2,0,P|325:239|387:232,1,112,4|0,3:2|3:0,0:0:0:0:
238,87,78275,1,8,0:0:0:0:
295,159,78448,2,0,P|360:148|422:141,1,112,4|0,0:0|3:0,0:0:0:0:
494,24,78793,5,2,0:0:0:0:
496,211,78966,2,0,P|487:158|472:90,1,112,8|2,0:0|0:0,0:0:0:0:
350,14,79310,2,0,P|359:67|374:135,1,112,2|2,3:2|0:2,0:0:0:0:
392,159,79569,1,2,0:2:0:0:
392,159,79655,2,2,P|309:156|204:156,1,168,8|2,0:0|0:3,0:3:0:0:
224,156,80000,6,0,P|225:227|221:280,1,112,2|0,3:2|0:0,0:0:0:0:
223,268,80259,1,0,0:0:0:0:
222,268,80345,1,10,0:2:0:0:
273,381,80517,1,0,0:0:0:0:
149,307,80690,1,2,3:2:0:0:
306,233,80862,1,2,0:2:0:0:
328,317,81035,2,2,L|394:306,3,56,8|2|2|2,0:0|0:3|0:3|0:3,0:3:0:0:
423,330,81379,6,0,P|429:267|424:207,1,112,2|0,3:2|0:0,0:0:0:0:
291,135,81724,2,0,P|294:191|288:246,1,112,10|0,0:2|0:0,0:0:0:0:
288,246,81983,1,0,0:0:0:0:
288,246,82069,1,2,3:2:0:0:
141,162,82241,1,2,0:2:0:0:
141,162,82328,1,2,0:2:0:0:
141,162,82414,2,2,P|135:236|136:349,1,168,8|2,0:0|0:3,0:3:0:0:
134,330,82759,6,0,P|212:320|268:319,1,112,2|0,3:2|0:0,0:0:0:0:
374,352,83103,1,10,0:2:0:0:
280,240,83276,1,0,0:0:0:0:
465,159,83448,2,0,P|458:224|453:287,1,112,0|2,3:0|0:0,0:0:0:0:
467,314,83707,1,2,0:0:0:0:
467,314,83793,2,0,P|381:317|288:305,1,168,8|2,0:0|0:3,0:0:0:0:
300,307,84138,6,0,P|294:244|287:197,1,112,0|2,3:0|0:0,0:0:0:0:
398,150,84483,2,0,P|392:87|385:40,1,112,8|2,0:0|0:0,0:0:0:0:
385,39,84741,1,0,0:0:0:0:
385,39,84828,1,2,3:2:0:0:
205,78,85000,1,0,0:0:0:0:
205,78,85086,1,0,0:0:0:0:
205,78,85172,2,2,L|210:16,3,56,8|2|2|2,0:0|0:3|0:3|0:3,0:3:0:0:
168,7,85517,6,0,P|100:16|44:18,1,112,2|0,3:2|0:0,0:0:0:0:
117,173,85862,2,0,P|185:164|241:162,1,112,10|0,0:2|0:0,0:0:0:0:
62,102,86207,1,2,3:2:0:0:
42,267,86379,1,2,0:2:0:0:
205,246,86552,2,2,P|282:233|383:233,1,168,10|2,0:0|0:3,0:3:0:0:
372,233,86897,6,0,P|361:167|355:108,1,112,0|2,3:0|0:0,0:0:0:0:
274,79,87241,1,8,0:0:0:0:
412,13,87414,1,2,0:0:0:0:
500,163,87586,2,0,P|489:97|483:38,1,112,0|0,3:0|0:0,0:0:0:0:
322,18,87931,1,10,0:0:0:0:
297,30,88017,1,2,0:3:0:0:
270,38,88103,1,2,0:3:0:0:
242,40,88189,1,2,0:3:0:0:
214,37,88275,1,2,0:3:0:0:
256,192,88362,12,0,89310,0:0:0:0:
247,168,89655,6,0,P|242:204|241:228,1,35,2|2,3:2|0:2,0:0:0:0:
260,181,89827,2,0,P|255:217|254:241,1,35,2|2,0:2|0:2,0:0:0:0:
