osu file format v14

[General]
AudioFilename: audio.mp3
AudioLeadIn: 0
PreviewTime: 23271
Countdown: 0
SampleSet: Soft
StackLeniency: 0.4
Mode: 0
LetterboxInBreaks: 0
WidescreenStoryboard: 1

[Editor]
Bookmarks: 2021,7355,12688,18021,23355,44688,66021,70021
DistanceSpacing: 1
BeatDivisor: 4
GridSize: 16
TimelineZoom: 2.3

[Metadata]
Title:Dice
TitleUnicode:Dice
Artist:WangleLine
ArtistUnicode:WangleLine
Creator:hehe
Version:Normal
Source:
Tags:electronic instrumental dubstep machinist's dream
BeatmapID:4173702
BeatmapSetID:2005921

[Difficulty]
HPDrainRate:2
CircleSize:3.5
OverallDifficulty:4
ApproachRate:5
SliderMultiplier:1
SliderTickRate:1

[Events]
//Background and Video events
0,0,"gamble.jpg",0,0
//Break Periods
//Storyboard Layer 0 (Background)
//Storyboard Layer 1 (Fail)
//Storyboard Layer 2 (Pass)
//Storyboard Layer 3 (Foreground)
//Storyboard Layer 4 (Overlay)
//Storyboard Sound Samples

[TimingPoints]
2022,333.333333333333,4,2,1,40,1,0
2022,-100,4,2,1,40,0,0
7355,-100,4,2,1,45,0,0
12688,-100,4,2,1,50,0,0
20688,-100,4,2,1,70,0,0
22688,-100,4,2,2,70,0,0
23355,-100,4,2,2,70,0,0
44688,-100,4,2,2,70,0,1
66021,-100,4,2,2,70,0,0
69855,-100,4,2,2,10,0,0

[Colours]
Combo1 : 50,209,122
Combo2 : 221,119,119

[HitObjects]
261,267,2021,6,0,L|418:240,2,150,4|4|8,3:2|3:2|3:2,0:2:0:0:
168,306,3355,2,0,L|142:202,1,100,0|8,3:2|3:2,0:2:0:0:
51,169,4021,1,0,0:2:0:0:
91,77,4355,2,0,L|148:85,1,50,8|0,3:2|3:2,0:0:0:0:
171,44,4688,6,0,L|276:27,1,100,0|8,3:2|3:2,0:2:0:0:
351,85,5355,1,0,3:2:0:0:
419,12,5688,2,0,L|443:69,1,50,8|0,3:2|3:2,0:2:0:0:
488,59,6021,2,0,L|478:167,1,100,0|8,3:2|3:2,0:0:0:0:
380,177,6688,1,0,3:2:0:0:
338,204,6855,1,0,3:2:0:0:
335,253,7021,2,0,L|349:307,1,50,8|0,3:2|3:2,0:0:0:0:
323,345,7355,6,0,L|156:323,2,150,4|4|8,3:2|3:2|3:2,0:2:0:0:
417,378,8688,2,0,L|461:273,1,100,0|8,3:2|3:2,0:2:0:0:
488,191,9355,1,0,3:2:0:0:
405,135,9688,2,0,L|391:72,1,50,8|0,3:2|3:2,0:0:0:0:
415,40,10021,6,0,P|354:28|300:38,1,100,2|10,3:2|0:2,0:2:0:0:
219,8,10688,2,0,P|207:69|217:123,1,100,2|10,3:2|0:2,0:2:0:0:
182,201,11355,2,0,P|243:213|297:203,1,100,2|10,3:2|3:2,0:2:0:0:
378,233,12022,2,0,P|390:172|380:118,1,100,2|10,3:2|3:2,0:0:0:0:
422,101,12521,1,0,3:2:0:0:
402,54,12688,6,0,P|345:68|297:66,1,100,2|10,3:2|3:2,0:2:0:0:
219,12,13355,1,2,3:2:0:0:
148,83,13688,1,10,3:2:0:0:
67,23,14021,2,0,P|50:74|56:128,1,100,2|10,3:2|3:2,0:2:0:0:
8,209,14688,1,2,3:2:0:0:
89,266,15021,1,10,3:2:0:0:
65,363,15355,6,0,P|115:350|185:355,1,100,2|10,3:2|3:2,0:2:0:0:
261,368,16021,2,0,P|248:318|253:248,1,100,2|10,3:2|3:2,0:2:0:0:
268,171,16688,2,0,P|218:184|148:179,1,100,2|10,3:2|3:2,0:2:0:0:
72,166,17354,2,0,P|85:216|80:286,1,100,2|10,3:2|3:2,0:0:0:0:
44,295,17855,1,0,3:2:0:0:
58,342,18021,1,6,3:2:0:0:
256,192,18105,12,8,22688,0:2:0:0:
236,33,23355,6,0,L|256:149,1,100,2|2,3:2|3:2,0:0:0:0:
334,189,24021,1,10,3:2:0:0:
271,267,24355,6,0,P|226:254|156:264,2,100,6|2|2,3:2|0:2|0:2,0:2:0:0:
279,316,25188,1,0,3:2:0:0:
324,337,25355,1,10,0:2:0:0:
389,261,25688,1,2,0:2:0:0:
485,285,26021,2,0,P|491:235|472:167,1,100,2|2,3:2|0:2,0:2:0:0:
510,91,26688,1,10,0:2:0:0:
436,23,27021,2,0,L|370:35,1,50,2|0,3:2|0:2,0:2:0:0:
344,5,27355,6,0,P|336:54|349:120,1,100,2|2,0:2|0:2,0:0:0:0:
308,139,27855,1,0,3:2:0:0:
313,188,28021,2,2,L|205:212,1,100,8|0,0:2|0:0,0:1:0:0:
119,238,28688,2,0,L|132:131,1,100,2|2,3:2|3:2,0:0:0:0:
80,51,29355,1,10,0:2:0:0:
172,12,29688,6,0,P|218:-1|284:16,2,100,6|2|2,3:2|0:2|0:2,0:2:0:0:
147,55,30521,1,0,3:2:0:0:
186,85,30688,1,10,0:2:0:0:
112,152,31021,1,2,0:2:0:0:
189,215,31355,2,0,P|199:258|190:325,1,100,2|2,3:2|0:2,0:2:0:0:
107,363,32021,2,0,P|97:320|106:253,1,100,10|2,0:0|3:2,0:0:0:0:
44,183,32688,5,2,3:2:0:0:
106,104,33021,1,2,0:2:0:0:
196,147,33355,2,0,L|299:129,1,100,10|0,0:2|3:2,0:2:0:0:
374,70,34021,2,0,L|481:86,1,100,2|2,3:2|3:2,0:0:0:0:
509,178,34688,1,10,0:2:0:0:
434,244,35021,6,0,L|422:352,1,100,6|2,3:2|0:2,0:2:0:0:
375,328,35521,1,0,0:2:0:0:
339,363,35688,1,2,0:2:0:0:
245,326,36021,2,0,L|223:212,1,100,10|0,0:2|0:2,0:0:0:0:
300,160,36688,2,0,L|309:98,1,50,2|0,3:2|0:2,0:0:0:0:
259,94,37021,2,0,L|250:32,1,50,2|0,0:2|0:2,0:0:0:0:
286,8,37355,2,0,L|180:26,1,100,10|2,0:2|3:2,0:0:0:0:
88,12,38021,6,0,P|72:60|89:126,1,100,2|2,0:2|0:2,0:0:0:0:
42,141,38521,1,0,3:2:0:0:
63,186,38688,2,2,L|162:209,1,100,8|0,0:2|0:0,0:1:0:0:
227,134,39355,2,0,L|340:122,1,100,2|2,3:2|0:2,0:0:0:0:
425,112,40021,1,10,0:2:0:0:
494,183,40355,6,0,L|479:306,1,100,6|2,3:2|0:2,0:2:0:0:
439,308,40855,1,0,0:2:0:0:
401,274,41021,1,2,0:2:0:0:
320,333,41355,2,0,L|211:361,1,100,10|2,0:2|0:2,0:0:0:0:
182,266,42021,2,0,L|117:277,1,50,2|0,3:2|0:2,0:2:0:0:
100,313,42355,2,0,L|39:303,1,50,2|0,0:2|0:2,0:0:0:0:
32,258,42688,2,0,L|17:142,1,100,10|2,0:2|3:2,0:0:0:0:
5,59,43355,6,0,P|58:62|106:40,1,100,2|2,0:2|0:2,0:0:0:0:
144,67,43855,1,0,3:2:0:0:
186,41,44021,2,0,B|177:101|177:101|187:122|187:122|176:203,1,150,8|2,0:2|0:1,0:2:0:0:
128,186,44688,2,0,L|142:289,2,100,6|2|2,3:2|0:2|3:2,0:0:0:0:
48,125,45688,5,4,3:2:0:0:
19,83,45855,1,0,0:2:0:0:
46,41,46021,2,0,L|148:24,1,100,0|0,0:2|0:2,1:2:0:0:
220,90,46688,1,8,0:2:0:0:
301,31,47021,1,0,0:2:0:0:
339,63,47188,1,0,0:2:0:0:
386,47,47355,2,0,L|371:155,1,100,0|0,3:2|0:2,1:2:0:0:
413,237,48021,1,8,0:2:0:0:
506,272,48355,1,0,3:2:0:0:
509,321,48521,1,0,0:2:0:0:
468,350,48688,2,0,L|362:329,1,100,0|0,0:2|0:2,1:2:0:0:
275,363,49355,6,0,P|248:311|256:248,1,100,8|0,0:2|0:2,0:0:0:0:
289,242,49855,1,0,0:2:0:0:
320,203,50021,2,0,L|307:88,1,100,2|2,3:2|3:2,0:0:0:0:
295,4,50688,1,10,3:2:0:0:
213,62,51021,6,0,B|98:86|98:86|82:120,1,150,4|0,1:2|1:2,0:0:0:0:
0,171,51855,1,0,3:2:0:0:
32,208,52021,2,0,L|44:312,1,100,8|0,1:2|3:2,0:0:0:0:
121,370,52688,2,0,B|153:342|153:342|170:222,1,150,0|0,3:2|0:2,0:0:0:0:
216,224,53355,1,8,3:2:0:0:
194,126,53688,1,0,3:2:0:0:
94,116,54021,6,0,P|103:73|161:33,1,100,2|2,1:1|3:1,0:0:0:0:
181,4,54521,1,0,0:2:0:0:
221,34,54688,2,0,L|332:13,1,100,8|2,3:2|3:1,0:0:0:0:
404,68,55355,2,0,L|382:175,1,100,2|2,3:2|0:2,0:2:0:0:
364,263,56021,1,10,0:2:0:0:
464,259,56355,5,4,3:2:0:0:
493,301,56522,1,0,0:2:0:0:
466,343,56688,2,0,L|364:360,1,100,0|0,0:2|0:2,1:2:0:0:
292,294,57355,1,8,0:2:0:0:
211,353,57688,1,0,0:2:0:0:
173,321,57855,1,0,0:2:0:0:
126,337,58022,2,0,L|141:229,1,100,0|0,3:2|0:2,1:2:0:0:
99,147,58688,1,8,0:2:0:0:
6,112,59022,1,0,3:2:0:0:
3,63,59188,1,0,0:2:0:0:
44,34,59355,2,0,L|150:55,1,100,0|0,0:2|0:2,1:2:0:0:
237,21,60022,6,0,P|264:73|256:136,1,100,8|0,0:2|0:2,0:0:0:0:
223,142,60522,1,0,0:2:0:0:
192,181,60688,2,0,L|205:296,1,100,0|0,3:2|3:2,0:0:0:0:
217,380,61355,1,10,3:2:0:0:
299,322,61688,6,0,B|414:298|414:298|430:264,1,150,4|0,1:2|1:2,0:0:0:0:
510,210,62522,1,0,3:2:0:0:
493,164,62688,2,0,L|381:142,1,100,8|0,1:2|3:2,0:0:0:0:
317,208,63355,2,0,B|285:180|285:180|268:60,1,150,0|0,3:2|3:2,0:0:0:0:
264,24,64022,1,8,3:2:0:0:
179,76,64355,1,0,3:2:0:0:
91,30,64688,6,0,P|73:77|26:116,1,100,2|0,1:1|3:2,0:0:0:0:
64,153,65188,1,0,3:2:0:0:
29,188,65355,2,0,L|53:300,2,100,2|2|6,3:1|3:1|3:1,0:0:0:0:
256,192,66105,12,0,70021,0:2:0:0:
