osu file format v14

[General]
AudioFilename: audio.mp3
AudioLeadIn: 0
PreviewTime: 23271
Countdown: 0
SampleSet: Soft
StackLeniency: 0.7
Mode: 0
LetterboxInBreaks: 0
WidescreenStoryboard: 0

[Editor]
Bookmarks: 2021,7355,12688,18021,23355,44688,66021,70021
DistanceSpacing: 0.1
BeatDivisor: 8
GridSize: 32
TimelineZoom: 2.3

[Metadata]
Title:Dice
TitleUnicode:Dice
Artist:WangleLine
ArtistUnicode:WangleLine
Creator:hehe
Version:Highroll
Source:
Tags:electronic instrumental dubstep machinist's dream
BeatmapID:4172054
BeatmapSetID:2005921

[Difficulty]
HPDrainRate:6
CircleSize:4
OverallDifficulty:9
ApproachRate:9.4
SliderMultiplier:1.4
SliderTickRate:1

[Events]
//Background and Video events
0,0,"gamble.jpg",0,0
//Break Periods
//Storyboard Layer 0 (Background)
//Storyboard Layer 1 (Fail)
//Storyboard Layer 2 (Pass)
//Storyboard Layer 3 (Foreground)
//Storyboard Layer 4 (Overlay)
//Storyboard Sound Samples

[TimingPoints]
2022,333.333333333333,4,2,1,40,1,0
7355,-90.9090909090909,4,2,1,45,0,0
12688,-83.3333333333333,4,2,1,50,0,0
18021,-71.4285714285714,4,2,1,55,0,0
20688,-71.4285714285714,4,2,1,70,0,0
22688,-1000,4,2,2,70,0,0
23355,-50,4,2,2,70,0,0
28021,-100,4,2,2,70,0,0
29688,-50,4,2,2,70,0,0
34355,-100,4,2,2,70,0,0
35021,-41.6666666666667,4,2,2,70,0,0
38688,-100,4,2,2,70,0,0
40355,-41.6666666666667,4,2,2,70,0,0
43355,-100,4,2,2,70,0,0
44688,-25,4,2,2,70,0,1
49355,-66.6666666666667,4,2,2,70,0,1
51021,-125,4,2,2,70,0,1
54021,-33.3333333333333,4,2,2,70,0,1
54688,-66.6666666666667,4,2,2,70,0,1
56355,-20,4,2,2,70,0,1
60021,-66.6666666666667,4,2,2,70,0,1
61688,-125,4,2,2,70,0,1
64688,-25,4,2,2,70,0,1
66021,-100,4,2,2,70,0,0
69855,-100,4,2,2,10,0,0

[Colours]
Combo1 : 50,209,122
Combo2 : 221,119,119

[HitObjects]
198,337,2022,6,0,L|174:197,1,140,4|8,3:2|0:2,0:2:0:0:
366,92,2521,2,0,L|343:247,1,140,4|0,3:2|3:2,0:2:0:0:
242,160,3021,2,0,L|294:141,2,35,8|0|0,3:2|3:2|3:2,0:2:0:0:
181,103,3355,6,0,L|101:88,1,70,0|0,3:2|0:2,0:2:0:0:
15,269,3688,1,8,3:2:0:0:
72,220,3855,1,0,3:2:0:0:
5,138,4021,2,0,L|14:180,2,35,0|0|0,0:2|0:2|3:2,0:2:0:0:
143,253,4355,1,8,3:2:0:0:
140,270,4438,1,0,3:2:0:0:
137,287,4521,1,0,3:2:0:0:
134,304,4604,1,0,3:2:0:0:
131,321,4688,6,0,L|53:346,1,70,0|0,3:2|3:2,0:2:0:0:
250,374,5021,1,8,3:2:0:0:
331,267,5188,1,0,3:2:0:0:
328,353,5355,1,0,3:2:0:0:
214,243,5521,1,0,3:2:0:0:
396,176,5688,2,0,L|382:228,2,35,8|0|0,3:2|3:2|3:2,0:2:0:0:
449,294,6021,5,0,3:2:0:0:
446,277,6104,1,0,3:2:0:0:
442,260,6187,1,0,3:2:0:0:
500,140,6355,1,8,3:2:0:0:
433,110,6521,1,0,3:2:0:0:
362,16,6688,1,0,3:2:0:0:
358,33,6771,1,0,3:2:0:0:
354,50,6854,1,0,3:2:0:0:
186,74,7021,1,8,3:2:0:0:
193,108,7104,1,0,3:2:0:0:
199,143,7187,1,0,3:2:0:0:
422,146,7355,6,0,L|262:107,1,154.000004699707,4|8,3:2|3:2,0:2:0:0:
38,256,7855,2,0,L|194:219,1,154.000004699707,4|0,3:2|0:2,0:2:0:0:
13,154,8355,2,0,L|-5:203,2,38.5000011749268,8|0|0,3:2|3:2|3:2,0:2:0:0:
179,96,8688,6,0,L|161:21,1,77.0000023498536,0|0,3:2|0:2,0:2:0:0:
338,119,9021,1,8,3:2:0:0:
313,188,9188,1,0,3:2:0:0:
471,279,9355,2,0,L|480:322,2,38.5000011749268,0|0|0,3:2|3:2|3:2,0:2:0:0:
308,367,9688,1,8,3:2:0:0:
289,363,9771,1,0,3:2:0:0:
270,360,9854,1,0,3:2:0:0:
251,356,9938,1,0,3:2:0:0:
232,352,10021,6,0,P|228:315|234:258,1,77.0000023498536,2|0,3:2|0:2,0:2:0:0:
305,213,10355,2,0,P|309:250|303:307,1,77.0000023498536,10|0,0:2|0:2,0:2:0:0:
166,235,10688,2,0,P|162:198|168:141,1,77.0000023498536,2|0,3:2|0:2,0:2:0:0:
374,96,11021,2,0,P|378:133|372:190,1,77.0000023498536,10|0,0:2|0:2,0:2:0:0:
253,9,11355,6,0,P|241:65|255:161,1,154.000004699707,2|10,3:2|3:2,0:2:0:0:
336,258,11855,1,0,3:2:0:0:
163,308,12021,1,2,3:2:0:0:
157,270,12104,1,0,3:2:0:0:
168,234,12187,1,0,3:2:0:0:
406,296,12355,1,10,3:2:0:0:
412,333,12438,1,0,3:2:0:0:
400,370,12521,1,0,3:2:0:0:
240,274,12688,6,0,P|292:262|338:260,1,83.9999974365235,2|0,3:2|0:2,0:2:0:0:
168,233,13021,2,0,P|116:245|70:247,1,83.9999974365235,10|0,3:2|0:2,0:2:0:0:
194,341,13355,2,0,P|142:353|96:355,1,83.9999974365235,2|0,3:2|0:2,0:2:0:0:
212,163,13688,2,0,P|264:151|310:149,1,83.9999974365235,10|0,3:2|0:2,0:2:0:0:
27,191,14021,6,0,P|15:135|27:21,1,167.999994873047,2|10,3:2|3:2,0:2:0:0:
101,67,14521,1,0,3:2:0:0:
170,5,14688,2,0,P|173:28|169:56,1,41.9999987182618,2|0,3:2|3:2,0:2:0:0:
237,126,14855,2,0,P|234:103|238:75,1,41.9999987182618,0|0,3:2|3:2,0:2:0:0:
302,50,15021,1,10,3:2:0:0:
331,61,15105,1,0,3:2:0:0:
362,65,15188,1,0,3:2:0:0:
394,61,15271,1,0,3:2:0:0:
422,48,15355,6,0,P|427:102|419:143,1,83.9999974365235,2|0,3:2|0:2,0:2:0:0:
351,243,15688,2,0,P|346:189|354:148,1,83.9999974365235,10|0,3:2|0:2,0:2:0:0:
487,173,16021,2,0,P|492:227|484:268,1,83.9999974365235,2|0,3:2|0:2,0:2:0:0:
286,118,16355,2,0,P|281:64|289:23,1,83.9999974365235,10|0,3:2|0:2,0:2:0:0:
303,282,16688,6,0,P|244:273|126:290,1,167.999994873047,2|10,3:2|3:2,0:2:0:0:
116,361,17188,1,0,3:2:0:0:
11,279,17355,1,2,3:2:0:0:
34,245,17438,1,0,3:2:0:0:
74,237,17521,1,0,3:2:0:0:
127,76,17688,1,10,3:2:0:0:
150,109,17771,1,0,3:2:0:0:
190,117,17854,1,0,3:2:0:0:
60,162,18021,6,0,P|47:98|61:45,1,97.9999970092774,6|0,3:2|0:2,0:2:0:0:
260,9,18355,2,0,P|273:73|259:126,1,97.9999970092774,10|0,3:2|0:2,0:2:0:0:
143,282,18688,2,0,P|130:218|144:165,1,97.9999970092774,2|0,3:2|0:2,0:2:0:0:
343,129,19022,2,0,P|356:193|342:246,1,97.9999970092774,10|0,3:2|0:2,0:2:0:0:
246,373,19355,6,0,P|226:283|245:163,1,195.999994018555,2|10,3:2|3:2,0:2:0:0:
286,14,19855,1,0,0:2:0:0:
286,14,19938,2,0,L|300:90,1,48.9999985046387,0|2,3:2|0:2,0:2:0:0:
225,90,20105,5,0,3:2:0:0:
221,107,20188,1,0,3:2:0:0:
311,161,20355,1,10,3:2:0:0:
315,178,20438,1,0,3:2:0:0:
21,256,20688,6,0,P|69:248|118:251,1,97.9999970092774,2|0,3:2|3:2,0:2:0:0:
225,298,21021,1,10,3:2:0:0:
223,283,21105,1,0,3:2:0:0:
391,202,21271,1,0,3:2:0:0:
393,187,21355,1,2,3:2:0:0:
279,175,21521,6,0,L|270:234,1,48.9999985046387,0|0,3:2|0:2,0:2:0:0:
133,143,21688,1,10,3:2:0:0:
119,101,21771,1,0,3:2:0:0:
475,17,22021,6,0,P|469:76|486:153,1,97.9999970092774,2|0,3:2|3:2,0:2:0:0:
347,65,22355,1,10,3:2:0:0:
199,198,22521,1,0,3:2:0:0:
16,24,22688,6,0,L|40:17,1,24.5,8|0,0:2|0:2,0:2:0:0:
49,14,23355,5,2,3:2:0:0:
90,145,23521,1,0,3:2:0:0:
221,104,23688,1,2,3:2:0:0:
105,69,23855,5,0,3:2:0:0:
146,200,24021,1,10,3:2:0:0:
277,159,24188,1,0,3:2:0:0:
225,357,24355,6,0,P|219:315|230:196,1,140,6|0,3:2|0:2,0:2:0:0:
330,293,24688,1,2,0:2:0:0:
468,165,24855,1,0,0:2:0:0:
482,340,25021,1,2,0:2:0:0:
294,220,25188,2,0,P|296:182|286:127,1,70,0|0,3:2|0:2,0:2:0:0:
231,265,25355,6,0,P|230:291|236:328,1,35,10|0,0:2|0:2,0:2:0:0:
167,221,25521,1,0,0:2:0:0:
10,321,25688,1,2,0:2:0:0:
161,144,25855,1,0,0:2:0:0:
375,257,26021,6,0,P|378:210|374:168,1,70,2|0,3:2|0:2,0:2:0:0:
311,298,26188,2,0,P|308:345|312:387,1,70,0|0,3:2|0:2,0:2:0:0:
249,252,26355,1,2,0:2:0:0:
429,127,26521,1,0,0:2:0:0:
274,72,26688,6,0,P|271:55|275:11,1,35,10|0,0:2|0:2,0:2:0:0:
345,48,26855,1,0,0:2:0:0:
180,166,27021,2,0,P|178:201|181:236,1,70,2|0,3:2|0:2,0:2:0:0:
115,124,27188,1,0,0:2:0:0:
21,232,27355,5,2,0:2:0:0:
191,312,27521,1,0,0:2:0:0:
369,120,27688,1,2,0:2:0:0:
505,251,27855,2,0,P|502:287|508:332,1,70,0|0,3:2|0:2,0:2:0:0:
447,201,28021,6,2,B|390:214|334:193|334:193|341:191|341:191|275:172|215:195,1,245,8|0,0:2|0:2,0:1:0:0:
219,194,28688,5,2,3:2:0:0:
260,63,28854,1,0,3:2:0:0:
391,104,29021,1,2,3:2:0:0:
275,139,29188,5,0,3:2:0:0:
316,8,29354,1,10,0:2:0:0:
447,49,29521,1,0,3:2:0:0:
203,110,29688,6,0,P|137:104|57:111,1,140,6|0,3:2|0:2,0:2:0:0:
157,24,30021,1,2,0:2:0:0:
266,158,30188,1,0,0:2:0:0:
77,227,30355,1,2,0:2:0:0:
222,337,30521,2,0,P|273:330|322:333,1,70,0|0,3:2|0:2,0:2:0:0:
171,276,30688,6,0,P|149:277|123:274,1,35,10|0,0:2|0:2,0:2:0:0:
222,218,30855,1,0,0:2:0:0:
105,119,31021,1,2,0:2:0:0:
288,13,31188,1,0,0:2:0:0:
368,160,31355,6,0,P|328:157|276:166,1,70,2|0,3:2|0:2,0:2:0:0:
419,101,31521,2,0,P|459:104|511:95,1,70,0|0,3:2|0:2,0:2:0:0:
367,43,31688,1,2,0:2:0:0:
227,135,31855,1,0,0:2:0:0:
343,234,32021,6,0,P|320:237|301:236,1,35,10|0,0:0|0:0,0:0:0:0:
270,302,32188,1,0,0:2:0:0:
440,384,32355,2,0,P|493:374|535:378,1,70,2|0,3:2|0:2,0:2:0:0:
388,323,32521,1,0,0:2:0:0:
476,144,32688,6,0,L|488:212,1,70,2|0,3:2|0:2,0:2:0:0:
334,267,32855,2,2,L|344:228,2,35,2|2|2,0:1|0:1|0:1,0:1:0:0:
409,192,33021,5,2,0:2:0:0:
141,80,33188,1,0,0:2:0:0:
231,18,33355,6,0,L|216:93,1,70,10|0,0:2|0:2,0:2:0:0:
106,181,33521,2,2,L|94:130,2,35,2|2|2,0:1|0:1|0:1,0:1:0:0:
227,97,33688,5,0,3:2:0:0:
256,192,33799,5,0,3:2:0:0:
284,287,33910,5,0,3:2:0:0:
277,300,34021,5,2,3:2:0:0:
411,332,34188,1,0,3:2:0:0:
443,198,34355,1,2,3:2:0:0:
438,210,34438,2,0,L|381:220,1,35,0|0,3:2|3:2,0:2:0:0:
352,158,34605,5,0,3:2:0:0:
347,146,34688,2,0,L|288:133,1,35,10|0,0:2|0:2,0:2:0:0:
239,173,34855,5,0,0:2:0:0:
231,186,34938,1,0,0:2:0:0:
174,176,35021,6,0,B|142:205|142:205|156:269,1,83.9999974365235,6|0,3:2|0:2,0:2:0:0:
339,373,35188,1,0,3:2:0:0:
231,266,35355,5,2,0:2:0:0:
405,152,35521,1,0,0:2:0:0:
418,166,35605,1,0,0:2:0:0:
387,211,35688,1,2,0:2:0:0:
257,89,35855,5,0,3:2:0:0:
215,122,35938,1,0,0:2:0:0:
193,109,36021,1,10,0:2:0:0:
177,53,36105,1,0,0:2:0:0:
121,43,36188,1,0,0:2:0:0:
352,76,36355,6,0,B|340:87|340:87|318:179,1,83.9999974365235,0|0,0:2|0:2,0:2:0:0:
132,198,36521,2,0,B|110:163|110:163|118:102,1,83.9999974365235,0|0,0:2|0:2,0:2:0:0:
52,81,36688,5,2,3:2:0:0:
9,283,36855,1,0,0:2:0:0:
23,267,36938,1,0,0:2:0:0:
79,266,37021,1,2,0:2:0:0:
255,197,37188,5,0,0:2:0:0:
234,193,37271,1,0,0:2:0:0:
196,232,37355,1,10,0:2:0:0:
221,288,37438,1,0,0:2:0:0:
208,298,37521,1,0,0:2:0:0:
333,340,37688,6,0,B|329:326|329:326|282:255,1,83.9999974365235,2|0,3:2|0:2,0:2:0:0:
433,143,37855,2,0,B|476:133|476:133|504:176,1,83.9999974365235,0|0,3:2|0:2,0:2:0:0:
485,286,38021,5,2,0:2:0:0:
490,297,38105,1,0,0:2:0:0:
468,315,38188,1,0,0:2:0:0:
407,300,38271,1,0,0:2:0:0:
410,238,38355,1,2,0:2:0:0:
402,225,38438,1,0,0:2:0:0:
336,213,38521,1,0,3:2:0:0:
290,268,38605,1,0,0:2:0:0:
215,241,38688,6,2,B|244:131|244:131|254:125|254:125|229:3,1,245,8|0,0:2|0:2,0:1:0:0:
229,7,39355,5,2,3:2:0:0:
87,71,39521,1,0,3:2:0:0:
150,213,39688,1,2,0:2:0:0:
154,201,39771,2,0,L|93:189,1,35,0|0,3:2|3:2,0:2:0:0:
58,285,39938,5,0,3:2:0:0:
54,273,40021,2,0,L|115:261,1,35,10|0,0:2|0:2,0:2:0:0:
348,217,40188,6,0,L|354:195,1,17.5,2|0,0:2|0:2,0:2:0:0:
161,299,40355,6,0,B|166:310|166:310|250:342,1,83.9999974365235,6|0,3:2|0:2,0:2:0:0:
420,260,40521,1,0,3:2:0:0:
292,384,40688,5,2,0:2:0:0:
274,172,40855,1,0,0:2:0:0:
262,181,40938,1,0,0:2:0:0:
192,154,41021,1,2,0:2:0:0:
341,258,41188,5,0,3:2:0:0:
353,197,41271,1,0,0:2:0:0:
369,187,41355,1,10,0:2:0:0:
417,131,41438,1,0,0:2:0:0:
456,160,41521,1,0,0:2:0:0:
500,27,41688,5,2,0:2:0:0:
475,66,41771,1,0,0:2:0:0:
489,18,41855,2,0,B|471:16|471:16|395:46,1,83.9999974365235,0|0,0:2|0:2,0:2:0:0:
238,68,42021,6,0,B|220:29|220:29|255:61,1,83.9999974365235,2|0,3:2|0:2,0:2:0:0:
261,219,42188,2,0,B|248:199|248:199|172:184,1,83.9999974365235,0|0,0:2|0:2,0:2:0:0:
338,46,42355,5,2,0:2:0:0:
352,65,42438,1,0,0:2:0:0:
341,114,42521,1,0,0:2:0:0:
287,131,42605,1,0,0:2:0:0:
327,191,42688,1,10,0:2:0:0:
150,320,42855,5,0,0:2:0:0:
30,227,43021,1,2,3:2:0:0:
11,301,43105,1,0,0:2:0:0:
42,234,43188,2,0,B|25:166|25:166|35:147,1,83.9999974365235,0|0,0:2|0:2,0:2:0:0:
88,373,43355,5,2,0:2:0:0:
118,250,43521,1,0,0:2:0:0:
241,280,43688,1,2,0:2:0:0:
150,320,43855,5,0,3:2:0:0:
286,119,44021,2,0,L|291:84,1,35,8|0,0:2|0:2,0:2:0:0:
237,32,44188,2,2,L|230:3,10,17.5,2|2|2|2|2|2|2|2|2|2|2,0:1|0:1|0:1|0:1|0:1|0:1|0:1|0:1|0:1|0:1|0:1,0:1:0:0:
297,199,44688,5,6,3:2:0:0:
37,169,44855,1,0,0:2:0:0:
42,150,44938,1,0,0:2:0:0:
116,124,45021,1,2,0:2:0:0:
129,137,45104,1,0,0:2:0:0:
114,214,45188,1,0,0:2:0:0:
96,218,45271,1,0,0:2:0:0:
88,169,45355,5,2,3:2:0:0:
104,126,45438,1,0,3:2:0:0:
93,81,45521,1,0,3:2:0:0:
60,49,45605,1,0,3:2:0:0:
0,0,45688,6,0,P|8:58|12:139,1,140,4|0,3:2|0:2,1:2:0:0:
12,384,45855,2,0,P|4:326|0:245,1,140,0|0,0:2|0:2,1:2:0:0:
100,0,46021,6,0,P|108:58|112:139,1,140,0|0,0:2|0:2,1:2:0:0:
112,384,46188,2,0,P|104:326|100:245,1,140,0|0,0:2|0:2,1:2:0:0:
200,0,46354,6,0,P|208:58|212:139,1,140,0|0,0:2|0:2,1:2:0:0:
212,384,46521,2,0,P|204:326|200:245,1,140,0|0,3:2|0:2,1:2:0:0:
300,0,46688,6,0,P|308:58|312:139,1,140,8|0,0:2|0:2,1:2:0:0:
312,384,46855,2,0,P|304:326|300:245,1,140,0|0,0:2|0:2,1:2:0:0:
400,0,47021,6,0,P|408:58|412:139,1,140,0|0,0:2|0:2,1:2:0:0:
412,384,47188,2,0,P|404:326|400:245,1,140,0|0,0:2|0:2,1:2:0:0:
500,0,47355,6,0,P|508:58|512:139,1,140,0|0,3:2|0:2,1:2:0:0:
512,384,47522,2,0,P|504:326|500:245,1,140,0|0,0:2|0:2,1:2:0:0:
400,0,47688,6,0,P|408:58|412:139,1,140,0|0,0:2|0:2,1:2:0:0:
412,384,47855,2,0,P|404:326|400:245,1,140,0|0,0:2|0:2,1:2:0:0:
300,0,48021,6,0,P|308:58|312:139,1,140,8|0,0:2|0:2,1:2:0:0:
312,384,48188,2,0,P|304:326|300:245,1,140,0|0,0:2|0:2,1:2:0:0:
200,0,48355,6,0,P|208:58|212:139,1,140,0|0,3:2|0:2,1:2:0:0:
212,384,48522,2,0,P|204:326|200:245,1,140,0|0,0:2|0:2,1:2:0:0:
100,0,48688,6,0,P|108:58|112:139,1,140,0|0,0:2|0:2,1:2:0:0:
112,384,48855,2,0,P|104:326|100:245,1,140,0|0,0:2|0:2,1:2:0:0:
0,0,49021,6,0,P|8:58|12:139,1,140,0|0,0:2|0:2,1:2:0:0:
12,384,49188,2,0,P|4:326|0:245,1,140,0|0,3:2|0:2,1:2:0:0:
73,217,49355,5,8,0:2:0:0:
112,197,49438,1,0,0:2:0:0:
132,157,49521,1,0,0:2:0:0:
119,115,49605,1,0,0:2:0:0:
82,90,49688,2,0,P|83:61|89:38,3,52.5000020027161,0|0|0|0,0:2|0:2|0:2|0:2,0:2:0:0:
161,8,50021,5,2,3:2:0:0:
217,0,50104,1,0,3:2:0:0:
270,17,50187,1,0,3:2:0:0:
305,61,50271,1,0,3:2:0:0:
312,118,50354,5,2,3:2:0:0:
307,195,50438,1,0,3:2:0:0:
356,254,50521,1,0,3:2:0:0:
432,264,50605,1,0,3:2:0:0:
495,219,50688,6,2,P|495:197|490:161,3,52.5000020027161,10|2|2|2,3:2|3:2|3:2|3:2,0:2:0:0:
512,384,51021,5,4,1:2:0:0:
512,384,51105,2,0,L|504:344,1,28,0|0,3:2|0:2,0:2:0:0:
512,0,51271,5,0,1:2:0:0:
512,0,51355,2,0,L|472:9,1,28,0|0,3:2|0:2,0:2:0:0:
0,0,51521,5,0,1:2:0:0:
0,0,51605,2,0,L|8:40,1,28,0|0,3:2|0:2,0:2:0:0:
0,384,51771,5,0,1:2:0:0:
0,384,51855,2,0,L|39:374,1,28,0|0,3:2|0:2,0:2:0:0:
434,331,52021,5,8,1:2:0:0:
434,331,52105,2,0,L|426:291,1,28,0|0,3:2|0:2,0:2:0:0:
434,53,52271,5,0,1:2:0:0:
434,53,52355,2,0,L|394:62,1,28,0|0,3:2|0:2,0:2:0:0:
78,53,52521,5,0,1:2:0:0:
78,53,52605,2,0,L|86:93,1,28,0|0,3:2|3:2,0:2:0:0:
78,331,52771,5,0,1:2:0:0:
78,331,52855,2,0,L|117:321,1,28,0|0,3:2|0:2,0:2:0:0:
356,278,53021,5,0,1:2:0:0:
356,278,53105,2,0,L|348:238,1,28,0|0,3:2|0:2,0:2:0:0:
356,106,53271,5,0,1:2:0:0:
356,105,53355,2,0,L|318:123,1,28,8|0,3:2|0:2,0:2:0:0:
156,106,53521,5,0,1:2:0:0:
156,106,53605,2,0,L|164:146,1,28,0|0,3:2|3:2,0:2:0:0:
156,278,53771,5,0,1:2:0:0:
156,278,53855,2,0,L|193:260,1,28,0|0,3:2|0:2,0:2:0:0:
273,384,54021,5,2,1:1:0:0:
273,384,54105,2,0,L|254:258,1,105.000004005432,2|0,3:1|0:2,0:2:0:0:
239,0,54271,5,2,1:1:0:0:
239,0,54355,2,0,L|258:126,1,105.000004005432,2|0,3:1|0:2,0:2:0:0:
256,192,54521,5,0,0:2:0:0:
256,192,54605,1,0,0:2:0:0:
256,192,54688,5,8,3:2:0:0:
292,129,54771,1,2,3:1:0:0:
356,95,54854,1,2,3:1:0:0:
428,100,54938,1,2,3:1:0:0:
486,144,55021,1,2,3:1:0:0:
512,211,55104,1,2,3:1:0:0:
498,283,55188,1,2,3:1:0:0:
448,335,55271,1,2,3:1:0:0:
377,352,55355,6,0,L|305:336,1,52.5000020027161,2|0,3:2|0:2,0:2:0:0:
274,241,55521,1,0,0:2:0:0:
248,247,55604,1,0,0:2:0:0:
222,253,55687,1,2,0:2:0:0:
197,259,55771,1,0,0:2:0:0:
171,265,55854,1,0,0:2:0:0:
146,271,55937,1,0,0:2:0:0:
120,278,56021,6,2,L|113:330,3,52.5000020027161,10|2|2|2,0:2|0:2|0:2|0:2,0:2:0:0:
0,384,56355,6,0,P|128:367|221:372,1,175,4|0,3:2|0:2,1:2:0:0:
512,367,56521,2,0,P|384:384|291:379,1,175,0|0,0:2|0:2,1:2:0:0:
0,311,56688,6,0,P|128:294|221:299,1,175,0|0,0:2|0:2,1:2:0:0:
512,294,56854,2,0,P|384:311|291:306,1,175,0|0,3:2|0:2,1:2:0:0:
0,238,57022,6,0,P|128:221|221:226,1,175,0|0,0:2|0:2,1:2:0:0:
512,221,57188,2,0,P|384:238|291:233,1,175,0|0,3:2|0:2,1:2:0:0:
0,165,57355,6,0,P|128:148|221:153,1,175,8|0,0:2|0:2,1:2:0:0:
512,148,57521,2,0,P|384:165|291:160,1,175,0|0,0:2|0:2,1:2:0:0:
0,92,57689,6,0,P|128:75|221:80,1,175,0|0,0:2|0:2,1:2:0:0:
512,75,57855,2,0,P|384:92|291:87,1,175,0|0,0:2|0:2,1:2:0:0:
0,19,58021,6,0,P|128:2|221:7,1,175,0|0,3:2|0:2,1:2:0:0:
512,2,58187,2,0,P|384:19|291:14,1,175,0|0,0:2|0:2,1:2:0:0:
0,92,58355,6,0,P|128:75|221:80,1,175,0|0,0:2|0:2,1:2:0:0:
512,75,58521,2,0,P|384:92|291:87,1,175,0|0,3:2|0:2,1:2:0:0:
0,165,58688,6,0,P|128:148|221:153,1,175,8|0,0:2|0:2,1:2:0:0:
512,148,58854,2,0,P|384:165|291:160,1,175,0|0,0:2|0:2,1:2:0:0:
0,238,59021,6,0,P|128:221|221:226,1,175,0|0,3:2|0:2,1:2:0:0:
512,221,59187,2,0,P|384:238|291:233,1,175,0|0,0:2|0:2,1:2:0:0:
0,311,59355,6,0,P|128:294|221:299,1,175,0|0,0:2|0:2,1:2:0:0:
512,294,59521,2,0,P|384:311|291:306,1,175,0|0,3:2|0:2,1:2:0:0:
0,384,59688,6,0,P|128:367|221:372,1,175,0|0,0:2|0:2,1:2:0:0:
512,367,59855,2,0,P|384:384|291:379,1,175,0|0,3:2|0:2,1:2:0:0:
255,350,60021,5,8,0:2:0:0:
234,316,60104,1,0,0:2:0:0:
229,277,60187,1,0,0:2:0:0:
240,240,60271,1,0,0:2:0:0:
265,209,60355,2,0,P|273:173|266:131,3,52.5000020027161,0|0|0|0,0:2|0:2|0:2|0:2,0:2:0:0:
324,97,60688,5,0,3:2:0:0:
287,59,60771,1,0,3:2:0:0:
237,45,60854,1,0,3:2:0:0:
187,60,60938,1,0,3:2:0:0:
151,98,61021,5,0,3:2:0:0:
136,168,61104,1,0,3:2:0:0:
165,234,61187,1,0,3:2:0:0:
228,270,61271,1,0,3:2:0:0:
299,260,61355,6,2,P|307:232|296:188,3,52.5000020027161,10|2|2|2,3:2|3:2|3:2|3:2,3:2:0:0:
351,149,61688,5,4,1:2:0:0:
351,149,61772,2,0,L|359:109,1,28,0|0,3:2|0:2,0:2:0:0:
351,235,61938,5,0,1:2:0:0:
351,235,62022,2,0,L|389:248,1,28,0|0,3:2|0:2,0:2:0:0:
161,235,62188,5,0,1:2:0:0:
161,235,62272,2,0,L|153:275,1,28,0|0,3:2|0:2,0:2:0:0:
161,149,62438,5,0,1:2:0:0:
161,149,62522,2,0,L|122:135,1,28,0|0,3:2|0:2,0:2:0:0:
429,96,62688,5,8,1:2:0:0:
429,96,62772,2,0,L|437:56,1,28,0|0,3:2|0:2,0:2:0:0:
429,288,62938,5,0,1:2:0:0:
429,288,63022,2,0,L|467:301,1,28,0|0,3:2|0:2,0:2:0:0:
83,288,63188,5,0,1:2:0:0:
83,288,63272,2,0,L|75:328,1,28,0|0,3:2|3:2,0:2:0:0:
83,96,63438,5,0,1:2:0:0:
83,96,63522,2,0,L|44:82,1,28,0|0,3:2|0:2,0:2:0:0:
507,43,63688,5,0,1:2:0:0:
507,43,63772,2,0,L|515:3,1,28,0|0,3:2|3:2,0:2:0:0:
507,341,63938,5,0,1:2:0:0:
507,341,64022,2,0,L|545:354,1,28,8|0,3:2|0:2,0:2:0:0:
5,341,64188,5,0,1:2:0:0:
5,341,64272,2,0,L|-3:381,1,28,0|0,3:2|3:2,0:2:0:0:
5,43,64438,5,0,1:2:0:0:
5,43,64522,2,0,L|-33:29,1,28,0|0,3:2|0:2,0:2:0:0:
512,163,64688,5,2,1:1:0:0:
512,163,64771,2,0,L|348:183,1,140,0|0,3:2|3:2,0:2:0:0:
0,221,64938,5,2,1:1:0:0:
0,221,65021,2,0,L|164:201,1,140,0|0,3:2|0:2,0:2:0:0:
256,192,65188,5,0,3:2:0:0:
256,192,65271,1,0,0:2:0:0:
256,192,65355,5,2,3:1:0:0:
220,255,65438,1,2,3:1:0:0:
156,289,65521,1,2,3:1:0:0:
84,284,65605,1,2,3:1:0:0:
26,240,65688,1,2,3:1:0:0:
0,173,65771,1,2,3:1:0:0:
14,101,65855,1,2,3:1:0:0:
64,49,65938,1,2,3:1:0:0:
135,32,66021,5,6,3:1:0:0:
256,192,66105,12,0,70021,0:2:0:0:
