osu file format v14

[General]
AudioFilename: audio.mp3
AudioLeadIn: 0
PreviewTime: 23271
Countdown: 0
SampleSet: Soft
StackLeniency: 0.4
Mode: 0
LetterboxInBreaks: 0
WidescreenStoryboard: 1

[Editor]
Bookmarks: 2021,7355,12688,18021,23355,44688,66021,70021
DistanceSpacing: 0.9
BeatDivisor: 2
GridSize: 16
TimelineZoom: 2.3

[Metadata]
Title:Dice
TitleUnicode:Dice
Artist:WangleLine
ArtistUnicode:WangleLine
Creator:hehe
Version:Hard
Source:
Tags:electronic instrumental dubstep machinist's dream
BeatmapID:4173700
BeatmapSetID:2005921

[Difficulty]
HPDrainRate:3
CircleSize:4
OverallDifficulty:6
ApproachRate:8
SliderMultiplier:1.4
SliderTickRate:1

[Events]
//Background and Video events
0,0,"gamble.jpg",0,0
//Break Periods
//Storyboard Layer 0 (Background)
//Storyboard Layer 1 (Fail)
//Storyboard Layer 2 (Pass)
//Storyboard Layer 3 (Foreground)
//Storyboard Layer 4 (Overlay)
//Storyboard Sound Samples

[TimingPoints]
2022,333.333333333333,4,2,1,40,1,0
2022,-125,4,2,1,40,0,0
7355,-111.111111111111,4,2,1,45,0,0
12688,-100,4,2,1,50,0,0
20688,-71.4285714285714,4,2,1,70,0,0
22688,-1000,4,2,2,70,0,0
23355,-83.3333333333333,4,2,2,70,0,0
44688,-83.3333333333333,4,2,2,70,0,1
66021,-100,4,2,2,70,0,0
69855,-100,4,2,2,10,0,0

[Colours]
Combo1 : 50,209,122
Combo2 : 221,119,119

[HitObjects]
86,304,2022,6,0,L|212:280,1,112,4|8,3:2|0:2,0:2:0:0:
232,213,2521,2,0,L|358:237,1,112,4|0,3:2|3:2,0:2:0:0:
411,197,3021,2,0,L|427:248,2,28,8|0|0,3:2|3:2|3:2,0:2:0:0:
495,247,3355,2,0,L|501:126,1,112,0|8,3:2|3:2,0:2:0:0:
436,90,3855,1,0,3:2:0:0:
378,142,4021,2,0,L|307:156,1,56,0|0,0:2|3:2,0:2:0:0:
287,82,4355,2,0,L|185:64,1,84,8|0,3:2|3:2,0:0:0:0:
204,67,4688,6,0,L|227:187,1,112,0|8,3:2|3:2,0:2:0:0:
170,233,5188,1,0,3:2:0:0:
223,290,5355,2,0,L|292:273,1,56,0|0,3:2|3:2,0:0:0:0:
360,262,5688,1,8,3:2:0:0:
360,262,5771,1,0,3:2:0:0:
360,262,5855,1,0,3:2:0:0:
435,281,6021,2,0,L|447:321,2,28,0|0|0,3:2|3:2|3:2,0:0:0:0:
493,227,6355,2,0,L|506:151,1,56,8|0,3:2|3:2,0:0:0:0:
456,107,6688,1,0,3:2:0:0:
386,70,6855,1,0,3:2:0:0:
333,127,7021,1,8,3:2:0:0:
263,91,7188,1,0,3:2:0:0:
210,150,7355,6,0,L|195:298,1,125.999996154785,4|8,3:2|3:2,0:2:0:0:
125,307,7855,2,0,L|108:176,1,125.999996154785,4|0,3:2|0:2,0:2:0:0:
34,155,8355,2,0,L|24:196,2,31.4999990386963,8|0|0,3:2|3:2|3:2,0:2:0:0:
3,82,8688,2,0,L|139:52,1,125.999996154785,0|8,3:2|3:2,0:2:0:0:
203,39,9188,1,0,3:2:0:0:
258,95,9355,2,0,L|328:108,1,62.9999980773926,0|0,3:2|3:2,0:2:0:0:
219,165,9688,2,0,L|149:178,1,62.9999980773926,8|0,3:2|3:2,0:0:0:0:
270,220,10021,6,0,P|258:278|285:355,3,125.999996154785,2|10|2|10,3:2|0:2|3:2|0:2,0:2:0:0:
430,371,11355,2,0,P|464:358|502:355,1,62.9999980773926,2|0,3:2|0:0,0:2:0:0:
512,267,11688,2,0,P|478:280|440:283,1,62.9999980773926,10|0,3:2|3:2,0:0:0:0:
410,216,12021,1,2,3:2:0:0:
334,198,12187,1,0,3:2:0:0:
262,225,12354,1,10,3:2:0:0:
217,289,12520,1,0,3:2:0:0:
217,366,12688,6,0,P|157:358|63:377,3,140,2|10|2|10,3:2|3:2|3:2|3:2,0:2:0:0:
24,212,14021,2,0,P|32:176|23:123,1,70,2|0,3:2|0:0,0:2:0:0:
112,64,14354,2,0,P|103:99|113:153,1,70,10|0,3:2|3:2,0:0:0:0:
173,221,14688,2,0,P|181:185|172:132,1,70,2|0,3:2|3:2,0:2:0:0:
261,73,15021,2,0,P|252:108|262:162,1,70,10|0,3:2|3:2,0:0:0:0:
329,182,15355,6,0,P|349:248|325:328,3,140,2|10|2|10,3:2|3:2|3:2|3:2,0:2:0:0:
193,250,16688,2,0,P|150:241|111:244,1,70,2|0,3:2|0:0,0:2:0:0:
255,198,17021,2,0,P|298:207|337:204,1,70,10|0,3:2|3:2,0:0:0:0:
200,138,17355,2,0,P|157:129|118:132,1,70,2|0,3:2|3:2,0:0:0:0:
262,88,17688,2,0,P|305:97|344:94,1,70,10|0,3:2|3:2,0:0:0:0:
390,145,18021,6,0,P|373:79|390:-3,3,140,6|10|2|10,3:2|3:2|3:2|3:2,0:2:0:0:
230,11,19355,2,0,P|239:56|235:91,1,70,2|0,3:2|0:0,0:2:0:0:
174,173,19688,2,0,P|165:128|169:93,1,70,10|0,3:2|0:2,0:0:0:0:
91,0,20021,2,0,P|100:45|96:80,1,70,2|0,0:2|3:2,0:0:0:0:
35,162,20354,2,0,P|26:117|30:82,1,70,10|0,3:2|0:0,0:0:0:0:
256,192,20688,12,8,22688,0:2:0:0:
213,32,23355,6,0,L|221:124,1,83.9999974365235,2|0,3:2|3:2,0:0:0:0:
231,194,23688,1,2,3:2:0:0:
231,194,23855,1,0,3:2:0:0:
304,210,24021,2,0,L|312:118,1,83.9999974365235,10|0,3:2|3:2,0:0:0:0:
282,55,24355,6,0,P|369:38|453:59,1,167.999994873047,6|2,3:2|0:2,0:2:0:0:
423,127,24855,1,0,0:2:0:0:
485,168,25021,2,0,P|486:219|492:254,1,83.9999974365235,2|0,0:2|3:2,0:0:0:0:
418,309,25355,2,0,P|417:258|411:223,1,83.9999974365235,10|0,0:2|0:2,0:2:0:0:
342,193,25688,1,2,0:2:0:0:
342,193,25855,1,0,0:2:0:0:
292,249,26021,5,2,3:2:0:0:
228,206,26188,2,0,P|162:218|116:207,1,83.9999974365235,0|2,3:2|0:2,0:2:0:0:
82,256,26521,1,0,0:2:0:0:
21,209,26688,2,0,P|13:170|19:113,1,83.9999974365235,10|0,0:2|0:2,0:2:0:0:
84,46,27021,2,0,P|92:85|86:142,1,83.9999974365235,2|0,3:2|0:2,0:2:0:0:
150,178,27355,6,0,P|137:248|156:350,1,167.999994873047,2|2,0:2|0:2,0:0:0:0:
219,305,27855,1,0,3:2:0:0:
276,354,28021,2,2,B|347:340|347:340|371:350|371:350|469:335,1,167.999994873047,8|0,0:2|0:0,0:1:0:0:
511,206,28688,6,0,L|493:111,1,83.9999974365235,2|0,3:2|3:2,0:0:0:0:
475,50,29021,1,2,3:2:0:0:
475,50,29188,1,0,3:2:0:0:
400,34,29355,2,0,L|382:129,1,83.9999974365235,10|0,0:2|3:2,0:0:0:0:
309,128,29688,6,0,P|299:187|316:306,1,167.999994873047,6|2,3:2|0:2,0:2:0:0:
260,349,30188,1,0,0:2:0:0:
202,299,30355,2,0,P|158:296|102:306,1,83.9999974365235,2|0,0:2|3:2,0:0:0:0:
0,235,30688,2,0,P|44:238|100:228,1,83.9999974365235,10|0,0:2|0:2,0:2:0:0:
129,172,31021,1,2,0:2:0:0:
129,172,31188,1,0,0:2:0:0:
92,105,31355,5,2,3:2:0:0:
195,138,31521,2,0,P|191:80|204:25,1,83.9999974365235,0|2,3:2|0:2,0:2:0:0:
264,24,31855,1,0,0:2:0:0:
328,62,32021,2,0,P|342:137|334:229,1,167.999994873047,10|2,0:0|3:2,0:0:0:0:
260,212,32521,1,0,0:2:0:0:
232,282,32688,6,0,L|142:306,1,83.9999974365235,2|2,3:2|0:1,0:2:0:0:
275,349,33021,2,0,L|365:373,1,83.9999974365235,2|0,0:2|0:2,0:0:0:0:
424,332,33355,2,0,B|435:225|481:288|492:169,1,167.999994873047,10|0,0:2|3:2,0:2:0:0:
306,31,34021,6,0,L|198:45,1,83.9999974365235,2|0,3:2|3:2,0:0:0:0:
147,52,34355,1,2,3:2:0:0:
147,52,34521,1,0,3:2:0:0:
132,126,34688,2,0,L|240:140,1,83.9999974365235,10|0,0:2|0:2,0:2:0:0:
243,125,34938,1,0,0:2:0:0:
243,125,35021,6,0,L|271:302,1,167.999994873047,6|2,3:2|0:2,0:2:0:0:
350,313,35521,1,0,0:2:0:0:
350,313,35605,1,0,0:2:0:0:
350,313,35688,2,0,L|437:339,1,83.9999974365235,2|0,0:2|3:2,0:0:0:0:
491,292,36021,1,10,0:2:0:0:
447,230,36188,1,0,0:2:0:0:
500,175,36355,1,0,0:2:0:0:
450,117,36521,1,0,0:2:0:0:
501,61,36688,6,0,L|330:92,1,167.999994873047,2|2,3:2|0:2,0:0:0:0:
273,47,37188,1,0,0:2:0:0:
273,47,37271,1,0,0:2:0:0:
273,47,37355,1,10,0:2:0:0:
227,106,37521,1,0,0:2:0:0:
155,82,37688,2,0,L|140:178,1,83.9999974365235,2|0,3:2|3:2,0:2:0:0:
123,238,38021,5,2,0:2:0:0:
102,242,38104,1,0,0:2:0:0:
82,247,38187,1,0,0:2:0:0:
61,252,38271,1,0,0:2:0:0:
41,256,38355,2,0,L|51:202,3,41.9999987182618,2|0|0|0,0:2|0:2|3:2|0:2,0:0:0:0:
24,186,38688,2,2,B|79:163|79:163|94:134|94:134|196:102,1,167.999994873047,8|0,0:2|0:0,0:1:0:0:
267,224,39355,6,0,L|367:243,1,83.9999974365235,2|0,3:2|3:2,0:0:0:0:
427,259,39688,1,2,0:2:0:0:
427,259,39855,1,0,3:2:0:0:
436,333,40021,2,0,L|336:352,1,83.9999974365235,10|2,0:2|0:2,0:2:0:0:
283,379,40355,6,0,L|110:340,1,167.999994873047,6|2,3:2|0:2,0:2:0:0:
49,371,40855,1,0,0:2:0:0:
49,371,40938,1,0,0:2:0:0:
49,371,41021,2,0,L|34:286,1,83.9999974365235,2|0,0:2|3:2,0:0:0:0:
88,234,41355,1,10,0:2:0:0:
58,164,41521,1,0,0:2:0:0:
128,134,41688,1,2,0:2:0:0:
157,204,41855,1,0,0:2:0:0:
234,205,42021,6,0,L|249:28,1,167.999994873047,2|2,3:2|0:2,0:2:0:0:
326,18,42521,1,0,0:2:0:0:
326,18,42605,1,0,0:2:0:0:
326,18,42688,1,10,0:2:0:0:
377,73,42855,1,0,0:2:0:0:
449,54,43021,2,0,L|453:13,2,41.9999987182618,2|0|0,3:2|0:2|0:2,0:0:0:0:
503,106,43355,6,0,L|513:205,1,83.9999974365235,2|0,0:2|0:2,0:0:0:0:
427,246,43688,2,0,L|435:162,1,83.9999974365235,2|0,0:2|3:2,0:0:0:0:
373,122,44021,2,0,B|269:123|327:171|203:187,1,167.999994873047,8|2,0:2|0:1,0:2:0:0:
104,88,44688,6,0,L|116:188,1,83.9999974365235,6|0,3:2|0:2,0:0:0:0:
48,209,45021,2,0,L|31:321,1,83.9999974365235,2|0,0:2|0:2,0:0:0:0:
85,349,45355,2,0,L|221:311,1,125.999996154785,2|0,3:2|3:2,0:0:0:0:
230,325,45688,5,4,3:2:0:0:
313,315,45855,1,0,0:2:0:0:
374,257,46022,1,0,0:2:0:0:
390,175,46188,1,0,0:2:0:0:
355,99,46355,1,0,0:2:0:0:
281,58,46522,1,0,3:2:0:0:
198,68,46688,1,8,0:2:0:0:
137,126,46855,1,0,0:2:0:0:
121,208,47022,1,0,0:2:0:0:
156,284,47188,1,0,0:2:0:0:
230,325,47355,6,0,L|251:213,1,83.9999974365235,0|0,3:2|0:2,1:2:0:0:
384,148,47688,2,0,L|276:185,1,83.9999974365235,0|0,0:2|0:2,1:2:0:0:
153,102,48021,2,0,L|240:177,1,83.9999974365235,8|0,0:2|0:2,1:2:0:0:
358,281,48355,2,0,L|271:206,1,83.9999974365235,0|0,3:2|0:2,1:2:0:0:
282,58,48688,2,0,L|261:171,1,83.9999974365235,0|0,0:2|0:2,1:2:0:0:
127,235,49021,2,0,L|235:198,1,83.9999974365235,0|0,0:2|3:2,1:2:0:0:
58,194,49355,6,0,B|87:100|22:121|45:33,1,167.999994873047,8|0,0:2|0:2,0:0:0:0:
224,2,50021,2,0,L|243:100,1,83.9999974365235,2|0,3:2|3:2,0:0:0:0:
196,157,50355,2,0,L|335:190,1,125.999996154785,2|0,3:2|3:2,0:0:0:0:
355,165,50688,2,2,L|383:264,1,83.9999974365235,10|2,3:2|3:2,0:2:0:0:
410,323,51021,6,0,L|319:344,1,83.9999974365235,4|0,1:2|0:2,0:0:0:0:
328,341,51271,2,0,L|279:260,1,83.9999974365235,0|0,1:2|0:2,0:0:0:0:
284,268,51521,2,0,L|350:198,1,83.9999974365235,0|0,1:2|0:2,0:0:0:0:
339,205,51771,2,0,L|424:241,1,83.9999974365235,0|0,1:2|0:2,0:0:0:0:
416,237,52021,1,8,1:2:0:0:
497,140,52271,6,0,L|467:-3,2,125.999996154785,0|0|0,1:2|1:2|1:2,0:0:0:0:
375,176,53021,2,0,L|345:319,2,125.999996154785,0|0|0,1:2|1:2|1:2,0:0:0:0:
296,77,53771,2,0,L|201:93,1,83.9999974365235,0|0,1:2|0:2,0:0:0:0:
213,90,54021,6,0,P|206:133|218:192,1,83.9999974365235,2|0,1:1|0:2,0:0:0:0:
153,301,54355,2,0,P|160:258|148:199,1,83.9999974365235,2|0,3:1|0:2,0:2:0:0:
76,313,54688,2,0,B|145:331|145:331|153:349|153:349|254:367,1,167.999994873047,8|2,3:2|3:1,0:0:0:0:
408,296,55355,6,0,L|396:196,1,83.9999974365235,2|0,3:2|0:2,0:2:0:0:
464,175,55688,2,0,L|481:63,1,83.9999974365235,2|0,0:2|0:2,0:0:0:0:
427,35,56022,2,2,L|291:73,1,125.999996154785,10|2,0:2|0:2,0:2:0:0:
282,59,56355,5,4,3:2:0:0:
199,69,56522,1,0,0:2:0:0:
138,127,56689,1,0,0:2:0:0:
122,209,56855,1,0,3:2:0:0:
157,285,57022,1,0,0:2:0:0:
231,326,57189,1,0,3:2:0:0:
314,316,57355,1,8,0:2:0:0:
375,258,57522,1,0,0:2:0:0:
391,176,57689,1,0,0:2:0:0:
356,100,57855,1,0,0:2:0:0:
282,59,58022,6,0,L|261:171,1,83.9999974365235,0|0,3:2|0:2,1:2:0:0:
128,236,58355,2,0,L|236:199,1,83.9999974365235,0|0,0:2|3:2,1:2:0:0:
359,282,58688,2,0,L|272:207,1,83.9999974365235,8|0,0:2|0:2,1:2:0:0:
154,103,59022,2,0,L|241:178,1,83.9999974365235,0|0,3:2|0:2,1:2:0:0:
230,326,59355,2,0,L|251:213,1,83.9999974365235,0|0,0:2|3:2,1:2:0:0:
385,149,59688,2,0,L|277:186,1,83.9999974365235,0|0,0:2|3:2,1:2:0:0:
454,190,60022,6,0,B|425:284|490:263|467:351,1,167.999994873047,8|0,0:2|0:2,0:0:0:0:
288,382,60688,2,0,L|269:284,1,83.9999974365235,0|0,3:2|3:2,0:0:0:0:
316,227,61022,2,0,L|177:194,1,125.999996154785,0|0,3:2|3:2,0:0:0:0:
157,219,61355,2,2,L|129:120,1,83.9999974365235,10|2,3:2|3:2,3:2:0:0:
102,61,61688,6,0,L|193:40,1,83.9999974365235,4|0,1:2|0:2,0:0:0:0:
184,43,61938,2,0,L|233:124,1,83.9999974365235,0|0,1:2|0:2,0:0:0:0:
228,116,62188,2,0,L|162:186,1,83.9999974365235,0|0,1:2|0:2,0:0:0:0:
173,179,62438,2,0,L|88:143,1,83.9999974365235,0|0,1:2|0:2,0:0:0:0:
96,147,62688,1,8,1:2:0:0:
15,244,62938,6,0,L|45:387,2,125.999996154785,0|0|0,1:2|1:2|1:2,0:0:0:0:
137,208,63688,2,0,L|167:65,2,125.999996154785,0|0|0,1:2|1:2|1:2,0:0:0:0:
216,307,64438,2,0,L|311:291,1,83.9999974365235,0|0,1:2|0:2,0:0:0:0:
298,293,64688,6,0,P|292:252|309:194,1,83.9999974365235,2|0,1:1|3:2,0:0:0:0:
377,123,65022,2,0,P|383:164|366:222,1,83.9999974365235,0|0,3:2|3:2,0:2:0:0:
308,81,65355,2,0,B|239:63|239:63|231:45|231:45|130:27,2,167.999994873047,2|2|6,3:1|3:1|3:1,0:0:0:0:
256,192,66105,12,0,70021,0:2:0:0:
