osu file format v14

[General]
AudioFilename: audio.mp3
AudioLeadIn: 0
PreviewTime: 23271
Countdown: 0
SampleSet: Soft
StackLeniency: 0.7
Mode: 0
LetterboxInBreaks: 0
WidescreenStoryboard: 1

[Editor]
Bookmarks: 2021,7355,12688,18021,23355,44688,66021,70021
DistanceSpacing: 1
BeatDivisor: 4
GridSize: 32
TimelineZoom: 2.3

[Metadata]
Title:Dice
TitleUnicode:Dice
Artist:WangleLine
ArtistUnicode:WangleLine
Creator:hehe
Version:Extra
Source:
Tags:electronic instrumental dubstep machinist's dream
BeatmapID:4173699
BeatmapSetID:2005921

[Difficulty]
HPDrainRate:5
CircleSize:4
OverallDifficulty:8.8
ApproachRate:9.2
SliderMultiplier:1.4
SliderTickRate:1

[Events]
//Background and Video events
0,0,"gamble.jpg",0,0
//Break Periods
//Storyboard Layer 0 (Background)
//Storyboard Layer 1 (Fail)
//Storyboard Layer 2 (Pass)
//Storyboard Layer 3 (Foreground)
//Storyboard Layer 4 (Overlay)
//Storyboard Sound Samples

[TimingPoints]
2022,333.333333333333,4,2,1,40,1,0
7355,-90.9090909090909,4,2,1,45,0,0
12688,-83.3333333333333,4,2,1,50,0,0
18021,-71.4285714285714,4,2,1,55,0,0
20688,-71.4285714285714,4,2,1,70,0,0
22688,-1000,4,2,2,70,0,0
23355,-50,4,2,2,70,0,0
28021,-100,4,2,2,70,0,0
29688,-50,4,2,2,70,0,0
34355,-100,4,2,2,70,0,0
35021,-41.6666666666667,4,2,2,70,0,0
38688,-100,4,2,2,70,0,0
40355,-41.6666666666667,4,2,2,70,0,0
43355,-100,4,2,2,70,0,0
44688,-66.6666666666667,4,2,2,70,0,1
45688,-50,4,2,2,70,0,1
49355,-66.6666666666667,4,2,2,70,0,1
51021,-100,4,2,2,70,0,1
54021,-33.3333333333333,4,2,2,70,0,1
54688,-66.6666666666667,4,2,2,70,0,1
56355,-40,4,2,2,70,0,1
60021,-66.6666666666667,4,2,2,70,0,1
61688,-100,4,2,2,70,0,1
64688,-25,4,2,2,70,0,1
66021,-100,4,2,2,70,0,0
69855,-100,4,2,2,10,0,0

[Colours]
Combo1 : 50,209,122
Combo2 : 221,119,119

[HitObjects]
201,12,2021,6,0,L|225:170,1,140,4|8,3:2|0:2,0:2:0:0:
361,187,2521,2,0,L|337:345,1,140,4|0,3:2|3:2,0:2:0:0:
245,225,3021,2,0,L|296:203,2,35,8|0|0,3:2|3:2|3:2,0:2:0:0:
203,292,3355,6,0,L|120:277,1,70,0|0,3:2|0:2,0:2:0:0:
308,374,3688,2,0,L|391:359,1,70,8|0,3:2|3:2,0:0:0:0:
512,328,4021,1,0,0:2:0:0:
445,287,4188,1,0,3:2:0:0:
490,172,4355,2,0,L|502:213,3,35,8|0|0|0,3:2|3:2|3:2|3:2,0:0:0:0:
498,159,4688,6,0,L|411:142,1,70,0|0,3:2|3:2,0:2:0:0:
283,211,5021,2,0,L|263:128,1,70,8|0,3:2|3:2,0:0:0:0:
361,39,5355,1,0,3:2:0:0:
338,112,5521,1,0,3:2:0:0:
199,51,5688,1,8,3:2:0:0:
199,51,5771,1,0,3:2:0:0:
199,51,5855,1,0,3:2:0:0:
168,188,6021,6,0,L|185:133,2,35,0|0|0,3:2|3:2|3:2,0:0:0:0:
15,124,6355,2,0,L|5:41,1,70,8|0,3:2|3:2,0:0:0:0:
76,13,6688,1,0,3:2:0:0:
76,13,6771,1,0,3:2:0:0:
76,13,6855,1,0,3:2:0:0:
124,100,7021,2,0,L|87:89,2,35,8|0|0,3:2|3:2|3:2,0:0:0:0:
263,19,7355,6,0,L|420:3,1,154.000004699707,4|8,3:2|3:2,0:2:0:0:
314,183,7855,2,0,L|157:167,1,154.000004699707,4|0,3:2|0:2,0:2:0:0:
356,84,8355,2,0,L|367:137,2,38.5000011749268,8|0|0,3:2|3:2|3:2,0:2:0:0:
501,180,8688,6,0,L|487:273,1,77.0000023498536,0|0,3:2|0:2,0:2:0:0:
301,384,9021,2,0,L|287:295,1,77.0000023498536,8|0,3:2|3:2,0:0:0:0:
351,254,9355,1,0,3:2:0:0:
351,254,9438,1,0,3:2:0:0:
351,254,9521,1,0,3:2:0:0:
177,310,9688,2,0,L|229:327,3,38.5000011749268,8|0|0|0,3:2|3:2|3:2|3:2,0:0:0:0:
156,322,10021,6,0,P|148:280|155:220,1,77.0000023498536,2|0,3:2|0:2,0:2:0:0:
212,132,10355,2,0,P|220:174|213:234,1,77.0000023498536,10|0,0:2|0:2,0:2:0:0:
302,306,10688,2,0,P|294:264|301:204,1,77.0000023498536,2|0,3:2|0:2,0:2:0:0:
358,116,11022,2,0,P|366:158|359:218,1,77.0000023498536,10|0,0:2|0:2,0:2:0:0:
500,369,11355,6,0,P|482:306|499:197,1,154.000004699707,2|10,3:2|3:2,0:2:0:0:
441,100,11855,1,0,3:2:0:0:
512,148,12021,1,2,3:2:0:0:
512,148,12105,1,0,3:2:0:0:
512,148,12188,1,0,3:2:0:0:
316,201,12355,2,0,L|265:219,2,38.5000011749268,10|0|0,3:2|3:2|3:2,0:0:0:0:
459,261,12688,6,0,P|402:253|349:263,1,83.9999974365235,2|0,3:2|0:2,0:2:0:0:
242,310,13021,2,0,P|299:318|352:308,1,83.9999974365235,10|0,3:2|0:2,0:2:0:0:
444,156,13355,2,0,P|387:148|334:158,1,83.9999974365235,2|0,3:2|0:2,0:2:0:0:
227,205,13688,2,0,P|284:213|337:203,1,83.9999974365235,10|0,3:2|0:2,0:2:0:0:
281,42,14021,6,0,P|215:30|98:57,1,167.999994873047,2|10,3:2|3:2,0:2:0:0:
128,174,14521,1,0,3:2:0:0:
46,12,14688,2,0,L|27:69,2,41.9999987182618,2|0|0,3:2|3:2|3:2,0:2:0:0:
191,121,15021,1,10,3:2:0:0:
202,138,15104,1,0,3:2:0:0:
209,158,15187,1,0,3:2:0:0:
209,179,15271,1,0,3:2:0:0:
204,199,15355,6,0,P|157:204|105:224,1,83.9999974365235,2|0,3:2|0:2,0:2:0:0:
271,252,15688,2,0,P|318:247|370:227,1,83.9999974365235,10|0,3:2|0:2,0:2:0:0:
219,318,16021,2,0,P|172:323|120:343,1,83.9999974365235,2|0,3:2|0:2,0:2:0:0:
286,371,16354,2,0,P|333:366|385:346,1,83.9999974365235,10|0,3:2|0:2,0:2:0:0:
503,231,16688,6,0,P|489:158|508:42,1,167.999994873047,2|10,3:2|3:2,0:2:0:0:
407,112,17188,1,0,3:2:0:0:
292,20,17355,1,2,3:2:0:0:
292,20,17438,1,0,3:2:0:0:
292,20,17521,1,0,3:2:0:0:
316,131,17688,2,0,L|332:77,2,41.9999987182618,10|0|0,3:2|3:2|3:2,0:0:0:0:
143,34,18021,6,0,P|151:90|147:135,1,97.9999970092774,6|0,3:2|0:2,0:2:0:0:
215,282,18355,2,0,P|207:226|211:181,1,97.9999970092774,10|0,3:2|0:2,0:2:0:0:
28,40,18688,2,0,P|36:96|32:141,1,97.9999970092774,2|0,3:2|0:2,0:2:0:0:
100,288,19022,2,0,P|92:232|96:187,1,97.9999970092774,10|0,3:2|0:2,0:2:0:0:
284,359,19355,6,0,P|299:283|280:149,1,195.999994018555,2|10,3:2|3:2,0:2:0:0:
348,89,19855,1,0,0:2:0:0:
348,89,19938,2,0,L|229:69,1,97.9999970092774,0|0,3:2|3:2,0:2:0:0:
251,72,20188,1,0,3:2:0:0:
193,17,20355,1,10,3:2:0:0:
193,17,20438,2,0,L|79:35,1,97.9999970092774,0|0,3:2|0:0,0:0:0:0:
96,32,20688,5,2,3:2:0:0:
131,108,20855,1,0,3:2:0:0:
59,137,21021,1,10,3:2:0:0:
59,137,21105,1,0,3:2:0:0:
43,215,21271,5,0,3:2:0:0:
43,215,21355,1,2,3:2:0:0:
177,236,21521,1,0,3:2:0:0:
146,368,21688,1,10,3:2:0:0:
146,368,21771,2,0,L|43:351,1,97.9999970092774,0|0,3:2|0:0,0:0:0:0:
41,360,22021,6,0,P|26:298|42:244,1,97.9999970092774,2|0,3:2|3:2,0:2:0:0:
249,164,22355,2,0,P|264:226|248:280,1,97.9999970092774,10|0,3:2|3:2,0:0:0:0:
451,314,22688,1,8,0:2:0:0:
451,314,23355,5,2,3:2:0:0:
347,295,23521,1,0,3:2:0:0:
332,191,23688,1,2,3:2:0:0:
427,145,23855,1,0,3:2:0:0:
499,221,24021,1,10,3:2:0:0:
499,221,24188,1,0,3:2:0:0:
382,275,24355,6,0,P|299:269|201:286,1,140,6|0,3:2|0:2,0:2:0:0:
134,210,24688,1,2,0:2:0:0:
76,274,24855,1,0,0:2:0:0:
3,169,25021,1,2,0:2:0:0:
159,289,25188,1,0,3:2:0:0:
206,71,25355,6,0,P|219:146|210:218,1,140,10|0,0:2|0:2,0:2:0:0:
94,242,25688,1,2,0:2:0:0:
94,242,25855,1,0,0:2:0:0:
263,267,26021,1,2,3:2:0:0:
139,171,26188,1,0,3:2:0:0:
317,65,26355,1,2,0:2:0:0:
254,10,26521,1,0,0:2:0:0:
329,211,26688,6,0,P|404:200|501:214,1,140,10|0,0:2|0:2,0:2:0:0:
277,141,27021,1,2,3:2:0:0:
277,141,27188,1,0,0:2:0:0:
406,97,27355,1,2,0:2:0:0:
262,267,27521,1,0,0:2:0:0:
159,85,27688,1,2,0:2:0:0:
91,165,27855,1,0,3:2:0:0:
59,83,28021,6,2,P|11:105|75:91,1,245,8|0,0:2|0:2,0:1:0:0:
134,38,28688,5,2,3:2:0:0:
238,42,28855,1,0,3:2:0:0:
265,144,29021,1,2,3:2:0:0:
177,201,29188,1,0,3:2:0:0:
96,135,29355,1,10,0:2:0:0:
96,135,29521,1,0,3:2:0:0:
237,118,29688,6,0,P|252:199|231:285,1,140,6|0,3:2|0:2,0:2:0:0:
129,332,30021,1,2,0:2:0:0:
170,257,30188,1,0,0:2:0:0:
308,379,30355,1,2,0:2:0:0:
401,198,30521,1,0,3:2:0:0:
509,315,30688,6,0,P|428:318|339:339,1,140,10|0,0:2|0:2,0:2:0:0:
475,237,31021,1,2,0:2:0:0:
475,237,31188,1,0,0:2:0:0:
286,127,31355,1,2,3:2:0:0:
467,83,31521,1,0,3:2:0:0:
325,196,31688,1,2,0:2:0:0:
213,53,31855,1,0,0:2:0:0:
440,155,32021,6,0,P|426:76|436:-4,1,140,10|0,0:0|0:2,0:0:0:0:
272,0,32355,1,2,3:2:0:0:
272,0,32521,1,0,0:2:0:0:
181,124,32688,6,0,L|274:146,1,70,2|0,3:2|0:2,0:2:0:0:
286,210,32855,2,2,L|379:232,1,70,2|2,0:1|0:1,0:1:0:0:
308,92,33021,5,2,0:2:0:0:
308,92,33188,1,0,0:2:0:0:
151,234,33355,6,0,L|244:256,1,70,10|0,0:2|0:2,0:2:0:0:
256,320,33522,2,2,L|349:342,1,70,2|2,0:1|0:1,0:1:0:0:
60,374,33688,5,0,3:2:0:0:
9,318,33799,5,0,3:2:0:0:
2,242,33910,5,0,3:2:0:0:
43,179,34021,5,2,3:2:0:0:
180,149,34188,1,0,3:2:0:0:
162,69,34355,1,2,3:2:0:0:
162,69,34438,1,0,3:2:0:0:
278,23,34605,5,0,3:2:0:0:
278,23,34688,1,10,0:2:0:0:
259,194,34855,1,0,0:2:0:0:
259,194,34938,1,0,0:2:0:0:
259,194,35021,6,0,P|279:288|266:359,1,167.999994873047,6|0,3:2|3:2,0:2:0:0:
322,134,35355,1,2,0:2:0:0:
396,255,35521,1,0,0:2:0:0:
383,215,35604,1,0,0:2:0:0:
389,173,35687,1,2,0:2:0:0:
240,113,35855,5,0,3:2:0:0:
253,73,35938,1,0,0:2:0:0:
247,31,36021,1,10,0:2:0:0:
207,44,36105,1,0,0:2:0:0:
165,38,36188,1,0,0:2:0:0:
183,194,36355,6,0,P|167:158|167:80,1,83.9999974365235,0|0,0:2|0:2,0:2:0:0:
36,81,36521,2,0,P|52:45|52:-33,1,83.9999974365235,0|0,0:2|0:2,0:2:0:0:
0,313,36688,6,0,P|93:280|181:266,1,167.999994873047,2|0,3:2|0:2,0:0:0:0:
198,288,36938,1,0,0:2:0:0:
235,268,37021,1,2,0:2:0:0:
361,366,37188,5,0,0:2:0:0:
342,328,37271,1,0,0:2:0:0:
308,305,37354,1,10,0:2:0:0:
326,267,37438,1,0,0:2:0:0:
360,244,37521,1,0,0:2:0:0:
500,288,37688,6,0,P|443:294|385:319,1,83.9999974365235,2|0,3:2|0:2,0:2:0:0:
354,161,37855,2,0,P|297:155|239:130,1,83.9999974365235,0|0,3:2|0:2,0:2:0:0:
442,0,38021,5,2,0:2:0:0:
461,38,38104,1,0,0:2:0:0:
495,61,38187,1,0,0:2:0:0:
477,99,38271,1,0,0:2:0:0:
443,122,38354,1,2,0:2:0:0:
405,103,38438,1,0,0:2:0:0:
382,69,38521,1,0,3:2:0:0:
344,87,38605,1,0,0:2:0:0:
276,59,38688,6,2,P|294:142|266:62,1,245,8|0,0:2|0:2,0:1:0:0:
204,13,39355,5,2,3:2:0:0:
91,42,39521,1,0,3:2:0:0:
110,119,39688,1,2,0:2:0:0:
110,119,39771,1,0,3:2:0:0:
15,175,39938,5,0,3:2:0:0:
15,175,40021,1,10,0:2:0:0:
192,206,40188,2,0,L|202:260,1,35,2|0,0:2|0:0,0:2:0:0:
75,359,40355,6,0,P|87:264|121:178,1,167.999994873047,6|0,3:2|3:2,0:2:0:0:
268,162,40688,1,2,0:2:0:0:
347,281,40855,1,0,0:2:0:0:
351,239,40938,1,0,0:2:0:0:
336,200,41021,1,2,0:2:0:0:
165,328,41188,5,0,3:2:0:0:
205,335,41271,1,0,0:2:0:0:
229,368,41354,1,10,0:2:0:0:
262,343,41438,1,0,0:2:0:0:
269,303,41521,1,0,0:2:0:0:
424,359,41688,5,2,0:2:0:0:
424,359,41771,1,0,0:2:0:0:
473,372,41855,2,0,P|490:318|492:264,1,83.9999974365235,0|0,0:2|0:2,0:2:0:0:
355,215,42021,6,0,P|401:231|464:238,1,83.9999974365235,2|0,3:2|0:2,0:2:0:0:
499,94,42188,2,0,P|457:101|418:115,1,83.9999974365235,0|0,0:2|0:2,0:2:0:0:
270,94,42355,5,2,0:2:0:0:
287,131,42438,1,0,0:2:0:0:
287,173,42521,1,0,0:2:0:0:
257,202,42605,1,0,0:2:0:0:
243,241,42688,1,10,0:2:0:0:
108,132,42855,1,0,0:2:0:0:
44,256,43021,5,2,3:2:0:0:
44,256,43105,1,0,0:2:0:0:
90,226,43188,2,0,P|141:238|196:270,1,83.9999974365235,0|0,0:2|0:2,0:2:0:0:
343,379,43355,5,2,0:2:0:0:
243,346,43521,1,0,0:2:0:0:
243,241,43688,1,2,0:2:0:0:
343,209,43855,1,0,3:2:0:0:
404,294,44021,1,8,0:2:0:0:
404,294,44188,2,2,L|436:303,10,17.5,2|2|2|2|2|2|2|2|2|2|2,0:1|0:1|0:1|0:1|0:1|0:1|0:1|0:1|0:1|0:1|0:1,0:1:0:0:
429,312,44688,5,6,3:2:0:0:
497,226,44855,1,0,0:2:0:0:
462,219,44938,1,0,0:2:0:0:
432,202,45021,1,2,0:2:0:0:
409,176,45105,1,0,0:2:0:0:
395,144,45188,1,0,0:2:0:0:
393,109,45271,1,0,0:2:0:0:
402,76,45355,2,0,L|475:59,3,52.5000020027161,2|0|0|0,3:2|3:2|3:2|3:2,0:0:0:0:
320,67,45688,6,0,P|292:103|274:160,1,70,4|0,3:2|0:2,1:2:0:0:
116,168,45855,2,0,P|159:184|220:183,1,70,0|0,0:2|0:2,1:2:0:0:
277,330,46021,2,0,P|278:285|258:227,1,70,0|0,0:2|0:2,1:2:0:0:
380,127,46188,2,0,P|337:141|289:176,1,70,0|0,0:2|0:2,1:2:0:0:
156,91,46355,2,0,P|182:128|231:163,1,70,0|0,0:2|0:2,1:2:0:0:
191,316,46521,2,0,P|219:280|237:223,1,70,0|0,3:2|0:2,1:2:0:0:
394,214,46688,2,0,P|351:198|291:199,1,70,8|0,0:2|0:2,1:2:0:0:
233,52,46855,2,0,P|232:97|252:155,1,70,0|0,0:2|0:2,1:2:0:0:
130,255,47021,2,0,P|173:241|221:206,1,70,0|0,0:2|0:2,1:2:0:0:
354,291,47188,2,0,P|328:254|279:219,1,70,0|0,0:2|0:2,1:2:0:0:
320,67,47355,2,0,P|292:103|274:160,1,70,0|0,3:2|0:2,1:2:0:0:
116,168,47522,2,0,P|159:184|220:183,1,70,0|0,0:2|0:2,1:2:0:0:
277,330,47688,2,0,P|278:285|258:227,1,70,0|0,0:2|0:2,1:2:0:0:
380,127,47855,2,0,P|337:141|289:176,1,70,0|0,0:2|0:2,1:2:0:0:
156,91,48022,2,0,P|182:128|231:163,1,70,8|0,0:2|0:2,1:2:0:0:
191,316,48188,2,0,P|219:280|237:223,1,70,0|0,0:2|0:2,1:2:0:0:
394,214,48355,2,0,P|351:198|291:199,1,70,0|0,3:2|0:2,1:2:0:0:
233,52,48522,2,0,P|232:97|252:155,1,70,0|0,0:2|0:2,1:2:0:0:
130,255,48688,2,0,P|173:241|221:206,1,70,0|0,0:2|0:2,1:2:0:0:
354,291,48855,2,0,P|328:254|279:219,1,70,0|0,0:2|0:2,1:2:0:0:
320,67,49021,2,0,P|291:102|273:160,1,70,0|0,0:2|0:2,1:2:0:0:
116,168,49188,2,0,P|159:184|220:183,1,70,0|0,3:2|0:2,1:2:0:0:
362,138,49355,6,0,L|375:213,3,52.5000020027161,8|0|0|0,0:2|0:2|0:2|0:2,0:0:0:0:
442,226,49688,2,0,L|455:151,3,52.5000020027161,0|0|0|0,0:2|0:2|0:2|0:2,0:2:0:0:
501,282,50021,5,2,3:2:0:0:
481,329,50104,1,0,3:2:0:0:
436,355,50187,1,0,3:2:0:0:
385,349,50271,1,0,3:2:0:0:
348,312,50354,1,2,3:2:0:0:
303,287,50438,1,0,3:2:0:0:
252,290,50521,1,0,3:2:0:0:
210,320,50605,1,0,3:2:0:0:
191,368,50688,2,2,L|124:356,3,52.5000020027161,10|2|2|2,3:2|3:2|3:2|3:2,0:2:0:0:
69,384,51021,5,4,1:2:0:0:
69,384,51105,2,0,L|49:322,1,35,0|0,3:2|0:2,0:2:0:0:
69,0,51271,5,0,1:2:0:0:
69,0,51355,2,0,L|49:62,1,35,0|0,3:2|0:2,0:2:0:0:
132,326,51520,5,0,1:2:0:0:
132,326,51605,2,0,L|128:260,1,35,0|0,3:2|0:2,0:2:0:0:
132,58,51770,5,0,1:2:0:0:
132,58,51855,2,0,L|128:124,1,35,0|0,3:2|0:2,0:2:0:0:
208,286,52021,5,8,1:2:0:0:
207,286,52105,2,0,L|220:222,1,35,0|0,3:2|0:2,0:2:0:0:
208,98,52271,5,0,1:2:0:0:
207,98,52355,2,0,L|220:162,1,35,0|0,3:2|0:2,0:2:0:0:
293,268,52522,5,0,1:2:0:0:
293,268,52606,2,0,L|322:210,1,35,0|0,3:2|3:2,0:2:0:0:
293,116,52772,5,0,1:2:0:0:
293,116,52856,2,0,L|322:174,1,35,0|0,3:2|0:2,0:2:0:0:
381,259,53021,5,0,1:2:0:0:
381,259,53105,2,0,L|424:210,1,35,0|0,3:2|0:2,0:2:0:0:
381,125,53271,5,0,1:2:0:0:
381,125,53355,2,0,L|424:174,1,35,8|0,3:2|0:2,0:2:0:0:
481,251,53521,5,0,1:2:0:0:
481,250,53605,2,0,L|535:214,1,35,0|0,3:2|3:2,0:2:0:0:
481,133,53771,5,0,1:2:0:0:
481,134,53855,2,0,L|535:170,1,35,0|0,3:2|0:2,0:2:0:0:
221,223,54021,5,2,1:1:0:0:
221,223,54105,2,0,L|102:240,1,105.000004005432,2|0,3:1|0:2,0:2:0:0:
291,161,54271,5,2,1:1:0:0:
291,161,54355,2,0,L|410:144,1,105.000004005432,2|0,3:1|0:2,0:2:0:0:
297,361,54521,5,0,0:2:0:0:
297,361,54605,1,0,0:2:0:0:
297,361,54688,5,8,3:2:0:0:
317,320,54771,1,2,3:1:0:0:
318,275,54854,1,2,3:1:0:0:
297,234,54938,1,2,3:1:0:0:
215,150,55021,5,2,3:1:0:0:
194,109,55105,1,2,3:1:0:0:
195,64,55188,1,2,3:1:0:0:
215,23,55271,1,2,3:1:0:0:
215,23,55355,6,0,L|292:7,3,52.5000020027161,2|0|0|0,3:2|0:2|0:2|0:2,0:2:0:0:
171,95,55688,1,2,0:2:0:0:
145,89,55771,1,0,0:2:0:0:
119,84,55854,1,0,0:2:0:0:
93,79,55938,1,0,0:2:0:0:
69,75,56021,2,2,L|51:-1,3,52.5000020027161,10|2|2|2,0:2|0:2|0:2|0:2,0:2:0:0:
103,163,56355,6,0,P|148:170|191:189,1,87.5,4|0,3:2|0:2,1:2:0:0:
327,54,56521,2,0,P|306:95|275:130,1,87.5,0|0,0:2|0:2,1:2:0:0:
361,301,56688,2,0,P|329:269|305:228,1,87.5,0|0,0:2|0:2,1:2:0:0:
116,257,56855,2,0,P|157:236|202:227,1,87.5,0|0,3:2|0:2,1:2:0:0:
234,37,57021,2,0,P|241:83|236:129,1,87.5,0|0,0:2|0:2,1:2:0:0:
407,217,57187,2,0,P|361:210|318:191,1,87.5,0|0,3:2|0:2,1:2:0:0:
182,326,57354,2,0,P|203:285|234:250,1,87.5,8|0,0:2|0:2,1:2:0:0:
148,79,57521,2,0,P|180:111|204:152,1,87.5,0|0,0:2|0:2,1:2:0:0:
393,123,57688,2,0,P|352:144|307:153,1,87.5,0|0,0:2|0:2,1:2:0:0:
275,343,57855,2,0,P|268:297|273:251,1,87.5,0|0,0:2|0:2,1:2:0:0:
103,163,58021,2,0,P|148:170|191:189,1,87.5,0|0,3:2|0:2,1:2:0:0:
327,54,58188,2,0,P|306:95|275:130,1,87.5,0|0,0:2|0:2,1:2:0:0:
361,301,58355,2,0,P|329:269|305:228,1,87.5,0|0,0:2|0:2,1:2:0:0:
116,257,58521,2,0,P|157:236|202:227,1,87.5,0|0,3:2|0:2,1:2:0:0:
234,37,58688,2,0,P|241:83|236:129,1,87.5,8|0,0:2|0:2,1:2:0:0:
407,217,58855,2,0,P|361:210|318:191,1,87.5,0|0,0:2|0:2,1:2:0:0:
182,326,59021,2,0,P|203:285|234:250,1,87.5,0|0,3:2|0:2,1:2:0:0:
148,79,59188,2,0,P|180:111|204:152,1,87.5,0|0,0:2|0:2,1:2:0:0:
393,123,59355,2,0,P|352:144|307:153,1,87.5,0|0,0:2|0:2,1:2:0:0:
275,343,59521,2,0,P|268:297|273:251,1,87.5,0|0,3:2|0:2,1:2:0:0:
103,163,59688,2,0,P|148:170|191:189,1,87.5,0|0,0:2|0:2,1:2:0:0:
327,54,59855,2,0,P|306:95|275:130,1,87.5,0|0,3:2|0:2,1:2:0:0:
189,317,60021,6,0,L|175:241,3,52.5000020027161,8|0|0|0,0:2|0:2|0:2|0:2,0:0:0:0:
103,243,60355,2,0,L|89:319,3,52.5000020027161,0|0|0|0,0:2|0:2|0:2|0:2,0:2:0:0:
151,369,60688,5,0,3:2:0:0:
186,329,60771,1,0,3:2:0:0:
212,284,60854,1,0,3:2:0:0:
226,233,60938,1,0,3:2:0:0:
228,181,61021,1,0,3:2:0:0:
218,130,61104,1,0,3:2:0:0:
197,82,61188,1,0,3:2:0:0:
164,41,61271,1,0,3:2:0:0:
123,8,61355,2,2,L|57:22,3,52.5000020027161,10|2|2|2,3:2|3:2|3:2|3:2,3:2:0:0:
0,41,61688,5,4,1:2:0:0:
0,41,61771,2,0,L|18:94,1,35,0|0,3:2|0:2,0:2:0:0:
512,41,61938,5,0,1:2:0:0:
512,41,62021,2,0,L|494:94,1,35,0|0,3:2|0:2,0:2:0:0:
84,57,62188,5,0,1:2:0:0:
84,57,62271,2,0,L|82:112,1,35,0|0,3:2|0:2,0:2:0:0:
428,57,62438,5,0,1:2:0:0:
428,57,62521,2,0,L|429:112,1,35,0|0,3:2|0:2,0:2:0:0:
154,117,62688,5,8,1:2:0:0:
154,117,62771,2,0,L|133:169,1,35,0|0,3:2|0:2,0:2:0:0:
358,117,62938,5,0,1:2:0:0:
358,117,63021,2,0,L|378:169,1,35,0|0,3:2|0:2,0:2:0:0:
182,215,63188,5,0,1:2:0:0:
182,215,63271,2,0,L|145:257,1,35,0|0,3:2|3:2,0:2:0:0:
330,215,63438,5,0,1:2:0:0:
330,215,63521,2,0,L|366:257,1,35,0|0,3:2|0:2,0:2:0:0:
214,295,63688,5,0,1:2:0:0:
214,295,63771,2,0,L|164:321,1,35,0|0,3:2|3:2,0:2:0:0:
298,295,63938,5,0,1:2:0:0:
298,295,64021,2,0,L|347:321,1,35,8|0,3:2|0:2,0:2:0:0:
219,379,64188,5,0,1:2:0:0:
219,379,64271,2,0,L|163:387,1,35,0|0,3:2|3:2,0:2:0:0:
293,379,64438,5,0,1:2:0:0:
293,379,64521,2,0,L|348:387,1,35,0|0,3:2|0:2,0:2:0:0:
282,158,64688,5,2,1:1:0:0:
282,158,64771,2,0,L|255:-29,1,140,0|0,3:2|3:2,0:2:0:0:
230,226,64938,5,2,1:1:0:0:
230,226,65021,2,0,L|257:413,1,140,0|0,3:2|0:2,0:2:0:0:
59,130,65188,5,0,3:2:0:0:
59,130,65271,1,0,0:2:0:0:
59,130,65355,5,2,3:1:0:0:
109,107,65438,1,2,3:1:0:0:
164,115,65521,1,2,3:1:0:0:
206,151,65605,1,2,3:1:0:0:
306,233,65688,5,2,3:1:0:0:
348,269,65772,1,2,3:1:0:0:
403,277,65855,1,2,3:1:0:0:
453,254,65938,1,2,3:1:0:0:
453,254,66021,5,6,3:1:0:0:
256,192,66105,12,0,70021,0:2:0:0:
