osu file format v14

[General]
AudioFilename: audio.mp3
AudioLeadIn: 0
PreviewTime: -1
Countdown: 0
SampleSet: Soft
StackLeniency: 0.7
Mode: 0
LetterboxInBreaks: 0
WidescreenStoryboard: 0

[Editor]
DistanceSpacing: 1
BeatDivisor: 4
GridSize: 32
TimelineZoom: 2.4

[Metadata]
Title:Chicken Nugget
TitleUnicode:Chicken Nugget
Artist:WangleLine
ArtistUnicode:WangleLine
Creator:dodo0317
Version:Nugget
Source:
Tags:
BeatmapID:5294976
BeatmapSetID:2430719

[Difficulty]
HPDrainRate:3.8
CircleSize:3.5
OverallDifficulty:9.2
ApproachRate:9.6
SliderMultiplier:1.4
SliderTickRate:1

[Events]
//Background and Video events
0,0,"299544.jpg",0,0
//Break Periods
2,16578,18159
//Storyboard Layer 0 (Background)
//Storyboard Layer 1 (Fail)
//Storyboard Layer 2 (Pass)
//Storyboard Layer 3 (Foreground)
//Storyboard Layer 4 (Overlay)
//Storyboard Sound Samples

[TimingPoints]
353,315.789473684211,4,2,0,100,1,0
353,-58.8235294117647,4,2,0,100,0,0
3668,-83.3333333333333,4,2,0,100,0,0
4300,-66.6666666666667,4,2,0,100,0,0
6826,-50,4,2,0,100,0,0
7221,-1000,4,2,0,100,0,0
7931,-40,4,2,0,100,0,0
8879,-50,4,2,0,100,0,0
9116,-66.6666666666667,4,2,0,100,0,0
9984,-40,4,2,0,100,0,0
12826,-50,4,2,0,100,0,0
14721,-40,4,2,0,100,0,0
20089,-50,4,2,0,100,0,0
20247,-33.3333333333333,4,2,0,100,0,0
20405,-28.5714285714286,4,2,0,100,0,0

[HitObjects]
59,326,353,6,0,B|114:286|81:222|81:222|140:103,1,245
54,118,826,1,0,0:0:0:0:
416,128,984,5,0,0:0:0:0:
352,192,1063,1,0,0:0:0:0:
288,256,1142,2,0,B|261:300|261:300|307:360,1,119.000002269745
195,32,1458,6,0,B|232:58|271:85|271:85|175:94|218:185,2,238.00000453949
171,66,2168,6,0,P|140:124|136:130,1,59.5000011348725
256,192,2326,12,0,2800,0:0:0:0:
453,326,2879,6,0,B|398:286|431:222|431:222|372:103,1,245
458,118,3352,1,0,0:0:0:0:
294,336,3510,6,0,L|262:277,1,59.5000011348725
270,346,3668,2,0,L|249:306,1,41.9999987182618
218,96,3826,5,0,0:0:0:0:
77,123,3984,6,0,P|96:172|169:187,1,125.999996154785
145,243,4300,6,0,P|55:223|29:168,1,157.500006008148
128,352,4616,5,0,0:0:0:0:
255,160,4774,1,0,0:0:0:0:
384,352,5089,5,0,0:0:0:0:
111,148,5405,6,0,B|192:21|192:21,1,105.000004005432
148,236,5642,1,0,0:0:0:0:
182,149,5721,6,0,P|220:90|228:56,1,105.000004005432
360,106,5958,5,0,0:0:0:0:
448,160,6037,5,0,0:0:0:0:
416,192,6116,1,0,0:0:0:0:
384,226,6195,2,0,L|310:148,1,105.000004005432
112,50,6510,6,0,B|159:90|159:90|156:147,1,105.000004005432
159,229,6826,6,0,B|93:162|93:162|96:105,1,140
128,288,7142,5,0,0:0:0:0:
256,320,7221,1,0,0:0:0:0:
224,192,7300,2,0,L|205:178,1,24.5
431,331,7931,6,0,P|497:261|459:205,2,175
385,239,8405,1,0,0:0:0:0:
64,256,8563,5,0,0:0:0:0:
160,160,8642,1,0,0:0:0:0:
288,128,8721,1,0,0:0:0:0:
64,82,8879,5,0,0:0:0:0:
172,317,9037,6,0,L|317:335,1,140
198,265,9353,6,0,L|313:278,1,105.000004005432
76,58,9668,5,0,0:0:0:0:
229,131,9826,1,0,0:0:0:0:
453,169,9984,2,0,B|391:130|340:145|340:145|318:176|336:220|340:249|340:249|336:301|336:301|451:320|451:320|453:151,1,525
43,340,10616,6,0,P|120:164|140:136,1,175
332,44,10931,6,0,P|260:67|262:118,1,87.5
225,158,11089,5,0,0:0:0:0:
351,256,11168,1,0,0:0:0:0:
480,352,11247,6,0,L|435:217,1,87.5
323,352,11405,1,0,0:0:0:0:
454,221,11563,2,0,P|446:146|416:109,1,87.5
201,352,11721,2,0,L|104:356,1,87.5
64,250,11879,2,0,P|23:197|57:165,1,87.5
117,104,12037,1,0,0:0:0:0:
386,41,12195,6,0,B|289:66|289:66|280:201,1,175
215,282,12510,6,0,L|153:219,1,87.5
319,331,12668,1,0,0:0:0:0:
391,263,12826,2,0,B|448:173|496:200,1,70
424,39,12984,2,0,L|322:81,1,70
69,117,13142,2,0,L|123:44,1,70
137,278,13300,1,0,0:0:0:0:
248,283,13458,6,0,P|301:356|327:354,1,70
416,352,13616,5,0,0:0:0:0:
448,224,13695,1,0,0:0:0:0:
480,96,13774,2,0,P|411:77|363:97,1,70
310,192,13931,5,0,0:0:0:0:
64,352,14089,6,0,P|18:323|15:268,1,70
128,192,14247,6,0,P|160:204|179:233,1,70
256,279,14405,6,0,P|316:282|343:330,1,70
202,138,14563,5,0,0:0:0:0:
368,60,14721,6,0,P|436:39|463:134,1,175
419,243,15037,2,0,P|421:326|346:327,1,175
332,238,15353,6,0,B|350:207|248:228|229:103,1,175
82,114,15668,6,0,L|54:214,1,87.5
92,287,15826,1,0,0:0:0:0:
243,283,15984,6,0,B|313:276|319:338|442:312,1,175
448,288,16142,5,0,0:0:0:0:
384,160,16221,1,0,0:0:0:0:
352,32,16300,2,0,L|257:103,1,87.5
288,128,18668,5,0,0:0:0:0:
160,192,18747,1,0,0:0:0:0:
288,256,18826,1,0,0:0:0:0:
128,224,20089,6,0,L|160:315,1,70
384,160,20247,2,0,L|335:64,1,105.000004005432
192,96,20405,1,0,0:0:0:0:
320,288,20484,1,0,0:0:0:0:
341,50,21984,6,0,L|344:311,1,245.000002336502
256,192,22221,12,0,24353,0:0:0:0:
