osu file format v14

[General]
AudioFilename: audio.mp3
AudioLeadIn: 0
PreviewTime: 38653
Countdown: 0
SampleSet: None
StackLeniency: 0.7
Mode: 0
LetterboxInBreaks: 0
WidescreenStoryboard: 0

[Editor]
DistanceSpacing: 0.6
BeatDivisor: 4
GridSize: 32
TimelineZoom: 2.3

[Metadata]
Title:TA LINDA MAAH (Cut. Ver)
TitleUnicode:TA LINDA MAAH (Cut. Ver)
Artist:Wander Love
ArtistUnicode:Wander Love
Creator:[YUUTA]
Version:Linda
Source:Spotify
Tags:1,2jumps raggaeton dominicano jump map Wander Love Cut Ver
BeatmapID:4556944
BeatmapSetID:2160946

[Difficulty]
HPDrainRate:7
CircleSize:4
OverallDifficulty:5
ApproachRate:9
SliderMultiplier:1.4
SliderTickRate:1

[Events]
//Background and Video events
0,0,"online_background_afd8418f66dff05b3e9811dacdda8536.jpg",0,0
//Break Periods
2,9429,10476
2,11276,12322
2,24429,26168
2,27892,30784
//Storyboard Layer 0 (Background)
//Storyboard Layer 1 (Fail)
//Storyboard Layer 2 (Pass)
//Storyboard Layer 3 (Foreground)
//Storyboard Layer 4 (Overlay)
//Storyboard Sound Samples

[TimingPoints]
3692,461.538461538462,4,1,0,100,1,0
5768,-66.6666666666667,4,1,0,100,0,1
8884,-50,4,1,0,100,0,1
9230,-50,4,1,0,100,0,0
12922,-100,4,1,0,100,0,0
27692,-100,4,1,0,100,0,0
31384,-66.6666666666667,4,1,0,100,0,0
38307,-66.6666666666667,4,1,0,100,0,0
38768,-45.4545454545455,4,1,0,88,0,1
46038,-45.4545454545455,4,1,0,100,0,1
49384,-100,4,1,0,100,0,1
52845,-23.8095238095238,4,1,0,100,0,1
53422,-100,4,1,0,100,0,0
59076,-133.333333333333,4,1,0,100,0,0
68307,-133.333333333333,4,1,0,90,0,1
78922,-133.333333333333,4,1,0,80,0,0

[HitObjects]
155,97,3692,5,0,0:0:0:0:
227,172,4153,1,0,0:0:0:0:
241,233,4268,2,0,L|284:242,1,35
356,155,4845,2,0,L|346:194,1,35
284,226,5076,1,0,0:0:0:0:
98,130,5307,2,0,L|129:169,1,35
185,206,5538,1,0,0:0:0:0:
274,99,5768,6,0,P|312:143|307:191,1,105.000004005432
126,98,6230,1,0,0:0:0:0:
126,98,6345,1,0,0:0:0:0:
126,98,6461,1,0,0:0:0:0:
227,117,6692,2,0,B|275:151|264:177|305:191|306:162,1,105.000004005432
345,66,7153,1,0,0:0:0:0:
345,66,7268,1,0,0:0:0:0:
345,66,7384,2,0,B|368:120|346:138|332:151|354:180|353:188,2,105.000004005432
327,221,8076,1,0,0:0:0:0:
85,199,8307,6,0,L|143:233,1,52.5000020027161
186,202,8538,1,0,0:0:0:0:
186,202,8653,1,0,0:0:0:0:
186,202,8768,1,0,0:0:0:0:
305,103,8999,2,0,B|347:177|304:203|308:241|302:252|281:256,1,140
255,190,11076,5,0,0:0:0:0:
255,188,12922,5,0,0:0:0:0:
346,174,13038,2,0,B|345:216|337:224|323:224,1,35
258,296,13268,1,0,0:0:0:0:
139,152,13384,2,0,P|121:191|132:204,1,35
365,126,13615,1,0,0:0:0:0:
365,126,13730,1,0,0:0:0:0:
330,233,13845,2,0,L|354:274,3,35
240,302,14307,2,0,P|185:288|185:279,1,70
355,148,14768,6,0,P|368:189|366:198,1,35
286,276,14999,1,0,0:0:0:0:
286,276,15115,1,0,0:0:0:0:
286,276,15230,1,0,0:0:0:0:
118,185,15345,1,0,0:0:0:0:
118,185,15461,2,0,L|129:224,1,35
319,140,15692,2,0,L|311:187,1,35
400,256,15922,1,0,0:0:0:0:
394,139,16038,1,0,0:0:0:0:
394,139,16153,1,0,0:0:0:0:
219,142,16383,6,0,P|173:164|165:177,1,35
149,238,16614,1,0,0:0:0:0:
149,238,16730,1,0,0:0:0:0:
195,282,16845,1,0,0:0:0:0:
252,311,16960,1,0,0:0:0:0:
311,294,17076,1,0,0:0:0:0:
343,262,17191,2,0,L|359:229,1,35
146,166,17538,2,0,P|185:120|207:118,2,70
172,93,18230,6,0,P|145:130|153:138,1,70
247,184,18576,1,0,0:0:0:0:
247,184,18692,1,0,0:0:0:0:
247,184,18807,1,0,0:0:0:0:
372,229,18922,2,0,P|356:274|323:293,1,70
157,310,19384,1,0,0:0:0:0:
337,125,19615,2,0,L|305:164,2,35
133,91,20076,2,0,P|109:124|110:140,1,35
148,201,20307,5,0,0:0:0:0:
237,248,20422,1,0,0:0:0:0:
290,164,20538,1,0,0:0:0:0:
290,164,20653,1,0,0:0:0:0:
237,248,20768,1,0,0:0:0:0:
148,201,20884,1,0,0:0:0:0:
99,127,20999,2,0,P|78:160|80:176,1,35
168,271,21230,2,0,P|197:248|197:232,1,35
296,119,21692,5,0,0:0:0:0:
363,160,21807,2,0,L|352:198,1,35
297,266,22038,2,0,L|252:255,1,35
201,204,22268,2,0,L|214:157,1,35
281,137,22499,2,0,L|328:153,1,35
377,204,22730,1,0,0:0:0:0:
393,284,22845,1,0,0:0:0:0:
322,333,22961,1,0,0:0:0:0:
217,208,23076,2,0,L|226:249,2,35
99,93,23538,6,0,L|112:168,1,70
372,116,23999,2,0,L|332:182,1,70
256,192,26768,12,0,27461,0:0:0:0:
255,192,27692,5,0,0:0:0:0:
255,191,31384,5,0,0:0:0:0:
312,104,31615,1,0,0:0:0:0:
350,185,31845,2,0,P|322:234|310:235,1,52.5000020027161
128,106,32076,1,0,0:0:0:0:
230,89,32192,1,0,0:0:0:0:
265,189,32307,1,0,0:0:0:0:
155,193,32538,2,0,P|154:251|204:273,1,105.000004005432
282,87,32999,6,0,P|317:132|314:146,1,52.5000020027161
237,164,33230,1,0,0:0:0:0:
290,262,33461,1,0,0:0:0:0:
143,298,33692,1,0,0:0:0:0:
124,169,33922,1,0,0:0:0:0:
124,169,34038,1,0,0:0:0:0:
124,169,34153,1,0,0:0:0:0:
216,102,34384,2,0,P|255:140|255:147,1,52.5000020027161
190,182,34615,2,0,P|206:236|216:242,1,52.5000020027161
298,175,34845,5,0,0:0:0:0:
401,257,34961,1,0,0:0:0:0:
206,291,35076,1,0,0:0:0:0:
330,102,35307,2,0,P|381:131|384:150,2,52.5000020027161
113,193,35768,2,0,P|121:244|126:249,2,52.5000020027161
409,229,36230,2,0,P|391:292|374:304,2,52.5000020027161
314,91,36692,1,0,0:0:0:0:
314,91,36807,1,0,0:0:0:0:
314,91,36922,1,0,0:0:0:0:
132,144,37153,5,0,0:0:0:0:
132,144,37268,1,0,0:0:0:0:
132,144,37384,1,0,0:0:0:0:
320,160,37615,1,0,0:0:0:0:
320,160,37730,1,0,0:0:0:0:
325,156,37845,2,0,P|355:206|348:226,1,52.5000020027161
117,230,38076,2,0,P|134:288|148:299,1,52.5000020027161
124,100,38768,6,0,P|119:185|166:230,1,154.000004699707
256,64,39115,5,0,0:0:0:0:
416,288,39230,1,0,0:0:0:0:
416,64,39345,5,0,0:0:0:0:
256,288,39461,1,0,0:0:0:0:
64,64,39576,5,0,0:0:0:0:
128,288,39692,1,0,0:0:0:0:
256,64,39807,5,0,0:0:0:0:
256,288,39922,1,0,0:0:0:0:
416,64,40038,5,0,0:0:0:0:
384,288,40153,1,0,0:0:0:0:
288,224,40268,5,0,0:0:0:0:
192,64,40384,1,0,0:0:0:0:
96,256,40499,5,0,0:0:0:0:
192,64,40615,1,0,0:0:0:0:
288,64,40730,6,0,P|352:128|352:160,1,77.0000023498536
64,192,40961,2,0,P|96:288|128:288,1,77.0000023498536
288,288,41192,5,0,0:0:0:0:
288,288,41307,1,0,0:0:0:0:
288,288,41422,5,0,0:0:0:0:
384,128,41538,1,0,0:0:0:0:
96,96,41653,5,0,0:0:0:0:
96,256,41768,1,0,0:0:0:0:
96,96,41884,5,0,0:0:0:0:
192,192,41999,1,0,0:0:0:0:
96,96,42115,5,0,0:0:0:0:
160,160,42230,1,0,0:0:0:0:
96,96,42345,5,0,0:0:0:0:
96,192,42461,1,0,0:0:0:0:
256,64,42576,6,0,P|320:128|320:160,3,77.0000023498536
320,288,43038,1,0,0:0:0:0:
160,192,43153,5,0,0:0:0:0:
160,288,43268,1,0,0:0:0:0:
256,192,43384,5,0,0:0:0:0:
256,288,43499,1,0,0:0:0:0:
160,192,43615,5,0,0:0:0:0:
160,288,43730,1,0,0:0:0:0:
256,192,43845,5,0,0:0:0:0:
256,288,43961,1,0,0:0:0:0:
320,96,44076,6,0,L|384:160,3,77.0000023498536
256,192,44538,12,0,45922,0:0:0:0:
96,96,46153,6,0,L|128:192,1,77.0000023498536
320,96,46384,2,0,L|288:192,1,77.0000023498536
96,256,46615,5,0,0:0:0:0:
224,320,46730,1,0,0:0:0:0:
224,224,46845,5,0,0:0:0:0:
96,352,46961,1,0,0:0:0:0:
128,160,47076,5,0,0:0:0:0:
256,288,47192,1,0,0:0:0:0:
224,128,47307,5,0,0:0:0:0:
160,320,47422,1,0,0:0:0:0:
128,128,47538,5,0,0:0:0:0:
256,320,47653,1,0,0:0:0:0:
352,128,47768,6,0,L|320:224,1,77.0000023498536
160,128,47999,2,0,L|224:224,1,77.0000023498536
416,224,48230,6,0,L|320:256,1,77.0000023498536
64,160,48461,2,0,L|160:224,1,77.0000023498536
224,96,48692,5,0,0:0:0:0:
256,256,48807,1,0,0:0:0:0:
224,96,48922,5,0,0:0:0:0:
160,256,49038,1,0,0:0:0:0:
224,96,49153,5,0,0:0:0:0:
256,256,49268,1,0,0:0:0:0:
348,120,49384,6,0,P|377:144|374:160,4,35
339,302,49961,1,0,0:0:0:0:
145,124,50076,5,0,0:0:0:0:
203,294,50192,1,0,0:0:0:0:
247,90,50307,5,0,0:0:0:0:
301,257,50422,1,0,0:0:0:0:
72,198,50538,6,0,P|76:247|86:261,3,35
328,93,50999,2,0,P|356:129|357:146,1,35
352,213,51230,6,0,B|348:266|348:265,1,35
85,96,51461,2,0,L|102:135,1,35
113,247,51692,6,0,L|143:290,1,35
240,97,51922,2,0,L|241:148,1,35
377,172,52153,6,0,L|337:228,1,35
148,168,52384,2,0,L|185:208,1,35
343,135,52615,6,0,L|323:197,1,35
202,89,52845,6,0,L|246:255,1,146.999995513916
255,295,53076,2,0,L|212:120,1,146.999995513916
216,144,53307,5,0,0:0:0:0:
216,144,53538,1,0,0:0:0:0:
389,111,53768,6,0,P|420:153|419:157,1,35
385,240,53999,1,0,0:0:0:0:
116,118,54115,1,0,0:0:0:0:
225,109,54230,2,0,P|265:152|260:162,1,70
257,229,54692,1,0,0:0:0:0:
257,229,54807,1,0,0:0:0:0:
257,229,54922,1,0,0:0:0:0:
185,117,55153,5,0,0:0:0:0:
118,173,55268,2,0,L|131:220,1,35
235,188,55499,2,0,L|217:237,1,35
145,270,55730,2,0,L|170:304,1,35
315,98,55961,1,0,0:0:0:0:
393,144,56076,2,0,L|375:180,1,35
340,253,56307,1,0,0:0:0:0:
208,140,56422,1,0,0:0:0:0:
119,242,56538,1,0,0:0:0:0:
265,206,56653,6,0,L|247:260,1,35
316,125,56884,1,0,0:0:0:0:
354,160,56999,1,0,0:0:0:0:
376,262,57230,2,0,L|337:292,1,35
308,286,57461,2,0,L|269:282,1,35
239,257,57692,2,0,L|223:219,1,35
164,96,57922,5,0,0:0:0:0:
118,216,58038,1,0,0:0:0:0:
272,178,58153,1,0,0:0:0:0:
342,140,58268,1,0,0:0:0:0:
387,209,58384,2,0,P|379:254|365:257,1,35
212,270,58615,2,0,L|246:297,1,35
332,277,58845,1,0,0:0:0:0:
389,175,58961,1,0,0:0:0:0:
284,76,59076,1,0,0:0:0:0:
105,97,59192,6,8,L|118:140,1,26.2500010013581
392,85,59422,2,8,L|390:136,1,26.2500010013581
194,132,59653,2,0,L|206:158,1,26.2500010013581
319,147,59884,2,0,L|303:173,1,26.2500010013581
235,225,60115,1,0,0:0:0:0:
235,225,60230,1,0,0:0:0:0:
235,225,60345,1,0,0:0:0:0:
235,225,60461,1,0,0:0:0:0:
256,192,60922,5,0,0:0:0:0:
331,113,61038,2,0,P|358:140|357:149,1,26.2500010013581
364,240,61268,1,0,0:0:0:0:
364,240,61384,1,0,0:0:0:0:
99,185,61499,2,0,P|103:231|104:232,1,26.2500010013581
161,284,61730,1,0,0:0:0:0:
243,106,61845,1,0,0:0:0:0:
321,281,61961,1,0,0:0:0:0:
369,155,62076,2,0,P|393:194|389:200,1,52.5000020027161
131,108,62538,6,0,L|152:135,1,26.2500010013581
228,153,62768,1,0,0:0:0:0:
350,122,62999,1,0,0:0:0:0:
379,182,63115,1,0,0:0:0:0:
370,244,63230,1,0,0:0:0:0:
123,160,63461,2,0,L|142:198,1,26.2500010013581
106,237,63692,2,0,L|144:257,1,26.2500010013581
246,109,63922,1,0,0:0:0:0:
334,199,64038,1,0,0:0:0:0:
215,225,64153,5,0,0:0:0:0:
348,106,64384,2,0,P|371:131|367:143,1,26.2500010013581
387,229,64615,1,0,0:0:0:0:
143,173,64845,2,0,P|155:222|163:224,1,52.5000020027161
255,191,66461,5,0,0:0:0:0:
327,102,66922,2,0,P|356:126|365:149,1,52.5000020027161
120,160,67615,2,0,L|139:188,1,26.2500010013581
294,98,67845,2,0,L|301:129,1,26.2500010013581
300,211,68076,1,0,0:0:0:0:
300,211,68192,1,0,0:0:0:0:
106,114,68307,5,0,0:0:0:0:
177,264,68422,1,0,0:0:0:0:
121,200,68538,5,0,0:0:0:0:
263,296,68653,1,0,0:0:0:0:
270,96,68768,5,0,0:0:0:0:
341,195,68884,1,0,0:0:0:0:
196,165,68999,5,0,0:0:0:0:
260,237,69115,1,0,0:0:0:0:
389,121,69230,5,0,0:0:0:0:
396,256,69345,1,0,0:0:0:0:
265,140,69461,5,0,0:0:0:0:
241,286,69576,1,0,0:0:0:0:
94,126,69692,6,0,P|68:161|77:172,1,52.5000020027161
346,119,70153,2,0,P|375:142|379:162,1,52.5000020027161
325,256,70615,5,0,0:0:0:0:
219,119,70730,1,0,0:0:0:0:
339,71,70845,5,0,0:0:0:0:
322,202,70961,1,0,0:0:0:0:
175,143,71076,5,0,0:0:0:0:
256,290,71192,1,0,0:0:0:0:
80,180,71307,5,0,0:0:0:0:
154,306,71422,1,0,0:0:0:0:
157,98,71538,5,0,0:0:0:0:
323,262,71653,1,0,0:0:0:0:
161,175,71768,5,0,0:0:0:0:
388,210,71884,1,0,0:0:0:0:
181,124,71999,5,0,0:0:0:0:
390,264,72115,1,0,0:0:0:0:
228,100,72230,5,0,0:0:0:0:
353,310,72345,1,0,0:0:0:0:
194,342,72461,6,0,P|165:310|163:298,1,52.5000020027161
301,89,72922,2,0,P|336:89|346:111,1,52.5000020027161
386,226,73384,2,0,P|390:271|376:288,2,52.5000020027161
166,98,74076,6,0,P|126:120|124:140,1,52.5000020027161
172,263,74422,1,0,0:0:0:0:
265,154,74538,5,0,0:0:0:0:
370,297,74653,1,0,0:0:0:0:
150,171,74768,5,0,0:0:0:0:
268,304,74884,1,0,0:0:0:0:
356,113,74999,5,0,0:0:0:0:
190,300,75115,1,0,0:0:0:0:
226,96,75230,5,0,0:0:0:0:
348,275,75345,1,0,0:0:0:0:
123,173,75461,5,0,0:0:0:0:
305,239,75576,1,0,0:0:0:0:
199,77,75692,5,0,0:0:0:0:
232,300,75807,1,0,0:0:0:0:
334,95,75922,6,0,P|366:133|370:150,1,52.5000020027161
341,237,76384,1,0,0:0:0:0:
177,202,76499,5,0,0:0:0:0:
341,237,76615,1,0,0:0:0:0:
79,169,76730,6,0,P|74:218|88:235,1,52.5000020027161
152,303,77076,1,0,0:0:0:0:
246,97,77192,5,0,0:0:0:0:
380,295,77307,1,0,0:0:0:0:
131,147,77422,5,0,0:0:0:0:
232,296,77538,1,0,0:0:0:0:
363,111,77653,5,0,0:0:0:0:
323,276,77768,1,0,0:0:0:0:
204,95,77884,5,0,0:0:0:0:
154,277,77999,1,0,0:0:0:0:
153,277,78115,1,0,0:0:0:0:
154,277,78230,1,0,0:0:0:0:
154,277,78345,1,0,0:0:0:0:
154,277,78461,1,0,0:0:0:0:
