osu file format v14

[General]
AudioFilename: Tsugaru Setsu.ogg
AudioLeadIn: 0
PreviewTime: 91062
Countdown: 0
SampleSet: Normal
StackLeniency: 0.7
Mode: 3
LetterboxInBreaks: 0
SpecialStyle: 0
WidescreenStoryboard: 0

[Editor]
DistanceSpacing: 0.8
BeatDivisor: 4
GridSize: 32
TimelineZoom: 1.5

[Metadata]
Title:Tsugaru Setsu long ver. feat. Iwasaki Aiko
TitleUnicode:津軽雪 long ver. feat. 岩崎愛子
Artist:Wanashi vs. Amuro
ArtistUnicode:罠師 vs. 安室
Creator:Doshowz
Version:Challenge
Source:beatmania IIDX 24 SINOBUZ
Tags:electronic japanese folk video game konami bemani bm2dx 25 CANNON BALLERS ORIGINAL SOUNDTRACK ost vocal dump DongShaoZhou Entertainment
BeatmapID:4161275
BeatmapSetID:2001213

[Difficulty]
HPDrainRate:8
CircleSize:4
OverallDifficulty:8
ApproachRate:5
SliderMultiplier:1.4
SliderTickRate:1

[Events]
//Background and Video events
0,0,"bg.jpg",0,0
//Break Periods
//Storyboard Layer 0 (Background)
//Storyboard Layer 1 (Fail)
//Storyboard Layer 2 (Pass)
//Storyboard Layer 3 (Foreground)
//Storyboard Layer 4 (Overlay)
//Storyboard Sound Samples

[TimingPoints]
1001,375,4,1,1,30,1,0
239501,-100,4,1,1,30,0,1
287501,-100,4,1,1,30,0,0

[HitObjects]
64,192,2313,5,0,0:0:0:0:
64,192,2501,1,0,0:0:0:0:
448,192,2501,1,0,0:0:0:0:
320,192,2688,1,0,0:0:0:0:
192,192,2876,1,0,0:0:0:0:
64,192,3063,1,0,0:0:0:0:
448,192,3251,1,0,0:0:0:0:
320,192,3438,1,0,0:0:0:0:
192,192,3626,1,0,0:0:0:0:
64,192,3813,1,0,0:0:0:0:
448,192,4001,1,0,0:0:0:0:
320,192,4188,1,0,0:0:0:0:
192,192,4376,1,0,0:0:0:0:
64,192,4563,1,0,0:0:0:0:
448,192,4751,1,0,0:0:0:0:
320,192,4938,1,0,0:0:0:0:
192,192,5126,1,0,0:0:0:0:
64,192,5313,1,0,0:0:0:0:
448,192,5501,1,0,0:0:0:0:
320,192,5688,1,0,0:0:0:0:
192,192,5876,1,0,0:0:0:0:
64,192,6063,1,0,0:0:0:0:
448,192,6251,1,0,0:0:0:0:
320,192,6438,1,0,0:0:0:0:
192,192,6626,1,0,0:0:0:0:
64,192,6813,1,0,0:0:0:0:
448,192,7001,1,0,0:0:0:0:
320,192,7188,1,0,0:0:0:0:
192,192,7376,1,0,0:0:0:0:
64,192,7563,1,0,0:0:0:0:
448,192,7751,1,0,0:0:0:0:
320,192,7938,1,0,0:0:0:0:
192,192,8126,1,0,0:0:0:0:
64,192,8313,1,0,0:0:0:0:
320,192,8501,1,0,0:0:0:0:
448,192,8501,1,0,0:0:0:0:
64,192,8501,1,4,0:0:0:0:
448,192,8594,1,0,0:0:0:0:
192,192,8688,1,0,0:0:0:0:
320,192,8782,1,0,0:0:0:0:
64,192,8876,1,0,0:0:0:0:
448,192,8969,1,0,0:0:0:0:
64,192,9063,1,0,0:0:0:0:
192,192,9157,1,0,0:0:0:0:
448,192,9251,1,0,0:0:0:0:
320,192,9438,1,0,0:0:0:0:
192,192,9626,1,0,0:0:0:0:
64,192,9813,1,0,0:0:0:0:
320,192,9813,1,0,0:0:0:0:
320,192,10001,1,0,0:0:0:0:
64,192,10001,1,4,0:0:0:0:
448,192,10001,1,0,0:0:0:0:
448,192,10094,1,0,0:0:0:0:
192,192,10188,1,0,0:0:0:0:
320,192,10282,1,0,0:0:0:0:
64,192,10376,1,0,0:0:0:0:
448,192,10469,1,0,0:0:0:0:
64,192,10563,1,0,0:0:0:0:
192,192,10657,1,0,0:0:0:0:
448,192,10751,1,0,0:0:0:0:
320,192,10938,1,0,0:0:0:0:
192,192,11126,1,0,0:0:0:0:
64,192,11313,1,0,0:0:0:0:
320,192,11313,1,0,0:0:0:0:
64,192,11407,1,0,0:0:0:0:
448,192,11501,1,4,0:0:0:0:
192,192,11501,1,0,0:0:0:0:
320,192,11501,1,0,0:0:0:0:
448,192,11594,1,0,0:0:0:0:
192,192,11688,1,0,0:0:0:0:
448,192,11782,1,0,0:0:0:0:
320,192,11876,1,0,0:0:0:0:
64,192,11969,1,0,0:0:0:0:
192,192,12063,1,0,0:0:0:0:
448,192,12063,1,0,0:0:0:0:
192,192,12157,1,0,0:0:0:0:
320,192,12251,1,0,0:0:0:0:
64,192,12251,1,0,0:0:0:0:
448,192,12251,1,4,0:0:0:0:
320,192,12344,1,0,0:0:0:0:
192,192,12438,1,0,0:0:0:0:
64,192,12532,1,0,0:0:0:0:
320,192,12626,1,0,0:0:0:0:
192,192,12719,1,0,0:0:0:0:
448,192,12813,1,0,0:0:0:0:
320,192,12907,1,0,0:0:0:0:
320,192,14313,1,0,0:0:0:0:
192,192,14501,1,0,0:0:0:0:
64,192,14501,1,4,0:0:0:0:
448,192,14501,1,0,0:0:0:0:
64,192,14688,1,0,0:0:0:0:
320,192,14688,1,0,0:0:0:0:
64,192,14876,1,0,0:0:0:0:
320,192,14876,1,0,0:0:0:0:
192,192,15063,1,0,0:0:0:0:
448,192,15063,1,0,0:0:0:0:
192,192,15157,1,0,0:0:0:0:
320,192,15157,1,0,0:0:0:0:
64,192,15251,1,0,0:0:0:0:
448,192,15251,1,0,0:0:0:0:
192,192,15438,1,0,0:0:0:0:
320,192,15532,1,0,0:0:0:0:
64,192,15626,1,0,0:0:0:0:
448,192,15626,1,0,0:0:0:0:
320,192,15813,1,0,0:0:0:0:
448,192,15813,1,0,0:0:0:0:
320,192,15907,1,0,0:0:0:0:
64,192,16001,1,0,0:0:0:0:
192,192,16001,1,0,0:0:0:0:
192,192,16188,1,0,0:0:0:0:
448,192,16188,1,0,0:0:0:0:
192,192,16376,1,0,0:0:0:0:
448,192,16376,1,0,0:0:0:0:
64,192,16563,1,0,0:0:0:0:
320,192,16563,1,0,0:0:0:0:
192,192,16657,1,0,0:0:0:0:
448,192,16657,1,0,0:0:0:0:
64,192,16751,1,0,0:0:0:0:
448,192,16751,1,0,0:0:0:0:
320,192,16938,1,0,0:0:0:0:
64,192,17032,1,0,0:0:0:0:
192,192,17126,1,0,0:0:0:0:
448,192,17126,1,0,0:0:0:0:
64,192,17313,1,0,0:0:0:0:
192,192,17313,1,0,0:0:0:0:
448,192,17407,1,0,0:0:0:0:
64,192,17501,1,0,0:0:0:0:
320,192,17501,1,0,0:0:0:0:
192,192,17688,1,0,0:0:0:0:
320,192,17688,1,0,0:0:0:0:
192,192,17876,1,0,0:0:0:0:
320,192,17876,1,0,0:0:0:0:
64,192,18063,1,0,0:0:0:0:
448,192,18063,1,0,0:0:0:0:
320,192,18157,1,0,0:0:0:0:
448,192,18157,1,0,0:0:0:0:
64,192,18251,1,0,0:0:0:0:
192,192,18251,1,0,0:0:0:0:
192,192,18438,1,0,0:0:0:0:
320,192,18532,1,0,0:0:0:0:
64,192,18626,1,0,0:0:0:0:
448,192,18626,1,0,0:0:0:0:
192,192,18813,1,0,0:0:0:0:
448,192,18813,1,0,0:0:0:0:
192,192,18907,1,0,0:0:0:0:
64,192,19001,1,0,0:0:0:0:
320,192,19001,1,0,0:0:0:0:
320,192,19188,1,0,0:0:0:0:
448,192,19188,1,0,0:0:0:0:
320,192,19376,1,0,0:0:0:0:
448,192,19376,1,0,0:0:0:0:
192,192,19563,1,0,0:0:0:0:
64,192,19563,1,0,0:0:0:0:
192,192,19657,1,0,0:0:0:0:
448,192,19657,1,0,0:0:0:0:
64,192,19751,1,0,0:0:0:0:
320,192,19751,1,0,0:0:0:0:
320,192,19844,1,0,0:0:0:0:
448,192,19844,1,0,0:0:0:0:
192,192,19938,1,0,0:0:0:0:
320,192,20032,1,0,0:0:0:0:
64,192,20126,1,0,0:0:0:0:
448,192,20126,1,0,0:0:0:0:
64,192,20313,1,0,0:0:0:0:
192,192,20313,1,0,0:0:0:0:
192,192,20407,1,0,0:0:0:0:
320,192,20407,1,0,0:0:0:0:
64,192,20501,1,0,0:0:0:0:
448,192,20501,1,0,0:0:0:0:
320,192,20594,1,0,0:0:0:0:
448,192,20594,1,0,0:0:0:0:
64,192,20688,1,0,0:0:0:0:
192,192,20688,1,0,0:0:0:0:
64,192,20876,1,0,0:0:0:0:
192,192,20876,1,0,0:0:0:0:
448,192,21063,1,0,0:0:0:0:
320,192,21063,1,0,0:0:0:0:
320,192,21157,1,0,0:0:0:0:
64,192,21157,1,0,0:0:0:0:
448,192,21251,1,0,0:0:0:0:
64,192,21251,1,0,0:0:0:0:
192,192,21344,1,0,0:0:0:0:
320,192,21344,1,0,0:0:0:0:
64,192,21438,1,0,0:0:0:0:
192,192,21532,1,0,0:0:0:0:
64,192,21626,1,0,0:0:0:0:
448,192,21626,1,0,0:0:0:0:
192,192,21813,1,0,0:0:0:0:
320,192,21813,1,0,0:0:0:0:
192,192,21907,1,0,0:0:0:0:
448,192,21907,1,0,0:0:0:0:
64,192,22001,1,0,0:0:0:0:
320,192,22001,1,0,0:0:0:0:
192,192,22094,1,0,0:0:0:0:
320,192,22094,1,0,0:0:0:0:
64,192,22188,1,0,0:0:0:0:
448,192,22188,1,0,0:0:0:0:
64,192,22376,1,0,0:0:0:0:
448,192,22376,1,0,0:0:0:0:
64,192,22563,1,0,0:0:0:0:
192,192,22563,1,0,0:0:0:0:
320,192,22657,1,0,0:0:0:0:
448,192,22657,1,0,0:0:0:0:
64,192,22751,1,0,0:0:0:0:
320,192,22751,1,0,0:0:0:0:
64,192,22844,1,0,0:0:0:0:
448,192,22844,1,0,0:0:0:0:
192,192,22938,1,0,0:0:0:0:
64,192,23032,1,0,0:0:0:0:
320,192,23126,1,0,0:0:0:0:
448,192,23126,1,0,0:0:0:0:
64,192,23313,1,0,0:0:0:0:
448,192,23313,1,0,0:0:0:0:
192,192,23407,1,0,0:0:0:0:
320,192,23407,1,0,0:0:0:0:
320,192,23501,1,0,0:0:0:0:
448,192,23501,1,0,0:0:0:0:
64,192,23594,1,0,0:0:0:0:
192,192,23594,1,0,0:0:0:0:
64,192,23688,1,0,0:0:0:0:
448,192,23688,1,0,0:0:0:0:
64,192,23876,1,0,0:0:0:0:
448,192,23876,1,0,0:0:0:0:
64,192,24063,1,0,0:0:0:0:
320,192,24063,1,0,0:0:0:0:
192,192,24157,1,0,0:0:0:0:
448,192,24157,1,0,0:0:0:0:
192,192,24251,1,0,0:0:0:0:
320,192,24251,1,0,0:0:0:0:
320,192,24344,1,0,0:0:0:0:
448,192,24344,1,0,0:0:0:0:
64,192,24438,1,0,0:0:0:0:
192,192,24532,1,0,0:0:0:0:
64,192,24626,1,0,0:0:0:0:
448,192,24626,1,0,0:0:0:0:
64,192,24813,1,0,0:0:0:0:
320,192,24813,1,0,0:0:0:0:
64,192,24907,1,0,0:0:0:0:
448,192,24907,1,0,0:0:0:0:
192,192,25001,1,0,0:0:0:0:
320,192,25001,1,0,0:0:0:0:
192,192,25094,1,0,0:0:0:0:
448,192,25094,1,0,0:0:0:0:
64,192,25188,1,0,0:0:0:0:
320,192,25188,1,0,0:0:0:0:
192,192,25282,1,0,0:0:0:0:
448,192,25282,1,0,0:0:0:0:
64,192,25376,1,0,0:0:0:0:
448,192,25376,1,0,0:0:0:0:
64,192,25563,1,0,0:0:0:0:
192,192,25563,1,0,0:0:0:0:
320,192,25657,1,0,0:0:0:0:
448,192,25657,1,0,0:0:0:0:
192,192,25751,1,0,0:0:0:0:
448,192,25751,1,0,0:0:0:0:
192,192,25844,1,0,0:0:0:0:
320,192,25844,1,0,0:0:0:0:
64,192,25938,1,0,0:0:0:0:
448,192,25938,1,0,0:0:0:0:
64,192,26032,1,0,0:0:0:0:
320,192,26126,1,0,0:0:0:0:
448,192,26126,1,0,0:0:0:0:
320,192,26219,1,0,0:0:0:0:
448,192,26219,1,0,0:0:0:0:
64,192,26313,1,0,0:0:0:0:
192,192,26313,1,0,0:0:0:0:
192,192,26407,1,0,0:0:0:0:
320,192,26407,1,0,0:0:0:0:
320,192,26501,1,0,0:0:0:0:
64,192,26501,1,4,0:0:0:0:
448,192,26501,1,0,0:0:0:0:
320,192,26594,1,0,0:0:0:0:
448,192,26594,1,0,0:0:0:0:
64,192,26688,1,0,0:0:0:0:
192,192,26688,1,0,0:0:0:0:
448,192,26782,1,0,0:0:0:0:
64,192,26876,1,0,0:0:0:0:
192,192,26876,1,0,0:0:0:0:
448,192,26969,1,0,0:0:0:0:
64,192,27063,1,0,0:0:0:0:
448,192,27063,1,0,0:0:0:0:
192,192,27157,1,0,0:0:0:0:
320,192,27157,1,0,0:0:0:0:
64,192,27251,1,0,0:0:0:0:
192,192,27251,1,0,0:0:0:0:
320,192,27344,1,0,0:0:0:0:
448,192,27344,1,0,0:0:0:0:
64,192,27438,1,0,0:0:0:0:
64,192,27532,1,0,0:0:0:0:
192,192,27626,1,0,0:0:0:0:
448,192,27626,1,0,0:0:0:0:
320,192,27719,1,0,0:0:0:0:
64,192,27813,1,0,0:0:0:0:
448,192,27813,1,0,0:0:0:0:
192,192,27907,1,0,0:0:0:0:
320,192,27907,1,0,0:0:0:0:
192,192,28001,1,0,0:0:0:0:
448,192,28001,1,0,0:0:0:0:
64,192,28094,1,0,0:0:0:0:
192,192,28094,1,0,0:0:0:0:
320,192,28188,1,0,0:0:0:0:
448,192,28188,1,0,0:0:0:0:
192,192,28282,1,0,0:0:0:0:
320,192,28376,1,0,0:0:0:0:
448,192,28376,1,0,0:0:0:0:
192,192,28469,1,0,0:0:0:0:
64,192,28563,1,0,0:0:0:0:
448,192,28563,1,0,0:0:0:0:
64,192,28657,1,0,0:0:0:0:
320,192,28657,1,0,0:0:0:0:
192,192,28751,1,0,0:0:0:0:
448,192,28751,1,0,0:0:0:0:
320,192,28844,1,0,0:0:0:0:
448,192,28844,1,0,0:0:0:0:
192,192,28938,1,0,0:0:0:0:
192,192,29032,1,0,0:0:0:0:
64,192,29126,1,0,0:0:0:0:
448,192,29126,1,0,0:0:0:0:
320,192,29219,1,0,0:0:0:0:
64,192,29313,1,0,0:0:0:0:
192,192,29313,1,0,0:0:0:0:
192,192,29407,1,0,0:0:0:0:
320,192,29407,1,0,0:0:0:0:
64,192,29501,1,0,0:0:0:0:
320,192,29501,1,0,0:0:0:0:
320,192,29594,1,0,0:0:0:0:
448,192,29594,1,0,0:0:0:0:
64,192,29688,1,0,0:0:0:0:
192,192,29688,1,0,0:0:0:0:
448,192,29782,1,0,0:0:0:0:
64,192,29876,1,0,0:0:0:0:
192,192,29876,1,0,0:0:0:0:
448,192,29969,1,0,0:0:0:0:
64,192,30063,1,0,0:0:0:0:
448,192,30063,1,0,0:0:0:0:
192,192,30157,1,0,0:0:0:0:
320,192,30157,1,0,0:0:0:0:
64,192,30251,1,0,0:0:0:0:
192,192,30251,1,0,0:0:0:0:
320,192,30344,1,0,0:0:0:0:
448,192,30344,1,0,0:0:0:0:
64,192,30438,1,0,0:0:0:0:
64,192,30532,1,0,0:0:0:0:
192,192,30626,1,0,0:0:0:0:
448,192,30626,1,0,0:0:0:0:
320,192,30719,1,0,0:0:0:0:
64,192,30813,1,0,0:0:0:0:
448,192,30813,1,0,0:0:0:0:
192,192,30907,1,0,0:0:0:0:
448,192,30907,1,0,0:0:0:0:
64,192,31001,1,0,0:0:0:0:
320,192,31001,1,0,0:0:0:0:
64,192,31094,1,0,0:0:0:0:
192,192,31094,1,0,0:0:0:0:
320,192,31188,1,0,0:0:0:0:
448,192,31188,1,0,0:0:0:0:
192,192,31282,1,0,0:0:0:0:
320,192,31376,1,0,0:0:0:0:
448,192,31376,1,0,0:0:0:0:
192,192,31469,1,0,0:0:0:0:
64,192,31563,1,0,0:0:0:0:
448,192,31563,1,0,0:0:0:0:
64,192,31657,1,0,0:0:0:0:
320,192,31657,1,0,0:0:0:0:
192,192,31751,1,0,0:0:0:0:
448,192,31751,1,0,0:0:0:0:
320,192,31844,1,0,0:0:0:0:
448,192,31844,1,0,0:0:0:0:
192,192,31938,1,0,0:0:0:0:
192,192,32032,1,0,0:0:0:0:
64,192,32126,1,0,0:0:0:0:
448,192,32126,1,0,0:0:0:0:
320,192,32219,1,0,0:0:0:0:
64,192,32313,1,0,0:0:0:0:
192,192,32313,1,0,0:0:0:0:
192,192,32407,1,0,0:0:0:0:
448,192,32407,1,0,0:0:0:0:
320,192,32501,1,0,0:0:0:0:
448,192,32501,1,0,0:0:0:0:
64,192,32501,1,4,0:0:0:0:
320,192,32594,1,0,0:0:0:0:
448,192,32594,1,0,0:0:0:0:
64,192,32688,1,0,0:0:0:0:
192,192,32688,1,0,0:0:0:0:
448,192,32782,1,0,0:0:0:0:
64,192,32876,1,0,0:0:0:0:
192,192,32876,1,0,0:0:0:0:
448,192,32969,1,0,0:0:0:0:
64,192,33063,1,0,0:0:0:0:
448,192,33063,1,0,0:0:0:0:
192,192,33157,1,0,0:0:0:0:
320,192,33157,1,0,0:0:0:0:
64,192,33251,1,0,0:0:0:0:
192,192,33251,1,0,0:0:0:0:
320,192,33344,1,0,0:0:0:0:
448,192,33344,1,0,0:0:0:0:
64,192,33438,1,0,0:0:0:0:
64,192,33532,1,0,0:0:0:0:
192,192,33626,1,0,0:0:0:0:
448,192,33626,1,0,0:0:0:0:
320,192,33719,1,0,0:0:0:0:
64,192,33813,1,0,0:0:0:0:
448,192,33813,1,0,0:0:0:0:
192,192,33907,1,0,0:0:0:0:
320,192,33907,1,0,0:0:0:0:
192,192,34001,1,0,0:0:0:0:
64,192,34001,1,4,0:0:0:0:
448,192,34001,1,0,0:0:0:0:
64,192,34094,1,0,0:0:0:0:
192,192,34094,1,0,0:0:0:0:
320,192,34188,1,0,0:0:0:0:
448,192,34188,1,0,0:0:0:0:
192,192,34282,1,0,0:0:0:0:
320,192,34376,1,0,0:0:0:0:
448,192,34376,1,0,0:0:0:0:
192,192,34469,1,0,0:0:0:0:
64,192,34563,1,0,0:0:0:0:
448,192,34563,1,0,0:0:0:0:
64,192,34657,1,0,0:0:0:0:
320,192,34657,1,0,0:0:0:0:
192,192,34751,1,0,0:0:0:0:
448,192,34751,1,0,0:0:0:0:
320,192,34844,1,0,0:0:0:0:
448,192,34844,1,0,0:0:0:0:
192,192,34938,1,0,0:0:0:0:
192,192,35032,1,0,0:0:0:0:
64,192,35126,1,0,0:0:0:0:
448,192,35126,1,0,0:0:0:0:
320,192,35219,1,0,0:0:0:0:
64,192,35313,1,0,0:0:0:0:
192,192,35313,1,0,0:0:0:0:
320,192,35407,1,0,0:0:0:0:
448,192,35407,1,0,0:0:0:0:
192,192,35501,1,0,0:0:0:0:
320,192,35501,1,0,0:0:0:0:
448,192,35594,1,0,0:0:0:0:
64,192,35594,1,0,0:0:0:0:
448,192,35688,1,0,0:0:0:0:
64,192,35688,1,0,0:0:0:0:
448,192,35782,1,0,0:0:0:0:
64,192,35782,1,0,0:0:0:0:
192,192,35876,1,0,0:0:0:0:
320,192,35876,1,0,0:0:0:0:
64,192,35969,1,0,0:0:0:0:
448,192,35969,1,0,0:0:0:0:
64,192,36063,1,0,0:0:0:0:
448,192,36063,1,0,0:0:0:0:
64,192,36157,1,0,0:0:0:0:
448,192,36157,1,0,0:0:0:0:
192,192,36251,1,0,0:0:0:0:
320,192,36251,1,0,0:0:0:0:
448,192,36344,1,0,0:0:0:0:
64,192,36344,1,0,0:0:0:0:
448,192,36438,1,0,0:0:0:0:
64,192,36438,1,0,0:0:0:0:
320,192,36485,1,0,0:0:0:0:
192,192,36532,1,0,0:0:0:0:
64,192,36579,1,0,0:0:0:0:
320,192,36626,1,0,0:0:0:0:
448,192,36626,1,0,0:0:0:0:
320,192,36719,1,0,0:0:0:0:
448,192,36719,1,0,0:0:0:0:
64,192,36813,1,0,0:0:0:0:
192,192,36813,1,0,0:0:0:0:
64,192,36907,1,0,0:0:0:0:
192,192,36907,1,0,0:0:0:0:
64,192,37001,1,0,0:0:0:0:
448,192,37001,1,0,0:0:0:0:
448,192,37094,1,0,0:0:0:0:
64,192,37188,1,0,0:0:0:0:
192,192,37188,1,0,0:0:0:0:
320,192,37282,1,0,0:0:0:0:
64,192,37376,1,0,0:0:0:0:
192,192,37376,1,0,0:0:0:0:
320,192,37469,1,0,0:0:0:0:
64,192,37563,1,0,0:0:0:0:
448,192,37563,1,0,0:0:0:0:
448,192,37657,1,0,0:0:0:0:
64,192,37751,1,0,0:0:0:0:
64,192,37844,1,0,0:0:0:0:
320,192,37938,1,0,0:0:0:0:
192,192,38032,1,0,0:0:0:0:
448,192,38126,1,0,0:0:0:0:
192,192,38219,1,0,0:0:0:0:
320,192,38313,1,0,0:0:0:0:
320,192,38407,1,0,0:0:0:0:
192,192,38501,1,0,0:0:0:0:
64,192,38501,1,4,0:0:0:0:
448,192,38501,1,0,0:0:0:0:
320,192,38594,1,0,0:0:0:0:
320,192,38688,1,0,0:0:0:0:
192,192,38782,1,0,0:0:0:0:
64,192,38876,1,0,0:0:0:0:
448,192,38876,1,0,0:0:0:0:
64,192,38969,1,0,0:0:0:0:
192,192,39063,1,0,0:0:0:0:
320,192,39063,1,0,0:0:0:0:
320,192,39157,1,0,0:0:0:0:
64,192,39251,1,0,0:0:0:0:
448,192,39251,1,0,0:0:0:0:
320,192,39344,1,0,0:0:0:0:
448,192,39344,1,0,0:0:0:0:
64,192,39438,1,0,0:0:0:0:
192,192,39532,1,0,0:0:0:0:
64,192,39626,1,0,0:0:0:0:
320,192,39626,1,0,0:0:0:0:
64,192,39719,1,0,0:0:0:0:
192,192,39813,1,0,0:0:0:0:
320,192,39813,1,0,0:0:0:0:
192,192,39907,1,0,0:0:0:0:
320,192,40001,1,0,0:0:0:0:
448,192,40001,1,0,0:0:0:0:
192,192,40094,1,0,0:0:0:0:
448,192,40094,1,0,0:0:0:0:
64,192,40188,1,0,0:0:0:0:
192,192,40188,1,0,0:0:0:0:
320,192,40282,1,0,0:0:0:0:
64,192,40376,1,0,0:0:0:0:
448,192,40376,1,0,0:0:0:0:
64,192,40469,1,0,0:0:0:0:
320,192,40563,1,0,0:0:0:0:
64,192,40657,1,0,0:0:0:0:
192,192,40751,1,0,0:0:0:0:
448,192,40751,1,0,0:0:0:0:
320,192,40844,1,0,0:0:0:0:
448,192,40844,1,0,0:0:0:0:
64,192,40938,1,0,0:0:0:0:
192,192,41032,1,0,0:0:0:0:
64,192,41126,1,0,0:0:0:0:
448,192,41126,1,0,0:0:0:0:
320,192,41219,1,0,0:0:0:0:
320,192,41313,1,0,0:0:0:0:
64,192,41407,1,0,0:0:0:0:
192,192,41501,1,0,0:0:0:0:
320,192,41501,1,0,0:0:0:0:
448,192,41594,1,0,0:0:0:0:
448,192,41688,1,0,0:0:0:0:
192,192,41782,1,0,0:0:0:0:
64,192,41876,1,0,0:0:0:0:
448,192,41876,1,0,0:0:0:0:
64,192,41969,1,0,0:0:0:0:
192,192,42063,1,0,0:0:0:0:
320,192,42063,1,0,0:0:0:0:
320,192,42157,1,0,0:0:0:0:
64,192,42251,1,0,0:0:0:0:
448,192,42251,1,0,0:0:0:0:
320,192,42344,1,0,0:0:0:0:
448,192,42344,1,0,0:0:0:0:
64,192,42438,1,0,0:0:0:0:
192,192,42532,1,0,0:0:0:0:
64,192,42626,1,0,0:0:0:0:
320,192,42626,1,0,0:0:0:0:
64,192,42719,1,0,0:0:0:0:
192,192,42813,1,0,0:0:0:0:
320,192,42813,1,0,0:0:0:0:
192,192,42907,1,0,0:0:0:0:
320,192,43001,1,0,0:0:0:0:
448,192,43001,1,0,0:0:0:0:
192,192,43094,1,0,0:0:0:0:
448,192,43094,1,0,0:0:0:0:
64,192,43188,1,0,0:0:0:0:
192,192,43188,1,0,0:0:0:0:
320,192,43282,1,0,0:0:0:0:
64,192,43376,1,0,0:0:0:0:
448,192,43376,1,0,0:0:0:0:
64,192,43469,1,0,0:0:0:0:
320,192,43563,1,0,0:0:0:0:
64,192,43657,1,0,0:0:0:0:
192,192,43751,1,0,0:0:0:0:
448,192,43751,1,0,0:0:0:0:
320,192,43844,1,0,0:0:0:0:
448,192,43844,1,0,0:0:0:0:
192,192,43938,1,0,0:0:0:0:
64,192,44032,1,0,0:0:0:0:
320,192,44126,1,0,0:0:0:0:
448,192,44126,1,0,0:0:0:0:
64,192,44219,1,0,0:0:0:0:
64,192,44313,1,0,0:0:0:0:
320,192,44313,1,0,0:0:0:0:
320,192,44407,1,0,0:0:0:0:
64,192,44501,1,0,0:0:0:0:
448,192,44501,1,0,0:0:0:0:
320,192,44594,1,0,0:0:0:0:
320,192,44688,1,0,0:0:0:0:
192,192,44782,1,0,0:0:0:0:
64,192,44876,1,0,0:0:0:0:
448,192,44876,1,0,0:0:0:0:
64,192,44969,1,0,0:0:0:0:
192,192,45063,1,0,0:0:0:0:
320,192,45063,1,0,0:0:0:0:
320,192,45157,1,0,0:0:0:0:
64,192,45251,1,0,0:0:0:0:
448,192,45251,1,0,0:0:0:0:
320,192,45344,1,0,0:0:0:0:
448,192,45344,1,0,0:0:0:0:
64,192,45438,1,0,0:0:0:0:
192,192,45532,1,0,0:0:0:0:
64,192,45626,1,0,0:0:0:0:
320,192,45626,1,0,0:0:0:0:
64,192,45719,1,0,0:0:0:0:
192,192,45813,1,0,0:0:0:0:
320,192,45813,1,0,0:0:0:0:
192,192,45907,1,0,0:0:0:0:
320,192,46001,1,0,0:0:0:0:
448,192,46001,1,0,0:0:0:0:
192,192,46094,1,0,0:0:0:0:
448,192,46094,1,0,0:0:0:0:
64,192,46188,1,0,0:0:0:0:
192,192,46188,1,0,0:0:0:0:
320,192,46282,1,0,0:0:0:0:
64,192,46376,1,0,0:0:0:0:
192,192,46376,1,0,0:0:0:0:
64,192,46469,1,0,0:0:0:0:
320,192,46563,1,0,0:0:0:0:
64,192,46657,1,0,0:0:0:0:
192,192,46751,1,0,0:0:0:0:
448,192,46751,1,0,0:0:0:0:
320,192,46844,1,0,0:0:0:0:
448,192,46844,1,0,0:0:0:0:
64,192,46938,1,0,0:0:0:0:
192,192,47032,1,0,0:0:0:0:
64,192,47126,1,0,0:0:0:0:
448,192,47126,1,0,0:0:0:0:
320,192,47219,1,0,0:0:0:0:
320,192,47313,1,0,0:0:0:0:
192,192,47407,1,0,0:0:0:0:
320,192,47501,1,0,0:0:0:0:
64,192,47501,1,0,0:0:0:0:
448,192,47594,1,0,0:0:0:0:
448,192,47688,1,0,0:0:0:0:
192,192,47782,1,0,0:0:0:0:
64,192,47876,1,0,0:0:0:0:
448,192,47876,1,0,0:0:0:0:
64,192,47969,1,0,0:0:0:0:
192,192,48063,1,0,0:0:0:0:
320,192,48063,1,0,0:0:0:0:
320,192,48157,1,0,0:0:0:0:
64,192,48251,1,0,0:0:0:0:
448,192,48251,1,0,0:0:0:0:
320,192,48344,1,0,0:0:0:0:
448,192,48344,1,0,0:0:0:0:
192,192,48438,1,0,0:0:0:0:
320,192,48532,1,0,0:0:0:0:
64,192,48626,1,0,0:0:0:0:
448,192,48626,1,0,0:0:0:0:
64,192,48719,1,0,0:0:0:0:
192,192,48813,1,0,0:0:0:0:
320,192,48813,1,0,0:0:0:0:
192,192,48907,1,0,0:0:0:0:
320,192,49001,1,0,0:0:0:0:
64,192,49001,1,4,0:0:0:0:
448,192,49001,1,0,0:0:0:0:
192,192,49094,1,0,0:0:0:0:
448,192,49094,1,0,0:0:0:0:
64,192,49188,1,0,0:0:0:0:
320,192,49188,1,0,0:0:0:0:
192,192,49282,1,0,0:0:0:0:
320,192,49282,1,0,0:0:0:0:
448,192,49376,1,4,0:0:0:0:
192,192,49376,1,0,0:0:0:0:
64,192,49376,1,0,0:0:0:0:
64,192,49469,1,0,0:0:0:0:
320,192,49563,1,0,0:0:0:0:
448,192,49563,1,0,0:0:0:0:
64,192,49657,1,0,0:0:0:0:
192,192,49657,1,0,0:0:0:0:
320,192,49751,1,0,0:0:0:0:
64,192,49751,1,4,0:0:0:0:
448,192,49751,1,0,0:0:0:0:
320,192,49844,1,0,0:0:0:0:
448,192,49844,1,0,0:0:0:0:
192,192,49938,1,0,0:0:0:0:
64,192,49938,1,0,0:0:0:0:
192,192,50032,1,0,0:0:0:0:
320,192,50126,1,0,0:0:0:0:
448,192,50126,1,0,0:0:0:0:
64,192,50126,1,0,0:0:0:0:
192,192,50219,1,0,0:0:0:0:
320,192,50313,1,0,0:0:0:0:
448,192,50313,1,0,0:0:0:0:
448,192,50407,1,0,0:0:0:0:
64,192,50501,1,4,0:0:0:0:
192,192,50501,1,0,0:0:0:0:
320,192,50501,1,0,0:0:0:0:
64,192,50594,1,0,0:0:0:0:
448,192,50688,1,0,0:0:0:0:
64,192,50688,1,0,0:0:0:0:
320,192,50782,1,0,0:0:0:0:
192,192,50876,1,0,0:0:0:0:
448,192,50876,1,0,0:0:0:0:
320,192,50969,1,0,0:0:0:0:
448,192,50969,1,0,0:0:0:0:
64,192,51063,1,0,0:0:0:0:
192,192,51157,1,0,0:0:0:0:
64,192,51251,1,0,0:0:0:0:
320,192,51251,1,0,0:0:0:0:
192,192,51344,1,0,0:0:0:0:
320,192,51344,1,0,0:0:0:0:
448,192,51438,1,0,0:0:0:0:
320,192,51532,1,0,0:0:0:0:
192,192,51626,1,0,0:0:0:0:
448,192,51626,1,0,0:0:0:0:
192,192,51719,1,0,0:0:0:0:
320,192,51719,1,0,0:0:0:0:
64,192,51813,1,0,0:0:0:0:
64,192,51907,1,0,0:0:0:0:
320,192,52001,1,0,0:0:0:0:
448,192,52001,1,0,0:0:0:0:
64,192,52094,1,0,0:0:0:0:
448,192,52094,1,0,0:0:0:0:
192,192,52188,1,0,0:0:0:0:
192,192,52282,1,0,0:0:0:0:
64,192,52376,1,0,0:0:0:0:
448,192,52376,1,0,0:0:0:0:
64,192,52469,1,0,0:0:0:0:
192,192,52469,1,0,0:0:0:0:
320,192,52563,1,0,0:0:0:0:
320,192,52657,1,0,0:0:0:0:
64,192,52751,1,0,0:0:0:0:
448,192,52751,1,0,0:0:0:0:
320,192,52844,1,0,0:0:0:0:
448,192,52844,1,0,0:0:0:0:
192,192,52938,1,0,0:0:0:0:
192,192,53032,1,0,0:0:0:0:
64,192,53126,1,0,0:0:0:0:
320,192,53126,1,0,0:0:0:0:
64,192,53219,1,0,0:0:0:0:
320,192,53313,1,0,0:0:0:0:
448,192,53313,1,0,0:0:0:0:
64,192,53407,1,0,0:0:0:0:
448,192,53407,1,0,0:0:0:0:
64,192,53501,1,0,0:0:0:0:
192,192,53501,1,0,0:0:0:0:
192,192,53594,1,0,0:0:0:0:
320,192,53688,1,0,0:0:0:0:
448,192,53688,1,0,0:0:0:0:
192,192,53782,1,0,0:0:0:0:
320,192,53782,1,0,0:0:0:0:
64,192,53876,1,0,0:0:0:0:
448,192,53876,1,0,0:0:0:0:
64,192,53969,1,0,0:0:0:0:
320,192,54063,1,0,0:0:0:0:
448,192,54157,1,0,0:0:0:0:
64,192,54251,1,0,0:0:0:0:
320,192,54251,1,0,0:0:0:0:
64,192,54344,1,0,0:0:0:0:
448,192,54344,1,0,0:0:0:0:
192,192,54438,1,0,0:0:0:0:
64,192,54532,1,0,0:0:0:0:
192,192,54626,1,0,0:0:0:0:
448,192,54626,1,0,0:0:0:0:
64,192,54719,1,0,0:0:0:0:
448,192,54719,1,0,0:0:0:0:
320,192,54813,1,0,0:0:0:0:
320,192,54907,1,0,0:0:0:0:
64,192,55001,1,0,0:0:0:0:
192,192,55001,1,0,0:0:0:0:
192,192,55094,1,0,0:0:0:0:
448,192,55094,1,0,0:0:0:0:
320,192,55188,1,0,0:0:0:0:
320,192,55282,1,0,0:0:0:0:
64,192,55376,1,0,0:0:0:0:
448,192,55376,1,0,0:0:0:0:
64,192,55469,1,0,0:0:0:0:
320,192,55469,1,0,0:0:0:0:
192,192,55563,1,0,0:0:0:0:
192,192,55657,1,0,0:0:0:0:
320,192,55751,1,0,0:0:0:0:
448,192,55751,1,0,0:0:0:0:
64,192,55844,1,0,0:0:0:0:
448,192,55844,1,0,0:0:0:0:
192,192,55938,1,0,0:0:0:0:
320,192,55938,1,0,0:0:0:0:
320,192,56032,1,0,0:0:0:0:
64,192,56126,1,0,0:0:0:0:
192,192,56126,1,0,0:0:0:0:
192,192,56219,1,0,0:0:0:0:
64,192,56313,1,0,0:0:0:0:
448,192,56313,1,0,0:0:0:0:
320,192,56407,1,0,0:0:0:0:
448,192,56407,1,0,0:0:0:0:
64,192,56501,1,4,0:0:0:0:
192,192,56501,1,0,0:0:0:0:
320,192,56501,1,0,0:0:0:0:
64,192,56594,1,0,0:0:0:0:
64,192,56688,1,0,0:0:0:0:
448,192,56688,1,0,0:0:0:0:
320,192,56782,1,0,0:0:0:0:
192,192,56876,1,0,0:0:0:0:
448,192,56876,1,0,0:0:0:0:
320,192,56969,1,0,0:0:0:0:
448,192,56969,1,0,0:0:0:0:
64,192,57063,1,0,0:0:0:0:
192,192,57157,1,0,0:0:0:0:
64,192,57251,1,0,0:0:0:0:
320,192,57251,1,0,0:0:0:0:
192,192,57344,1,0,0:0:0:0:
320,192,57344,1,0,0:0:0:0:
448,192,57438,1,0,0:0:0:0:
320,192,57532,1,0,0:0:0:0:
192,192,57626,1,0,0:0:0:0:
448,192,57626,1,0,0:0:0:0:
192,192,57719,1,0,0:0:0:0:
320,192,57719,1,0,0:0:0:0:
64,192,57813,1,0,0:0:0:0:
448,192,57813,1,0,0:0:0:0:
64,192,57907,1,0,0:0:0:0:
192,192,58001,1,0,0:0:0:0:
320,192,58001,1,0,0:0:0:0:
448,192,58001,1,4,0:0:0:0:
64,192,58094,1,0,0:0:0:0:
448,192,58094,1,0,0:0:0:0:
192,192,58188,1,0,0:0:0:0:
320,192,58188,1,0,0:0:0:0:
192,192,58282,1,0,0:0:0:0:
64,192,58376,1,0,0:0:0:0:
448,192,58376,1,0,0:0:0:0:
64,192,58469,1,0,0:0:0:0:
192,192,58469,1,0,0:0:0:0:
320,192,58563,1,0,0:0:0:0:
320,192,58657,1,0,0:0:0:0:
64,192,58751,1,0,0:0:0:0:
448,192,58751,1,0,0:0:0:0:
320,192,58844,1,0,0:0:0:0:
448,192,58844,1,0,0:0:0:0:
192,192,58938,1,0,0:0:0:0:
64,192,58938,1,0,0:0:0:0:
192,192,59032,1,0,0:0:0:0:
64,192,59126,1,0,0:0:0:0:
320,192,59126,1,0,0:0:0:0:
64,192,59219,1,0,0:0:0:0:
320,192,59313,1,0,0:0:0:0:
448,192,59313,1,0,0:0:0:0:
192,192,59407,1,0,0:0:0:0:
448,192,59407,1,0,0:0:0:0:
320,192,59501,1,0,0:0:0:0:
192,192,59501,1,0,0:0:0:0:
64,192,59501,1,4,0:0:0:0:
320,192,59594,1,0,0:0:0:0:
64,192,59688,1,0,0:0:0:0:
448,192,59688,1,0,0:0:0:0:
64,192,59782,1,0,0:0:0:0:
192,192,59782,1,0,0:0:0:0:
320,192,59876,1,0,0:0:0:0:
448,192,59876,1,0,0:0:0:0:
320,192,59969,1,0,0:0:0:0:
64,192,60063,1,0,0:0:0:0:
448,192,60063,1,0,0:0:0:0:
320,192,60157,1,0,0:0:0:0:
64,192,60251,1,4,0:0:0:0:
448,192,60251,1,0,0:0:0:0:
192,192,60251,1,0,0:0:0:0:
192,192,60344,1,0,0:0:0:0:
320,192,60344,1,0,0:0:0:0:
64,192,60438,1,0,0:0:0:0:
192,192,60532,1,0,0:0:0:0:
320,192,60532,1,0,0:0:0:0:
320,192,60626,1,0,0:0:0:0:
448,192,60626,1,0,0:0:0:0:
64,192,60719,1,0,0:0:0:0:
192,192,60719,1,0,0:0:0:0:
448,192,60813,1,0,0:0:0:0:
320,192,60813,1,0,0:0:0:0:
320,192,60907,1,0,0:0:0:0:
448,192,60907,1,0,0:0:0:0:
192,192,61001,1,0,0:0:0:0:
64,192,61001,1,4,0:0:0:0:
448,192,61001,1,0,0:0:0:0:
192,192,61094,1,0,0:0:0:0:
320,192,61094,1,0,0:0:0:0:
64,192,61188,1,0,0:0:0:0:
448,192,61188,1,0,0:0:0:0:
320,192,61282,1,0,0:0:0:0:
64,192,61376,1,0,0:0:0:0:
192,192,61376,1,0,0:0:0:0:
64,192,61469,1,0,0:0:0:0:
320,192,61469,1,0,0:0:0:0:
192,192,61563,1,0,0:0:0:0:
448,192,61563,1,0,0:0:0:0:
192,192,61657,1,0,0:0:0:0:
320,192,61751,1,0,0:0:0:0:
448,192,61751,1,0,0:0:0:0:
64,192,61844,1,0,0:0:0:0:
448,192,61844,1,0,0:0:0:0:
192,192,61938,1,0,0:0:0:0:
320,192,61938,1,0,0:0:0:0:
320,192,62032,1,0,0:0:0:0:
448,192,62032,1,0,0:0:0:0:
64,192,62126,1,0,0:0:0:0:
192,192,62126,1,0,0:0:0:0:
192,192,62219,1,0,0:0:0:0:
320,192,62313,1,0,0:0:0:0:
448,192,62313,1,0,0:0:0:0:
64,192,62407,1,0,0:0:0:0:
192,192,62407,1,0,0:0:0:0:
320,192,62501,1,0,0:0:0:0:
64,192,62501,1,4,0:0:0:0:
448,192,62501,1,0,0:0:0:0:
192,192,62594,1,0,0:0:0:0:
448,192,62594,1,0,0:0:0:0:
320,192,62688,1,0,0:0:0:0:
448,192,62688,1,0,0:0:0:0:
192,192,62782,1,0,0:0:0:0:
64,192,62876,1,0,0:0:0:0:
448,192,62876,1,0,0:0:0:0:
192,192,62969,1,0,0:0:0:0:
320,192,62969,1,0,0:0:0:0:
64,192,63063,1,0,0:0:0:0:
192,192,63063,1,0,0:0:0:0:
448,192,63157,1,0,0:0:0:0:
64,192,63251,1,0,0:0:0:0:
320,192,63251,1,0,0:0:0:0:
192,192,63344,1,0,0:0:0:0:
320,192,63344,1,0,0:0:0:0:
320,192,63438,1,0,0:0:0:0:
448,192,63438,1,0,0:0:0:0:
192,192,63532,1,0,0:0:0:0:
64,192,63626,1,0,0:0:0:0:
448,192,63626,1,0,0:0:0:0:
192,192,63719,1,0,0:0:0:0:
320,192,63719,1,0,0:0:0:0:
64,192,63813,1,0,0:0:0:0:
192,192,63813,1,0,0:0:0:0:
320,192,63907,1,0,0:0:0:0:
64,192,64001,1,0,0:0:0:0:
448,192,64001,1,0,0:0:0:0:
192,192,64094,1,0,0:0:0:0:
448,192,64094,1,0,0:0:0:0:
320,192,64188,1,0,0:0:0:0:
448,192,64188,1,0,0:0:0:0:
192,192,64282,1,0,0:0:0:0:
64,192,64376,1,0,0:0:0:0:
448,192,64376,1,0,0:0:0:0:
192,192,64469,1,0,0:0:0:0:
320,192,64469,1,0,0:0:0:0:
64,192,64563,1,0,0:0:0:0:
192,192,64563,1,0,0:0:0:0:
448,192,64657,1,0,0:0:0:0:
64,192,64751,1,0,0:0:0:0:
320,192,64751,1,0,0:0:0:0:
192,192,64844,1,0,0:0:0:0:
320,192,64844,1,0,0:0:0:0:
320,192,64938,1,0,0:0:0:0:
448,192,64938,1,0,0:0:0:0:
192,192,65032,1,0,0:0:0:0:
64,192,65126,1,0,0:0:0:0:
448,192,65126,1,0,0:0:0:0:
192,192,65219,1,0,0:0:0:0:
320,192,65219,1,0,0:0:0:0:
64,192,65313,1,0,0:0:0:0:
192,192,65313,1,0,0:0:0:0:
320,192,65407,1,0,0:0:0:0:
64,192,65501,1,0,0:0:0:0:
448,192,65501,1,0,0:0:0:0:
192,192,65594,1,0,0:0:0:0:
448,192,65594,1,0,0:0:0:0:
320,192,65688,1,0,0:0:0:0:
448,192,65688,1,0,0:0:0:0:
192,192,65782,1,0,0:0:0:0:
64,192,65876,1,0,0:0:0:0:
448,192,65876,1,0,0:0:0:0:
192,192,65969,1,0,0:0:0:0:
320,192,65969,1,0,0:0:0:0:
64,192,66063,1,0,0:0:0:0:
192,192,66063,1,0,0:0:0:0:
448,192,66157,1,0,0:0:0:0:
64,192,66251,1,0,0:0:0:0:
320,192,66251,1,0,0:0:0:0:
192,192,66344,1,0,0:0:0:0:
320,192,66344,1,0,0:0:0:0:
320,192,66438,1,0,0:0:0:0:
448,192,66438,1,0,0:0:0:0:
192,192,66532,1,0,0:0:0:0:
64,192,66626,1,0,0:0:0:0:
448,192,66626,1,0,0:0:0:0:
192,192,66719,1,0,0:0:0:0:
320,192,66719,1,0,0:0:0:0:
64,192,66813,1,0,0:0:0:0:
192,192,66813,1,0,0:0:0:0:
320,192,66907,1,0,0:0:0:0:
64,192,67001,1,0,0:0:0:0:
448,192,67001,1,0,0:0:0:0:
192,192,67094,1,0,0:0:0:0:
448,192,67094,1,0,0:0:0:0:
320,192,67188,1,0,0:0:0:0:
448,192,67188,1,0,0:0:0:0:
192,192,67282,1,0,0:0:0:0:
64,192,67376,1,0,0:0:0:0:
448,192,67376,1,0,0:0:0:0:
192,192,67469,1,0,0:0:0:0:
320,192,67469,1,0,0:0:0:0:
64,192,67563,1,0,0:0:0:0:
192,192,67563,1,0,0:0:0:0:
448,192,67657,1,0,0:0:0:0:
64,192,67751,1,0,0:0:0:0:
320,192,67751,1,0,0:0:0:0:
192,192,67844,1,0,0:0:0:0:
320,192,67844,1,0,0:0:0:0:
320,192,67938,1,0,0:0:0:0:
448,192,67938,1,0,0:0:0:0:
192,192,68032,1,0,0:0:0:0:
64,192,68126,1,0,0:0:0:0:
448,192,68126,1,0,0:0:0:0:
192,192,68219,1,0,0:0:0:0:
320,192,68219,1,0,0:0:0:0:
64,192,68313,1,0,0:0:0:0:
192,192,68313,1,0,0:0:0:0:
320,192,68407,1,0,0:0:0:0:
64,192,68501,1,0,0:0:0:0:
448,192,68501,1,0,0:0:0:0:
448,192,68594,1,0,0:0:0:0:
64,192,68688,1,0,0:0:0:0:
192,192,68688,1,0,0:0:0:0:
64,192,68876,1,0,0:0:0:0:
192,192,68876,1,0,0:0:0:0:
64,192,69063,1,0,0:0:0:0:
448,192,69063,1,0,0:0:0:0:
320,192,69157,1,0,0:0:0:0:
448,192,69157,1,0,0:0:0:0:
64,192,69251,1,0,0:0:0:0:
192,192,69251,1,0,0:0:0:0:
192,192,69344,1,0,0:0:0:0:
320,192,69344,1,0,0:0:0:0:
448,192,69438,1,0,0:0:0:0:
64,192,69532,1,0,0:0:0:0:
320,192,69626,1,0,0:0:0:0:
448,192,69626,1,0,0:0:0:0:
64,192,69813,1,0,0:0:0:0:
192,192,69813,1,0,0:0:0:0:
192,192,69907,1,0,0:0:0:0:
320,192,69907,1,0,0:0:0:0:
64,192,70001,1,0,0:0:0:0:
448,192,70001,1,0,0:0:0:0:
448,192,70094,1,0,0:0:0:0:
192,192,70188,1,0,0:0:0:0:
320,192,70188,1,0,0:0:0:0:
192,192,70376,1,0,0:0:0:0:
320,192,70376,1,0,0:0:0:0:
64,192,70563,1,0,0:0:0:0:
192,192,70563,1,0,0:0:0:0:
64,192,70657,1,0,0:0:0:0:
448,192,70657,1,0,0:0:0:0:
192,192,70751,1,0,0:0:0:0:
320,192,70751,1,0,0:0:0:0:
320,192,70844,1,0,0:0:0:0:
448,192,70844,1,0,0:0:0:0:
64,192,70938,1,0,0:0:0:0:
192,192,71032,1,0,0:0:0:0:
64,192,71126,1,0,0:0:0:0:
448,192,71126,1,0,0:0:0:0:
192,192,71313,1,0,0:0:0:0:
320,192,71313,1,0,0:0:0:0:
64,192,71407,1,0,0:0:0:0:
192,192,71407,1,0,0:0:0:0:
64,192,71501,1,0,0:0:0:0:
448,192,71501,1,0,0:0:0:0:
448,192,71594,1,0,0:0:0:0:
64,192,71688,1,0,0:0:0:0:
192,192,71688,1,0,0:0:0:0:
64,192,71876,1,0,0:0:0:0:
192,192,71876,1,0,0:0:0:0:
64,192,72063,1,0,0:0:0:0:
448,192,72063,1,0,0:0:0:0:
320,192,72157,1,0,0:0:0:0:
448,192,72157,1,0,0:0:0:0:
64,192,72251,1,0,0:0:0:0:
192,192,72251,1,0,0:0:0:0:
192,192,72344,1,0,0:0:0:0:
320,192,72344,1,0,0:0:0:0:
448,192,72438,1,0,0:0:0:0:
64,192,72532,1,0,0:0:0:0:
320,192,72626,1,0,0:0:0:0:
448,192,72626,1,0,0:0:0:0:
64,192,72813,1,0,0:0:0:0:
192,192,72813,1,0,0:0:0:0:
192,192,72907,1,0,0:0:0:0:
320,192,72907,1,0,0:0:0:0:
320,192,73001,1,0,0:0:0:0:
64,192,73001,1,4,0:0:0:0:
448,192,73001,1,0,0:0:0:0:
448,192,73094,1,0,0:0:0:0:
192,192,73188,1,0,0:0:0:0:
320,192,73188,1,0,0:0:0:0:
64,192,73282,1,0,0:0:0:0:
192,192,73282,1,0,0:0:0:0:
320,192,73376,1,0,0:0:0:0:
64,192,73376,1,4,0:0:0:0:
448,192,73376,1,0,0:0:0:0:
64,192,73563,1,0,0:0:0:0:
192,192,73563,1,0,0:0:0:0:
64,192,73657,1,0,0:0:0:0:
448,192,73657,1,0,0:0:0:0:
192,192,73751,1,0,0:0:0:0:
320,192,73751,1,0,0:0:0:0:
448,192,73751,1,4,0:0:0:0:
64,192,73844,1,0,0:0:0:0:
320,192,73844,1,0,0:0:0:0:
192,192,73938,1,0,0:0:0:0:
448,192,73938,1,0,0:0:0:0:
192,192,74032,1,0,0:0:0:0:
64,192,74126,1,0,0:0:0:0:
448,192,74126,1,0,0:0:0:0:
448,192,74313,1,0,0:0:0:0:
192,192,74313,1,0,0:0:0:0:
320,192,74407,1,0,0:0:0:0:
192,192,74407,1,0,0:0:0:0:
320,192,74501,1,0,0:0:0:0:
64,192,74501,1,4,0:0:0:0:
448,192,74501,1,0,0:0:0:0:
320,192,74594,1,0,0:0:0:0:
448,192,74594,1,0,0:0:0:0:
64,192,74688,1,0,0:0:0:0:
192,192,74688,1,0,0:0:0:0:
448,192,74782,1,0,0:0:0:0:
64,192,74876,1,0,0:0:0:0:
192,192,74876,1,0,0:0:0:0:
448,192,74969,1,0,0:0:0:0:
64,192,75063,1,0,0:0:0:0:
448,192,75063,1,0,0:0:0:0:
192,192,75157,1,0,0:0:0:0:
320,192,75157,1,0,0:0:0:0:
64,192,75251,1,0,0:0:0:0:
192,192,75251,1,0,0:0:0:0:
320,192,75344,1,0,0:0:0:0:
448,192,75344,1,0,0:0:0:0:
64,192,75438,1,0,0:0:0:0:
64,192,75532,1,0,0:0:0:0:
192,192,75626,1,0,0:0:0:0:
448,192,75626,1,0,0:0:0:0:
320,192,75719,1,0,0:0:0:0:
64,192,75813,1,0,0:0:0:0:
448,192,75813,1,0,0:0:0:0:
192,192,75907,1,0,0:0:0:0:
320,192,75907,1,0,0:0:0:0:
192,192,76001,1,0,0:0:0:0:
448,192,76001,1,0,0:0:0:0:
64,192,76094,1,0,0:0:0:0:
192,192,76094,1,0,0:0:0:0:
320,192,76188,1,0,0:0:0:0:
448,192,76188,1,0,0:0:0:0:
192,192,76282,1,0,0:0:0:0:
320,192,76376,1,0,0:0:0:0:
448,192,76376,1,0,0:0:0:0:
192,192,76469,1,0,0:0:0:0:
64,192,76563,1,0,0:0:0:0:
448,192,76563,1,0,0:0:0:0:
64,192,76657,1,0,0:0:0:0:
320,192,76657,1,0,0:0:0:0:
192,192,76751,1,0,0:0:0:0:
448,192,76751,1,0,0:0:0:0:
320,192,76844,1,0,0:0:0:0:
448,192,76844,1,0,0:0:0:0:
192,192,76938,1,0,0:0:0:0:
192,192,77032,1,0,0:0:0:0:
64,192,77126,1,0,0:0:0:0:
448,192,77126,1,0,0:0:0:0:
320,192,77219,1,0,0:0:0:0:
64,192,77313,1,0,0:0:0:0:
192,192,77313,1,0,0:0:0:0:
192,192,77407,1,0,0:0:0:0:
320,192,77407,1,0,0:0:0:0:
64,192,77501,1,0,0:0:0:0:
320,192,77501,1,0,0:0:0:0:
320,192,77594,1,0,0:0:0:0:
448,192,77594,1,0,0:0:0:0:
64,192,77688,1,0,0:0:0:0:
192,192,77688,1,0,0:0:0:0:
448,192,77782,1,0,0:0:0:0:
64,192,77876,1,0,0:0:0:0:
192,192,77876,1,0,0:0:0:0:
448,192,77969,1,0,0:0:0:0:
64,192,78063,1,0,0:0:0:0:
448,192,78063,1,0,0:0:0:0:
192,192,78157,1,0,0:0:0:0:
320,192,78157,1,0,0:0:0:0:
64,192,78251,1,0,0:0:0:0:
192,192,78251,1,0,0:0:0:0:
320,192,78344,1,0,0:0:0:0:
448,192,78344,1,0,0:0:0:0:
64,192,78438,1,0,0:0:0:0:
64,192,78532,1,0,0:0:0:0:
192,192,78626,1,0,0:0:0:0:
448,192,78626,1,0,0:0:0:0:
320,192,78719,1,0,0:0:0:0:
64,192,78813,1,0,0:0:0:0:
448,192,78813,1,0,0:0:0:0:
192,192,78907,1,0,0:0:0:0:
320,192,78907,1,0,0:0:0:0:
192,192,79001,1,0,0:0:0:0:
448,192,79001,1,0,0:0:0:0:
64,192,79094,1,0,0:0:0:0:
192,192,79094,1,0,0:0:0:0:
320,192,79188,1,0,0:0:0:0:
448,192,79188,1,0,0:0:0:0:
192,192,79282,1,0,0:0:0:0:
320,192,79376,1,0,0:0:0:0:
448,192,79376,1,0,0:0:0:0:
192,192,79469,1,0,0:0:0:0:
64,192,79563,1,0,0:0:0:0:
448,192,79563,1,0,0:0:0:0:
64,192,79657,1,0,0:0:0:0:
320,192,79657,1,0,0:0:0:0:
192,192,79751,1,0,0:0:0:0:
448,192,79751,1,0,0:0:0:0:
320,192,79844,1,0,0:0:0:0:
448,192,79844,1,0,0:0:0:0:
64,192,79938,1,0,0:0:0:0:
192,192,79938,1,0,0:0:0:0:
192,192,80032,1,0,0:0:0:0:
64,192,80126,1,0,0:0:0:0:
448,192,80126,1,0,0:0:0:0:
320,192,80219,1,0,0:0:0:0:
64,192,80313,1,0,0:0:0:0:
192,192,80313,1,0,0:0:0:0:
192,192,80407,1,0,0:0:0:0:
448,192,80407,1,0,0:0:0:0:
320,192,80501,1,0,0:0:0:0:
448,192,80501,1,0,0:0:0:0:
64,192,80501,1,4,0:0:0:0:
320,192,80594,1,0,0:0:0:0:
448,192,80594,1,0,0:0:0:0:
64,192,80688,1,0,0:0:0:0:
192,192,80688,1,0,0:0:0:0:
448,192,80782,1,0,0:0:0:0:
64,192,80876,1,0,0:0:0:0:
192,192,80876,1,0,0:0:0:0:
448,192,80969,1,0,0:0:0:0:
64,192,81063,1,0,0:0:0:0:
448,192,81063,1,0,0:0:0:0:
192,192,81157,1,0,0:0:0:0:
320,192,81157,1,0,0:0:0:0:
64,192,81251,1,0,0:0:0:0:
192,192,81251,1,0,0:0:0:0:
320,192,81344,1,0,0:0:0:0:
448,192,81344,1,0,0:0:0:0:
64,192,81438,1,0,0:0:0:0:
192,192,81438,1,0,0:0:0:0:
64,192,81532,1,0,0:0:0:0:
192,192,81626,1,0,0:0:0:0:
448,192,81626,1,0,0:0:0:0:
320,192,81719,1,0,0:0:0:0:
64,192,81813,1,0,0:0:0:0:
448,192,81813,1,0,0:0:0:0:
192,192,81907,1,0,0:0:0:0:
320,192,81907,1,0,0:0:0:0:
192,192,82001,1,0,0:0:0:0:
64,192,82001,1,4,0:0:0:0:
448,192,82001,1,0,0:0:0:0:
64,192,82094,1,0,0:0:0:0:
192,192,82094,1,0,0:0:0:0:
320,192,82188,1,0,0:0:0:0:
448,192,82188,1,0,0:0:0:0:
192,192,82282,1,0,0:0:0:0:
320,192,82376,1,0,0:0:0:0:
448,192,82376,1,0,0:0:0:0:
192,192,82469,1,0,0:0:0:0:
64,192,82563,1,0,0:0:0:0:
448,192,82563,1,0,0:0:0:0:
64,192,82657,1,0,0:0:0:0:
320,192,82657,1,0,0:0:0:0:
192,192,82751,1,0,0:0:0:0:
448,192,82751,1,0,0:0:0:0:
320,192,82844,1,0,0:0:0:0:
448,192,82844,1,0,0:0:0:0:
64,192,82938,1,0,0:0:0:0:
192,192,82938,1,0,0:0:0:0:
192,192,83032,1,0,0:0:0:0:
64,192,83126,1,0,0:0:0:0:
448,192,83126,1,0,0:0:0:0:
320,192,83219,1,0,0:0:0:0:
64,192,83313,1,0,0:0:0:0:
192,192,83313,1,0,0:0:0:0:
192,192,83407,1,0,0:0:0:0:
448,192,83407,1,0,0:0:0:0:
320,192,83501,1,0,0:0:0:0:
448,192,83501,1,0,0:0:0:0:
64,192,83501,1,4,0:0:0:0:
320,192,83594,1,0,0:0:0:0:
448,192,83594,1,0,0:0:0:0:
192,192,83688,1,0,0:0:0:0:
64,192,83688,1,0,0:0:0:0:
448,192,83782,1,0,0:0:0:0:
320,192,83782,1,0,0:0:0:0:
64,192,83876,1,0,0:0:0:0:
192,192,83876,1,0,0:0:0:0:
448,192,83969,1,0,0:0:0:0:
64,192,84063,1,0,0:0:0:0:
448,192,84063,1,0,0:0:0:0:
192,192,84157,1,0,0:0:0:0:
320,192,84157,1,0,0:0:0:0:
192,192,84251,1,0,0:0:0:0:
64,192,84251,1,0,0:0:0:0:
448,192,84251,1,4,0:0:0:0:
320,192,84344,1,0,0:0:0:0:
64,192,84344,1,0,0:0:0:0:
320,192,84438,1,0,0:0:0:0:
448,192,84438,1,0,0:0:0:0:
64,192,84532,1,0,0:0:0:0:
192,192,84532,1,0,0:0:0:0:
192,192,84626,1,0,0:0:0:0:
448,192,84626,1,0,0:0:0:0:
320,192,84719,1,0,0:0:0:0:
64,192,84813,1,0,0:0:0:0:
448,192,84813,1,0,0:0:0:0:
192,192,84907,1,0,0:0:0:0:
320,192,84907,1,0,0:0:0:0:
64,192,85001,1,0,0:0:0:0:
448,192,85001,1,4,0:0:0:0:
192,192,85001,1,0,0:0:0:0:
64,192,85094,1,0,0:0:0:0:
192,192,85094,1,0,0:0:0:0:
320,192,85188,1,0,0:0:0:0:
448,192,85188,1,0,0:0:0:0:
192,192,85282,1,0,0:0:0:0:
320,192,85376,1,0,0:0:0:0:
448,192,85376,1,0,0:0:0:0:
192,192,85469,1,0,0:0:0:0:
64,192,85563,1,0,0:0:0:0:
448,192,85563,1,0,0:0:0:0:
64,192,85657,1,0,0:0:0:0:
320,192,85657,1,0,0:0:0:0:
192,192,85751,1,0,0:0:0:0:
448,192,85751,1,0,0:0:0:0:
320,192,85844,1,0,0:0:0:0:
448,192,85844,1,0,0:0:0:0:
64,192,85938,1,0,0:0:0:0:
192,192,85938,1,0,0:0:0:0:
192,192,86032,1,0,0:0:0:0:
320,192,86032,1,0,0:0:0:0:
64,192,86126,1,0,0:0:0:0:
448,192,86126,1,0,0:0:0:0:
320,192,86219,1,0,0:0:0:0:
64,192,86313,1,0,0:0:0:0:
192,192,86313,1,0,0:0:0:0:
192,192,86407,1,0,0:0:0:0:
448,192,86407,1,0,0:0:0:0:
320,192,86501,1,0,0:0:0:0:
64,192,86501,1,0,0:0:0:0:
448,192,86501,1,0,0:0:0:0:
64,192,91001,128,0,91188:0:0:0:0:
192,192,91188,128,0,91376:0:0:0:0:
320,192,91376,128,0,91563:0:0:0:0:
448,192,91563,128,0,91751:0:0:0:0:
64,192,91751,128,0,92501:0:0:0:0:
192,192,91751,128,0,91938:0:0:0:0:
448,192,91938,128,0,92126:0:0:0:0:
192,192,92126,128,0,92313:0:0:0:0:
320,192,92313,128,0,92501:0:0:0:0:
448,192,92501,128,0,92688:0:0:0:0:
192,192,92501,1,4,0:0:0:0:
192,192,92688,1,0,0:0:0:0:
448,192,92876,128,0,93063:0:0:0:0:
64,192,93063,128,0,93251:0:0:0:0:
448,192,93251,1,0,0:0:0:0:
192,192,93251,128,0,93626:0:0:0:0:
320,192,93438,1,0,0:0:0:0:
320,192,93626,128,0,94001:0:0:0:0:
448,192,94001,1,0,0:0:0:0:
64,192,94001,128,0,94376:0:0:0:0:
192,192,94376,128,0,94751:0:0:0:0:
320,192,94751,128,0,95126:0:0:0:0:
64,192,94751,1,0,0:0:0:0:
448,192,95126,128,0,95501:0:0:0:0:
192,192,95501,128,0,96438:0:0:0:0:
64,192,95501,1,0,0:0:0:0:
64,192,95688,1,0,0:0:0:0:
320,192,95876,1,0,0:0:0:0:
448,192,96251,1,0,0:0:0:0:
64,192,96251,1,0,0:0:0:0:
320,192,96438,1,0,0:0:0:0:
320,192,96626,128,0,96813:0:0:0:0:
448,192,96813,128,0,97001:0:0:0:0:
320,192,97001,1,0,0:0:0:0:
192,192,97001,128,0,97188:0:0:0:0:
64,192,97188,128,0,97376:0:0:0:0:
320,192,97376,128,0,97563:0:0:0:0:
192,192,97563,128,0,97751:0:0:0:0:
448,192,97751,1,0,0:0:0:0:
64,192,97751,128,0,98501:0:0:0:0:
448,192,98126,1,0,0:0:0:0:
448,192,98501,1,0,0:0:0:0:
192,192,98501,128,0,98688:0:0:0:0:
448,192,98688,1,0,0:0:0:0:
320,192,98688,128,0,98876:0:0:0:0:
64,192,98876,128,0,99063:0:0:0:0:
192,192,99063,128,0,99251:0:0:0:0:
448,192,99251,128,0,100001:0:0:0:0:
320,192,99251,1,0,0:0:0:0:
64,192,99438,1,0,0:0:0:0:
64,192,99626,1,0,0:0:0:0:
320,192,100001,1,0,0:0:0:0:
64,192,100001,1,0,0:0:0:0:
64,192,100376,128,0,100563:0:0:0:0:
192,192,100563,128,0,100751:0:0:0:0:
448,192,100751,1,0,0:0:0:0:
320,192,100751,128,0,100938:0:0:0:0:
192,192,100938,128,0,101126:0:0:0:0:
64,192,101126,128,0,101313:0:0:0:0:
192,192,101313,128,0,101501:0:0:0:0:
448,192,101501,1,0,0:0:0:0:
320,192,101501,128,0,102626:0:0:0:0:
448,192,101688,1,0,0:0:0:0:
64,192,101876,1,0,0:0:0:0:
192,192,102251,1,0,0:0:0:0:
64,192,102251,1,0,0:0:0:0:
448,192,102438,1,0,0:0:0:0:
448,192,102626,128,0,103001:0:0:0:0:
320,192,103001,128,0,103376:0:0:0:0:
64,192,103001,1,0,0:0:0:0:
448,192,103376,1,0,0:0:0:0:
192,192,103376,128,0,103751:0:0:0:0:
320,192,103657,1,0,0:0:0:0:
448,192,103751,128,0,104126:0:0:0:0:
64,192,103751,1,0,0:0:0:0:
192,192,103938,1,0,0:0:0:0:
320,192,104126,128,0,104501:0:0:0:0:
64,192,104126,1,0,0:0:0:0:
448,192,104501,128,0,104688:0:0:0:0:
64,192,104501,128,0,104876:0:0:0:0:
192,192,104501,1,4,0:0:0:0:
320,192,104688,128,0,104876:0:0:0:0:
448,192,104876,128,0,105251:0:0:0:0:
192,192,104876,128,0,105063:0:0:0:0:
64,192,105063,128,0,105251:0:0:0:0:
192,192,105251,1,0,0:0:0:0:
320,192,105313,128,0,106001:0:0:0:0:
192,192,105438,1,0,0:0:0:0:
64,192,105626,1,0,0:0:0:0:
448,192,106001,1,0,0:0:0:0:
64,192,106001,1,0,0:0:0:0:
64,192,106376,128,0,106657:0:0:0:0:
192,192,106422,128,0,106610:0:0:0:0:
320,192,106469,128,0,106563:0:0:0:0:
448,192,106751,128,0,107032:0:0:0:0:
320,192,106797,128,0,106985:0:0:0:0:
192,192,106844,128,0,106938:0:0:0:0:
64,192,107126,128,0,107407:0:0:0:0:
192,192,107172,128,0,107360:0:0:0:0:
320,192,107219,128,0,107313:0:0:0:0:
64,192,107501,128,0,107876:0:0:0:0:
448,192,107501,128,0,107688:0:0:0:0:
320,192,107688,128,0,107876:0:0:0:0:
192,192,107876,128,0,108063:0:0:0:0:
448,192,107876,128,0,108251:0:0:0:0:
64,192,108063,128,0,108251:0:0:0:0:
192,192,108251,1,0,0:0:0:0:
320,192,108313,128,0,109751:0:0:0:0:
192,192,108438,1,0,0:0:0:0:
64,192,108626,1,0,0:0:0:0:
192,192,109001,1,0,0:0:0:0:
448,192,109001,1,0,0:0:0:0:
64,192,109376,1,0,0:0:0:0:
448,192,109563,1,0,0:0:0:0:
64,192,109751,1,0,0:0:0:0:
448,192,109751,1,0,0:0:0:0:
192,192,110126,1,0,0:0:0:0:
64,192,110501,128,0,110876:0:0:0:0:
320,192,110501,128,0,110688:0:0:0:0:
448,192,110501,1,4,0:0:0:0:
192,192,110688,128,0,110876:0:0:0:0:
320,192,110876,128,0,111063:0:0:0:0:
448,192,110876,128,0,111251:0:0:0:0:
192,192,111063,128,0,111251:0:0:0:0:
64,192,111251,128,0,112001:0:0:0:0:
320,192,111251,1,0,0:0:0:0:
320,192,111438,1,0,0:0:0:0:
448,192,111626,1,0,0:0:0:0:
192,192,112001,1,0,0:0:0:0:
448,192,112001,1,0,0:0:0:0:
64,192,112376,128,0,112657:0:0:0:0:
192,192,112422,128,0,112610:0:0:0:0:
320,192,112469,128,0,112563:0:0:0:0:
448,192,112751,128,0,113032:0:0:0:0:
320,192,112797,128,0,112985:0:0:0:0:
192,192,112844,128,0,112938:0:0:0:0:
64,192,113126,128,0,113407:0:0:0:0:
192,192,113172,128,0,113360:0:0:0:0:
320,192,113219,128,0,113313:0:0:0:0:
64,192,113501,128,0,113876:0:0:0:0:
320,192,113501,128,0,113688:0:0:0:0:
192,192,113688,128,0,113876:0:0:0:0:
320,192,113876,128,0,114063:0:0:0:0:
448,192,113876,128,0,114251:0:0:0:0:
192,192,114063,128,0,114251:0:0:0:0:
64,192,114251,128,0,115751:0:0:0:0:
320,192,114251,1,0,0:0:0:0:
320,192,114438,1,0,0:0:0:0:
448,192,114626,1,0,0:0:0:0:
192,192,115001,1,0,0:0:0:0:
448,192,115001,1,0,0:0:0:0:
320,192,115376,1,0,0:0:0:0:
448,192,115376,1,0,0:0:0:0:
448,192,115563,1,0,0:0:0:0:
192,192,115751,1,0,0:0:0:0:
320,192,115751,1,0,0:0:0:0:
64,192,116126,1,0,0:0:0:0:
320,192,116126,1,0,0:0:0:0:
64,192,116501,1,4,0:0:0:0:
448,192,116501,1,0,0:0:0:0:
192,192,116547,1,0,0:0:0:0:
320,192,116594,1,0,0:0:0:0:
64,192,117251,1,4,0:0:0:0:
448,192,117251,1,0,0:0:0:0:
192,192,117297,1,0,0:0:0:0:
320,192,117344,128,0,118376:0:0:0:0:
64,192,118376,128,0,118751:0:0:0:0:
192,192,118376,1,0,0:0:0:0:
192,192,118751,128,0,119126:0:0:0:0:
448,192,118751,1,0,0:0:0:0:
64,192,119126,1,0,0:0:0:0:
320,192,119126,128,0,119501:0:0:0:0:
64,192,119501,1,4,0:0:0:0:
192,192,119501,1,0,0:0:0:0:
448,192,119501,128,0,121001:0:0:0:0:
192,192,121001,128,0,122501:0:0:0:0:
64,192,122501,128,0,127563:0:0:0:0:
320,192,122501,1,0,0:0:0:0:
448,192,122501,1,4,0:0:0:0:
192,192,122688,1,0,0:0:0:0:
320,192,122876,1,0,0:0:0:0:
192,192,123063,1,0,0:0:0:0:
448,192,123251,1,0,0:0:0:0:
448,192,124376,1,0,0:0:0:0:
192,192,124751,1,0,0:0:0:0:
448,192,125126,1,0,0:0:0:0:
320,192,125501,1,0,0:0:0:0:
192,192,125876,1,0,0:0:0:0:
320,192,126251,1,0,0:0:0:0:
192,192,126626,1,0,0:0:0:0:
320,192,127001,1,0,0:0:0:0:
320,192,127376,1,0,0:0:0:0:
320,192,127563,1,0,0:0:0:0:
448,192,127751,1,0,0:0:0:0:
64,192,127751,1,0,0:0:0:0:
64,192,127985,1,0,0:0:0:0:
320,192,128055,1,0,0:0:0:0:
192,192,128126,1,0,0:0:0:0:
448,192,128188,1,0,0:0:0:0:
192,192,128219,1,0,0:0:0:0:
320,192,128251,1,0,0:0:0:0:
192,192,128501,1,0,0:0:0:0:
448,192,128501,1,0,0:0:0:0:
64,192,128626,1,0,0:0:0:0:
448,192,128704,1,0,0:0:0:0:
64,192,128774,1,0,0:0:0:0:
320,192,128853,1,0,0:0:0:0:
64,192,128923,1,0,0:0:0:0:
448,192,129001,1,0,0:0:0:0:
64,192,129079,1,0,0:0:0:0:
192,192,129157,1,0,0:0:0:0:
320,192,129235,1,0,0:0:0:0:
64,192,129376,1,0,0:0:0:0:
448,192,129438,1,0,0:0:0:0:
192,192,129485,1,0,0:0:0:0:
64,192,129626,1,0,0:0:0:0:
320,192,129626,1,0,0:0:0:0:
448,192,129704,1,0,0:0:0:0:
320,192,129774,1,0,0:0:0:0:
192,192,129813,1,0,0:0:0:0:
64,192,129813,1,0,0:0:0:0:
448,192,129876,1,0,0:0:0:0:
192,192,129907,1,0,0:0:0:0:
448,192,130001,1,0,0:0:0:0:
64,192,130063,1,0,0:0:0:0:
320,192,130157,1,0,0:0:0:0:
64,192,130219,1,0,0:0:0:0:
320,192,130282,1,0,0:0:0:0:
448,192,130344,1,0,0:0:0:0:
192,192,130407,1,0,0:0:0:0:
320,192,130469,1,0,0:0:0:0:
192,192,130532,1,0,0:0:0:0:
64,192,130594,1,0,0:0:0:0:
448,192,130657,1,0,0:0:0:0:
192,192,130719,1,0,0:0:0:0:
320,192,130767,1,0,0:0:0:0:
448,192,130813,128,0,130969:0:0:0:0:
64,192,131126,1,0,0:0:0:0:
320,192,131126,1,0,0:0:0:0:
448,192,131188,1,0,0:0:0:0:
320,192,131251,1,0,0:0:0:0:
192,192,131313,1,0,0:0:0:0:
64,192,131501,1,0,0:0:0:0:
448,192,131501,1,0,0:0:0:0:
448,192,131594,1,0,0:0:0:0:
192,192,131657,1,0,0:0:0:0:
64,192,131719,1,0,0:0:0:0:
320,192,131782,1,0,0:0:0:0:
64,192,131844,1,0,0:0:0:0:
192,192,131907,1,0,0:0:0:0:
320,192,131969,1,0,0:0:0:0:
448,192,132032,1,0,0:0:0:0:
192,192,132094,1,0,0:0:0:0:
320,192,132173,1,0,0:0:0:0:
448,192,132251,1,0,0:0:0:0:
192,192,132329,1,0,0:0:0:0:
64,192,132407,1,0,0:0:0:0:
448,192,132469,1,0,0:0:0:0:
320,192,132563,1,0,0:0:0:0:
64,192,132626,1,0,0:0:0:0:
192,192,132626,1,0,0:0:0:0:
448,192,132688,1,0,0:0:0:0:
192,192,132813,1,0,0:0:0:0:
448,192,132813,1,0,0:0:0:0:
320,192,132876,1,0,0:0:0:0:
320,192,133001,1,0,0:0:0:0:
64,192,133076,1,0,0:0:0:0:
448,192,133151,1,0,0:0:0:0:
64,192,133226,1,0,0:0:0:0:
448,192,133301,1,0,0:0:0:0:
64,192,133376,1,0,0:0:0:0:
320,192,133563,1,0,0:0:0:0:
192,192,133751,1,0,0:0:0:0:
64,192,133751,1,0,0:0:0:0:
320,192,133797,1,0,0:0:0:0:
448,192,133844,128,0,134032:0:0:0:0:
192,192,134172,1,0,0:0:0:0:
192,192,134313,1,0,0:0:0:0:
320,192,134360,1,0,0:0:0:0:
448,192,134501,1,0,0:0:0:0:
64,192,134501,1,0,0:0:0:0:
192,192,134563,1,0,0:0:0:0:
448,192,134626,1,0,0:0:0:0:
320,192,134688,1,0,0:0:0:0:
192,192,134751,1,0,0:0:0:0:
448,192,134813,1,0,0:0:0:0:
64,192,134876,1,0,0:0:0:0:
320,192,134938,1,0,0:0:0:0:
448,192,135017,1,0,0:0:0:0:
64,192,135087,1,0,0:0:0:0:
448,192,135165,1,0,0:0:0:0:
192,192,135251,1,0,0:0:0:0:
64,192,135438,1,0,0:0:0:0:
192,192,135532,1,0,0:0:0:0:
64,192,135626,1,0,0:0:0:0:
448,192,135626,1,0,0:0:0:0:
320,192,135688,1,0,0:0:0:0:
192,192,135813,1,0,0:0:0:0:
320,192,135813,1,0,0:0:0:0:
448,192,135876,1,0,0:0:0:0:
64,192,135954,1,0,0:0:0:0:
192,192,136048,1,0,0:0:0:0:
448,192,136095,1,0,0:0:0:0:
320,192,136157,1,0,0:0:0:0:
192,192,136220,1,0,0:0:0:0:
448,192,136282,1,0,0:0:0:0:
64,192,136376,1,0,0:0:0:0:
448,192,136407,1,0,0:0:0:0:
192,192,136470,1,0,0:0:0:0:
64,192,136751,1,0,0:0:0:0:
192,192,136797,1,0,0:0:0:0:
320,192,136844,128,0,137032:0:0:0:0:
192,192,137126,1,0,0:0:0:0:
320,192,137172,1,0,0:0:0:0:
320,192,137313,1,0,0:0:0:0:
192,192,137360,1,0,0:0:0:0:
448,192,137501,1,0,0:0:0:0:
64,192,137501,1,0,0:0:0:0:
192,192,137576,1,0,0:0:0:0:
64,192,137651,1,0,0:0:0:0:
320,192,137688,1,0,0:0:0:0:
448,192,137688,1,0,0:0:0:0:
64,192,137801,1,0,0:0:0:0:
320,192,137876,1,0,0:0:0:0:
64,192,137951,1,0,0:0:0:0:
448,192,138026,1,0,0:0:0:0:
64,192,138101,1,0,0:0:0:0:
192,192,138176,1,0,0:0:0:0:
320,192,138251,1,0,0:0:0:0:
448,192,138438,1,0,0:0:0:0:
320,192,138517,1,0,0:0:0:0:
64,192,138626,1,0,0:0:0:0:
320,192,138626,1,0,0:0:0:0:
192,192,138688,1,0,0:0:0:0:
192,192,138813,1,0,0:0:0:0:
448,192,138813,1,0,0:0:0:0:
64,192,138876,1,0,0:0:0:0:
448,192,138969,1,0,0:0:0:0:
192,192,139001,1,0,0:0:0:0:
320,192,139094,1,0,0:0:0:0:
64,192,139157,1,0,0:0:0:0:
320,192,139219,1,0,0:0:0:0:
192,192,139282,1,0,0:0:0:0:
448,192,139344,1,0,0:0:0:0:
64,192,139376,1,0,0:0:0:0:
320,192,139469,1,0,0:0:0:0:
64,192,139564,1,0,0:0:0:0:
448,192,139594,1,0,0:0:0:0:
192,192,139657,1,0,0:0:0:0:
448,192,139751,1,0,0:0:0:0:
64,192,139751,1,0,0:0:0:0:
192,192,139797,1,0,0:0:0:0:
320,192,139845,128,0,140032:0:0:0:0:
64,192,140126,1,0,0:0:0:0:
448,192,140219,1,0,0:0:0:0:
64,192,140313,1,0,0:0:0:0:
192,192,140407,1,0,0:0:0:0:
320,192,140501,1,0,0:0:0:0:
448,192,140501,1,0,0:0:0:0:
64,192,140576,1,0,0:0:0:0:
320,192,140651,1,0,0:0:0:0:
448,192,140726,1,0,0:0:0:0:
320,192,140801,1,0,0:0:0:0:
192,192,140876,1,0,0:0:0:0:
64,192,140951,1,0,0:0:0:0:
448,192,141048,1,0,0:0:0:0:
64,192,141142,1,0,0:0:0:0:
448,192,141235,1,0,0:0:0:0:
320,192,141469,1,0,0:0:0:0:
192,192,141485,1,0,0:0:0:0:
320,192,141563,1,0,0:0:0:0:
448,192,141626,1,0,0:0:0:0:
64,192,141688,1,0,0:0:0:0:
64,192,141813,1,0,0:0:0:0:
448,192,141813,1,0,0:0:0:0:
192,192,141876,1,0,0:0:0:0:
320,192,141938,1,0,0:0:0:0:
320,192,142071,1,0,0:0:0:0:
448,192,142134,1,0,0:0:0:0:
192,192,142196,1,0,0:0:0:0:
64,192,142259,1,0,0:0:0:0:
448,192,142321,1,0,0:0:0:0:
192,192,142376,1,0,0:0:0:0:
448,192,142446,1,0,0:0:0:0:
64,192,142516,1,0,0:0:0:0:
320,192,142587,1,0,0:0:0:0:
448,192,142657,1,0,0:0:0:0:
320,192,142751,1,0,0:0:0:0:
192,192,142797,1,0,0:0:0:0:
64,192,142844,128,0,143032:0:0:0:0:
64,192,143126,1,0,0:0:0:0:
448,192,143126,1,0,0:0:0:0:
320,192,143219,1,0,0:0:0:0:
320,192,143313,1,0,0:0:0:0:
64,192,143501,1,0,0:0:0:0:
320,192,143501,1,0,0:0:0:0:
448,192,143563,1,0,0:0:0:0:
192,192,143594,1,0,0:0:0:0:
448,192,143704,1,0,0:0:0:0:
64,192,143782,1,0,0:0:0:0:
448,192,143845,1,0,0:0:0:0:
192,192,143876,1,0,0:0:0:0:
64,192,143969,1,0,0:0:0:0:
448,192,143985,1,0,0:0:0:0:
448,192,144126,1,0,0:0:0:0:
192,192,144157,1,0,0:0:0:0:
64,192,144251,1,0,0:0:0:0:
448,192,144267,1,0,0:0:0:0:
320,192,144326,1,0,0:0:0:0:
64,192,144401,1,0,0:0:0:0:
192,192,144476,1,0,0:0:0:0:
64,192,144626,1,0,0:0:0:0:
448,192,144626,1,0,0:0:0:0:
320,192,144701,1,0,0:0:0:0:
192,192,144813,1,0,0:0:0:0:
64,192,144813,1,0,0:0:0:0:
320,192,144851,1,0,0:0:0:0:
448,192,144926,1,0,0:0:0:0:
192,192,145063,1,0,0:0:0:0:
320,192,145126,1,0,0:0:0:0:
64,192,145165,1,0,0:0:0:0:
448,192,145188,1,0,0:0:0:0:
192,192,145251,1,0,0:0:0:0:
448,192,145313,1,0,0:0:0:0:
320,192,145376,1,0,0:0:0:0:
64,192,145399,1,0,0:0:0:0:
192,192,145501,1,0,0:0:0:0:
320,192,145563,1,0,0:0:0:0:
448,192,145751,1,0,0:0:0:0:
64,192,145751,1,0,0:0:0:0:
192,192,145797,1,0,0:0:0:0:
320,192,145844,128,0,146032:0:0:0:0:
448,192,146126,1,0,0:0:0:0:
64,192,146219,1,0,0:0:0:0:
320,192,146313,1,0,0:0:0:0:
64,192,146407,1,0,0:0:0:0:
192,192,146501,1,0,0:0:0:0:
448,192,146501,1,0,0:0:0:0:
320,192,146576,1,0,0:0:0:0:
64,192,146651,1,0,0:0:0:0:
448,192,146726,1,0,0:0:0:0:
64,192,146801,1,0,0:0:0:0:
192,192,146876,1,0,0:0:0:0:
320,192,146951,1,0,0:0:0:0:
448,192,147026,1,0,0:0:0:0:
64,192,147251,1,0,0:0:0:0:
320,192,147438,1,0,0:0:0:0:
448,192,147532,1,0,0:0:0:0:
64,192,147626,1,0,0:0:0:0:
320,192,147626,1,0,0:0:0:0:
192,192,147688,1,0,0:0:0:0:
192,192,147813,1,0,0:0:0:0:
64,192,147814,1,0,0:0:0:0:
448,192,147876,1,0,0:0:0:0:
64,192,147969,1,0,0:0:0:0:
448,192,148094,1,0,0:0:0:0:
64,192,148157,1,0,0:0:0:0:
448,192,148219,1,0,0:0:0:0:
192,192,148282,1,0,0:0:0:0:
320,192,148376,1,0,0:0:0:0:
192,192,148407,1,0,0:0:0:0:
64,192,148469,1,0,0:0:0:0:
448,192,148564,1,0,0:0:0:0:
64,192,148751,1,0,0:0:0:0:
192,192,148797,1,0,0:0:0:0:
320,192,148844,128,0,149032:0:0:0:0:
448,192,149094,1,0,0:0:0:0:
320,192,149172,1,0,0:0:0:0:
64,192,149266,1,0,0:0:0:0:
192,192,149313,1,0,0:0:0:0:
320,192,149360,1,0,0:0:0:0:
192,192,149501,1,0,0:0:0:0:
448,192,149501,1,0,0:0:0:0:
64,192,149563,1,0,0:0:0:0:
192,192,149626,1,0,0:0:0:0:
320,192,149688,1,0,0:0:0:0:
448,192,149689,1,0,0:0:0:0:
64,192,149782,1,0,0:0:0:0:
448,192,149876,1,0,0:0:0:0:
64,192,149969,1,0,0:0:0:0:
320,192,150063,1,0,0:0:0:0:
448,192,150142,1,0,0:0:0:0:
320,192,150212,1,0,0:0:0:0:
448,192,150313,1,0,0:0:0:0:
192,192,150391,1,0,0:0:0:0:
320,192,150438,1,0,0:0:0:0:
192,192,150508,1,0,0:0:0:0:
64,192,150626,1,0,0:0:0:0:
448,192,150626,1,0,0:0:0:0:
320,192,150688,1,0,0:0:0:0:
448,192,150751,1,0,0:0:0:0:
64,192,150813,1,0,0:0:0:0:
320,192,150907,1,0,0:0:0:0:
64,192,151001,1,0,0:0:0:0:
320,192,151024,1,0,0:0:0:0:
192,192,151141,1,0,0:0:0:0:
64,192,151204,1,0,0:0:0:0:
448,192,151267,1,0,0:0:0:0:
64,192,151329,1,0,0:0:0:0:
320,192,151376,1,0,0:0:0:0:
448,192,151376,1,0,0:0:0:0:
192,192,151563,1,0,0:0:0:0:
448,192,151751,1,0,0:0:0:0:
64,192,151751,1,0,0:0:0:0:
192,192,151797,1,0,0:0:0:0:
320,192,151844,128,0,152032:0:0:0:0:
64,192,152126,1,0,0:0:0:0:
192,192,152126,1,0,0:0:0:0:
64,192,152219,1,0,0:0:0:0:
320,192,152313,1,0,0:0:0:0:
192,192,152407,1,0,0:0:0:0:
64,192,152501,1,4,0:0:0:0:
448,192,152501,1,0,0:0:0:0:
64,192,152688,1,0,0:0:0:0:
448,192,152688,1,0,0:0:0:0:
320,192,152767,1,0,0:0:0:0:
192,192,152837,1,0,0:0:0:0:
320,192,152915,1,0,0:0:0:0:
192,192,153063,1,0,0:0:0:0:
64,192,153063,1,0,0:0:0:0:
320,192,153251,1,0,0:0:0:0:
448,192,153251,1,0,0:0:0:0:
64,192,153251,1,0,0:0:0:0:
192,192,153344,1,0,0:0:0:0:
64,192,153438,1,0,0:0:0:0:
320,192,153501,1,0,0:0:0:0:
448,192,153563,1,0,0:0:0:0:
192,192,153626,1,0,0:0:0:0:
448,192,153688,1,0,0:0:0:0:
64,192,153813,1,0,0:0:0:0:
320,192,153860,1,0,0:0:0:0:
192,192,153938,1,0,0:0:0:0:
320,192,154001,1,0,0:0:0:0:
448,192,154001,1,0,0:0:0:0:
64,192,154076,1,0,0:0:0:0:
448,192,154151,1,0,0:0:0:0:
192,192,154226,1,0,0:0:0:0:
64,192,154301,1,0,0:0:0:0:
192,192,154376,1,0,0:0:0:0:
320,192,154451,1,0,0:0:0:0:
64,192,154563,1,0,0:0:0:0:
64,192,154751,1,0,0:0:0:0:
448,192,154751,1,0,0:0:0:0:
192,192,154751,1,0,0:0:0:0:
320,192,154938,1,0,0:0:0:0:
192,192,155126,1,0,0:0:0:0:
192,192,155313,1,0,0:0:0:0:
320,192,155376,1,0,0:0:0:0:
64,192,155501,1,0,0:0:0:0:
320,192,155501,1,0,0:0:0:0:
448,192,155688,1,0,0:0:0:0:
64,192,155688,1,0,0:0:0:0:
320,192,155758,1,0,0:0:0:0:
448,192,155844,1,0,0:0:0:0:
64,192,155922,1,0,0:0:0:0:
192,192,156063,1,0,0:0:0:0:
320,192,156063,1,0,0:0:0:0:
320,192,156157,1,0,0:0:0:0:
64,192,156251,1,0,0:0:0:0:
448,192,156251,1,0,0:0:0:0:
320,192,156314,1,0,0:0:0:0:
192,192,156376,1,0,0:0:0:0:
64,192,156438,1,0,0:0:0:0:
448,192,156439,1,0,0:0:0:0:
192,192,156626,1,0,0:0:0:0:
320,192,156688,1,0,0:0:0:0:
64,192,156790,1,0,0:0:0:0:
320,192,156907,1,0,0:0:0:0:
64,192,157001,1,0,0:0:0:0:
192,192,157001,1,0,0:0:0:0:
320,192,157063,1,0,0:0:0:0:
448,192,157134,1,0,0:0:0:0:
320,192,157204,1,0,0:0:0:0:
192,192,157282,1,0,0:0:0:0:
64,192,157360,1,0,0:0:0:0:
448,192,157376,1,0,0:0:0:0:
320,192,157751,1,0,0:0:0:0:
448,192,157751,1,0,0:0:0:0:
64,192,157751,1,0,0:0:0:0:
192,192,158126,1,0,0:0:0:0:
448,192,158126,1,0,0:0:0:0:
192,192,158220,1,0,0:0:0:0:
320,192,158314,1,0,0:0:0:0:
192,192,158407,1,0,0:0:0:0:
448,192,158501,1,0,0:0:0:0:
64,192,158501,1,0,0:0:0:0:
64,192,158689,1,0,0:0:0:0:
448,192,158689,1,0,0:0:0:0:
320,192,158751,1,0,0:0:0:0:
192,192,158814,1,0,0:0:0:0:
320,192,158876,1,0,0:0:0:0:
64,192,158939,1,0,0:0:0:0:
320,192,159001,1,0,0:0:0:0:
192,192,159064,1,0,0:0:0:0:
448,192,159157,1,0,0:0:0:0:
64,192,159251,1,0,0:0:0:0:
448,192,159251,1,0,0:0:0:0:
320,192,159251,1,0,0:0:0:0:
320,192,159439,1,0,0:0:0:0:
64,192,159626,1,0,0:0:0:0:
192,192,159626,1,0,0:0:0:0:
64,192,159719,1,0,0:0:0:0:
448,192,159813,1,0,0:0:0:0:
64,192,159907,1,0,0:0:0:0:
192,192,160001,1,0,0:0:0:0:
448,192,160001,1,0,0:0:0:0:
192,192,160188,1,0,0:0:0:0:
320,192,160188,1,0,0:0:0:0:
64,192,160251,1,0,0:0:0:0:
448,192,160313,1,0,0:0:0:0:
64,192,160376,1,0,0:0:0:0:
192,192,160438,1,0,0:0:0:0:
320,192,160501,1,0,0:0:0:0:
448,192,160563,1,0,0:0:0:0:
192,192,160657,1,0,0:0:0:0:
64,192,160751,1,0,0:0:0:0:
192,192,160751,1,0,0:0:0:0:
448,192,160751,1,0,0:0:0:0:
320,192,160938,1,0,0:0:0:0:
448,192,161126,1,0,0:0:0:0:
64,192,161188,1,0,0:0:0:0:
448,192,161251,1,0,0:0:0:0:
192,192,161313,1,0,0:0:0:0:
64,192,161376,1,0,0:0:0:0:
320,192,161438,1,0,0:0:0:0:
448,192,161501,1,0,0:0:0:0:
192,192,161501,1,0,0:0:0:0:
64,192,161576,1,0,0:0:0:0:
192,192,161651,1,0,0:0:0:0:
320,192,161688,1,0,0:0:0:0:
448,192,161688,1,0,0:0:0:0:
192,192,161801,1,0,0:0:0:0:
64,192,161876,1,0,0:0:0:0:
448,192,161938,1,0,0:0:0:0:
320,192,162063,1,0,0:0:0:0:
192,192,162063,1,0,0:0:0:0:
64,192,162251,1,0,0:0:0:0:
320,192,162251,1,0,0:0:0:0:
448,192,162251,1,0,0:0:0:0:
192,192,162313,1,0,0:0:0:0:
320,192,162376,1,0,0:0:0:0:
64,192,162438,1,0,0:0:0:0:
192,192,162501,1,0,0:0:0:0:
192,192,162626,1,0,0:0:0:0:
448,192,162626,1,0,0:0:0:0:
448,192,162719,1,0,0:0:0:0:
64,192,162813,1,0,0:0:0:0:
320,192,162907,1,0,0:0:0:0:
192,192,163001,1,0,0:0:0:0:
448,192,163001,1,0,0:0:0:0:
64,192,163188,1,0,0:0:0:0:
448,192,163188,1,0,0:0:0:0:
320,192,163188,1,0,0:0:0:0:
192,192,163251,1,0,0:0:0:0:
64,192,163313,1,0,0:0:0:0:
320,192,163376,1,0,0:0:0:0:
448,192,163438,1,0,0:0:0:0:
64,192,163516,1,0,0:0:0:0:
192,192,163626,1,0,0:0:0:0:
448,192,163688,1,0,0:0:0:0:
64,192,163751,1,0,0:0:0:0:
192,192,163751,1,0,0:0:0:0:
448,192,163813,1,0,0:0:0:0:
320,192,163876,1,0,0:0:0:0:
192,192,163938,1,0,0:0:0:0:
64,192,164126,1,0,0:0:0:0:
448,192,164126,1,0,0:0:0:0:
64,192,164313,1,0,0:0:0:0:
448,192,164313,1,0,0:0:0:0:
192,192,164501,1,0,0:0:0:0:
448,192,164501,1,4,0:0:0:0:
64,192,164563,1,0,0:0:0:0:
320,192,164626,1,0,0:0:0:0:
320,192,164751,1,0,0:0:0:0:
192,192,164829,1,0,0:0:0:0:
448,192,164899,1,0,0:0:0:0:
64,192,164978,1,0,0:0:0:0:
192,192,165048,1,0,0:0:0:0:
448,192,165063,1,0,0:0:0:0:
320,192,165126,1,0,0:0:0:0:
192,192,165251,1,0,0:0:0:0:
448,192,165251,1,0,0:0:0:0:
64,192,165313,1,0,0:0:0:0:
320,192,165360,1,0,0:0:0:0:
448,192,165407,1,0,0:0:0:0:
192,192,165454,1,0,0:0:0:0:
320,192,165501,1,0,0:0:0:0:
64,192,165548,1,0,0:0:0:0:
448,192,165595,1,0,0:0:0:0:
192,192,165642,1,0,0:0:0:0:
64,192,165689,1,0,0:0:0:0:
320,192,165751,1,0,0:0:0:0:
64,192,165813,1,0,0:0:0:0:
192,192,165876,1,0,0:0:0:0:
320,192,165938,1,0,0:0:0:0:
448,192,166001,1,0,0:0:0:0:
64,192,166076,1,0,0:0:0:0:
448,192,166151,1,0,0:0:0:0:
192,192,166226,1,0,0:0:0:0:
64,192,166376,1,0,0:0:0:0:
448,192,166376,1,0,0:0:0:0:
64,192,166751,1,0,0:0:0:0:
320,192,166751,1,0,0:0:0:0:
192,192,166813,1,0,0:0:0:0:
448,192,166876,1,0,0:0:0:0:
192,192,166938,1,0,0:0:0:0:
64,192,167001,1,0,0:0:0:0:
320,192,167063,1,0,0:0:0:0:
448,192,167126,1,0,0:0:0:0:
192,192,167201,1,0,0:0:0:0:
448,192,167276,1,0,0:0:0:0:
448,192,167426,1,0,0:0:0:0:
320,192,167501,1,0,0:0:0:0:
64,192,167501,1,0,0:0:0:0:
192,192,167547,1,0,0:0:0:0:
448,192,167594,1,0,0:0:0:0:
192,192,167641,1,0,0:0:0:0:
64,192,167688,1,0,0:0:0:0:
320,192,167735,1,0,0:0:0:0:
192,192,167782,1,0,0:0:0:0:
448,192,167829,1,0,0:0:0:0:
320,192,167876,1,0,0:0:0:0:
64,192,167922,1,0,0:0:0:0:
192,192,167969,1,0,0:0:0:0:
448,192,168063,1,0,0:0:0:0:
64,192,168126,1,0,0:0:0:0:
320,192,168188,1,0,0:0:0:0:
64,192,168251,1,0,0:0:0:0:
192,192,168313,1,0,0:0:0:0:
448,192,168376,1,0,0:0:0:0:
320,192,168469,1,0,0:0:0:0:
320,192,168563,1,0,0:0:0:0:
192,192,168610,1,0,0:0:0:0:
448,192,168657,1,0,0:0:0:0:
448,192,168813,1,0,0:0:0:0:
64,192,168813,1,0,0:0:0:0:
64,192,169001,1,0,0:0:0:0:
320,192,169001,1,0,0:0:0:0:
448,192,169063,1,0,0:0:0:0:
320,192,169126,1,0,0:0:0:0:
192,192,169188,1,0,0:0:0:0:
320,192,169251,1,0,0:0:0:0:
64,192,169313,1,0,0:0:0:0:
192,192,169376,1,0,0:0:0:0:
448,192,169376,1,0,0:0:0:0:
320,192,169451,1,0,0:0:0:0:
64,192,169526,1,0,0:0:0:0:
320,192,169601,1,0,0:0:0:0:
448,192,169751,1,0,0:0:0:0:
64,192,169751,1,0,0:0:0:0:
320,192,169813,1,0,0:0:0:0:
64,192,169876,1,0,0:0:0:0:
192,192,169938,1,0,0:0:0:0:
320,192,170001,1,0,0:0:0:0:
448,192,170063,1,0,0:0:0:0:
192,192,170126,1,0,0:0:0:0:
192,192,170501,1,0,0:0:0:0:
448,192,170501,1,0,0:0:0:0:
192,192,170594,1,0,0:0:0:0:
320,192,170735,1,0,0:0:0:0:
64,192,170751,1,0,0:0:0:0:
448,192,170805,1,0,0:0:0:0:
320,192,170876,1,0,0:0:0:0:
64,192,170938,1,0,0:0:0:0:
192,192,171063,1,0,0:0:0:0:
320,192,171110,1,0,0:0:0:0:
64,192,171251,1,0,0:0:0:0:
320,192,171251,1,0,0:0:0:0:
192,192,171313,1,0,0:0:0:0:
448,192,171360,1,0,0:0:0:0:
64,192,171407,1,0,0:0:0:0:
320,192,171454,1,0,0:0:0:0:
448,192,171501,1,0,0:0:0:0:
192,192,171548,1,0,0:0:0:0:
448,192,171595,1,0,0:0:0:0:
320,192,171642,1,0,0:0:0:0:
192,192,171689,1,0,0:0:0:0:
64,192,171735,1,0,0:0:0:0:
448,192,171782,1,0,0:0:0:0:
64,192,171829,1,0,0:0:0:0:
192,192,171876,1,0,0:0:0:0:
320,192,171923,1,0,0:0:0:0:
64,192,172001,1,0,0:0:0:0:
448,192,172001,1,0,0:0:0:0:
320,192,172376,1,0,0:0:0:0:
448,192,172376,1,0,0:0:0:0:
192,192,172751,1,0,0:0:0:0:
448,192,172813,1,0,0:0:0:0:
192,192,172876,1,0,0:0:0:0:
64,192,172938,1,0,0:0:0:0:
320,192,173001,1,0,0:0:0:0:
192,192,173063,1,0,0:0:0:0:
448,192,173126,1,0,0:0:0:0:
64,192,173201,1,0,0:0:0:0:
448,192,173276,1,0,0:0:0:0:
192,192,173407,1,0,0:0:0:0:
192,192,173501,1,0,0:0:0:0:
448,192,173501,1,0,0:0:0:0:
320,192,173548,1,0,0:0:0:0:
64,192,173595,1,0,0:0:0:0:
320,192,173642,1,0,0:0:0:0:
448,192,173689,1,0,0:0:0:0:
64,192,173735,1,0,0:0:0:0:
192,192,173782,1,0,0:0:0:0:
320,192,173829,1,0,0:0:0:0:
448,192,173876,1,0,0:0:0:0:
64,192,173923,1,0,0:0:0:0:
448,192,173970,1,0,0:0:0:0:
192,192,174032,1,0,0:0:0:0:
320,192,174094,1,0,0:0:0:0:
192,192,174157,1,0,0:0:0:0:
64,192,174219,1,0,0:0:0:0:
320,192,174251,1,0,0:0:0:0:
448,192,174251,1,0,0:0:0:0:
64,192,174360,1,0,0:0:0:0:
192,192,174438,1,0,0:0:0:0:
320,192,174517,1,0,0:0:0:0:
448,192,174594,1,0,0:0:0:0:
192,192,174672,1,0,0:0:0:0:
448,192,174751,1,0,0:0:0:0:
64,192,174782,1,0,0:0:0:0:
320,192,174798,1,0,0:0:0:0:
192,192,174876,1,0,0:0:0:0:
320,192,175001,1,0,0:0:0:0:
64,192,175001,1,0,0:0:0:0:
448,192,175047,1,0,0:0:0:0:
192,192,175094,1,0,0:0:0:0:
448,192,175141,1,0,0:0:0:0:
320,192,175188,1,0,0:0:0:0:
64,192,175235,1,0,0:0:0:0:
192,192,175282,1,0,0:0:0:0:
448,192,175329,1,0,0:0:0:0:
192,192,175376,1,0,0:0:0:0:
64,192,175422,1,0,0:0:0:0:
320,192,175469,1,0,0:0:0:0:
448,192,175516,1,0,0:0:0:0:
192,192,175563,1,0,0:0:0:0:
320,192,175610,1,0,0:0:0:0:
64,192,175657,1,0,0:0:0:0:
192,192,175704,1,0,0:0:0:0:
448,192,175751,1,0,0:0:0:0:
320,192,175751,1,0,0:0:0:0:
64,192,175844,1,0,0:0:0:0:
448,192,175938,1,0,0:0:0:0:
320,192,175938,1,0,0:0:0:0:
64,192,176032,1,0,0:0:0:0:
448,192,176126,1,0,0:0:0:0:
64,192,176126,1,0,0:0:0:0:
192,192,176313,1,0,0:0:0:0:
64,192,176501,1,4,0:0:0:0:
320,192,176501,1,0,0:0:0:0:
448,192,176563,1,0,0:0:0:0:
320,192,176626,1,0,0:0:0:0:
64,192,176688,1,0,0:0:0:0:
192,192,176767,1,0,0:0:0:0:
448,192,176837,1,0,0:0:0:0:
192,192,176915,1,0,0:0:0:0:
192,192,177063,1,0,0:0:0:0:
448,192,177126,1,0,0:0:0:0:
64,192,177251,1,0,0:0:0:0:
448,192,177251,1,0,0:0:0:0:
320,192,177297,1,0,0:0:0:0:
192,192,177344,1,0,0:0:0:0:
448,192,177391,1,0,0:0:0:0:
192,192,177438,1,0,0:0:0:0:
64,192,177485,1,0,0:0:0:0:
320,192,177532,1,0,0:0:0:0:
192,192,177579,1,0,0:0:0:0:
448,192,177626,1,0,0:0:0:0:
64,192,177672,1,0,0:0:0:0:
192,192,177719,1,0,0:0:0:0:
320,192,177766,1,0,0:0:0:0:
448,192,177813,1,0,0:0:0:0:
192,192,177860,1,0,0:0:0:0:
320,192,177907,1,0,0:0:0:0:
64,192,177954,1,0,0:0:0:0:
320,192,178001,1,0,0:0:0:0:
448,192,178063,1,0,0:0:0:0:
192,192,178126,1,0,0:0:0:0:
320,192,178188,1,0,0:0:0:0:
64,192,178251,1,0,0:0:0:0:
192,192,178313,1,0,0:0:0:0:
320,192,178376,1,0,0:0:0:0:
448,192,178376,1,0,0:0:0:0:
320,192,178751,1,0,0:0:0:0:
64,192,178751,1,0,0:0:0:0:
192,192,178813,1,0,0:0:0:0:
448,192,178876,1,0,0:0:0:0:
192,192,178938,1,0,0:0:0:0:
64,192,179001,1,0,0:0:0:0:
320,192,179126,1,0,0:0:0:0:
448,192,179188,1,0,0:0:0:0:
192,192,179251,1,0,0:0:0:0:
448,192,179313,1,0,0:0:0:0:
320,192,179376,1,0,0:0:0:0:
448,192,179501,1,0,0:0:0:0:
64,192,179501,1,0,0:0:0:0:
192,192,179547,1,0,0:0:0:0:
320,192,179594,1,0,0:0:0:0:
64,192,179641,1,0,0:0:0:0:
448,192,179688,1,0,0:0:0:0:
192,192,179751,1,0,0:0:0:0:
448,192,179813,1,0,0:0:0:0:
320,192,179876,1,0,0:0:0:0:
64,192,179938,1,0,0:0:0:0:
192,192,180063,1,0,0:0:0:0:
64,192,180126,1,0,0:0:0:0:
192,192,180188,1,0,0:0:0:0:
320,192,180251,1,0,0:0:0:0:
448,192,180251,1,0,0:0:0:0:
64,192,180313,1,0,0:0:0:0:
448,192,180392,1,0,0:0:0:0:
64,192,180469,1,0,0:0:0:0:
448,192,180548,1,0,0:0:0:0:
192,192,180626,1,0,0:0:0:0:
320,192,180657,1,0,0:0:0:0:
320,192,180751,1,0,0:0:0:0:
192,192,180876,1,0,0:0:0:0:
448,192,180907,1,0,0:0:0:0:
64,192,181001,1,0,0:0:0:0:
448,192,181063,1,0,0:0:0:0:
192,192,181094,1,0,0:0:0:0:
320,192,181126,1,0,0:0:0:0:
64,192,181188,1,0,0:0:0:0:
448,192,181251,1,0,0:0:0:0:
320,192,181282,1,0,0:0:0:0:
64,192,181313,1,0,0:0:0:0:
192,192,181376,1,0,0:0:0:0:
320,192,181376,1,0,0:0:0:0:
448,192,181438,1,0,0:0:0:0:
64,192,181501,1,0,0:0:0:0:
320,192,181563,1,0,0:0:0:0:
192,192,181626,1,0,0:0:0:0:
448,192,181688,1,0,0:0:0:0:
320,192,181751,1,0,0:0:0:0:
64,192,181751,1,0,0:0:0:0:
192,192,181826,1,0,0:0:0:0:
448,192,181901,1,0,0:0:0:0:
192,192,181976,1,0,0:0:0:0:
320,192,182051,1,0,0:0:0:0:
64,192,182126,1,0,0:0:0:0:
64,192,182501,1,0,0:0:0:0:
448,192,182501,1,0,0:0:0:0:
192,192,182571,1,0,0:0:0:0:
64,192,182641,1,0,0:0:0:0:
320,192,182735,1,0,0:0:0:0:
448,192,182782,1,0,0:0:0:0:
64,192,182844,1,0,0:0:0:0:
192,192,182938,1,0,0:0:0:0:
192,192,183063,1,0,0:0:0:0:
320,192,183063,1,0,0:0:0:0:
192,192,183251,1,0,0:0:0:0:
448,192,183251,1,0,0:0:0:0:
64,192,183313,1,0,0:0:0:0:
448,192,183344,1,0,0:0:0:0:
320,192,183376,1,0,0:0:0:0:
64,192,183438,1,0,0:0:0:0:
448,192,183501,1,0,0:0:0:0:
192,192,183532,1,0,0:0:0:0:
320,192,183563,1,0,0:0:0:0:
64,192,183626,1,0,0:0:0:0:
320,192,183688,1,0,0:0:0:0:
448,192,183719,1,0,0:0:0:0:
64,192,183751,1,0,0:0:0:0:
192,192,183813,1,0,0:0:0:0:
320,192,183876,1,0,0:0:0:0:
64,192,183907,1,0,0:0:0:0:
448,192,183938,1,0,0:0:0:0:
192,192,184001,1,0,0:0:0:0:
320,192,184063,1,0,0:0:0:0:
192,192,184126,1,0,0:0:0:0:
64,192,184188,1,0,0:0:0:0:
192,192,184376,1,0,0:0:0:0:
448,192,184376,1,0,0:0:0:0:
64,192,184751,1,0,0:0:0:0:
448,192,184751,1,0,0:0:0:0:
192,192,184813,1,0,0:0:0:0:
320,192,184876,1,0,0:0:0:0:
192,192,184938,1,0,0:0:0:0:
64,192,185001,1,0,0:0:0:0:
320,192,185126,1,0,0:0:0:0:
448,192,185201,1,0,0:0:0:0:
192,192,185276,1,0,0:0:0:0:
448,192,185351,1,0,0:0:0:0:
448,192,185501,1,0,0:0:0:0:
192,192,185501,1,0,0:0:0:0:
64,192,185547,1,0,0:0:0:0:
320,192,185594,1,0,0:0:0:0:
64,192,185641,1,0,0:0:0:0:
192,192,185688,1,0,0:0:0:0:
320,192,185735,1,0,0:0:0:0:
448,192,185782,1,0,0:0:0:0:
64,192,185829,1,0,0:0:0:0:
320,192,185876,1,0,0:0:0:0:
192,192,185922,1,0,0:0:0:0:
64,192,185969,1,0,0:0:0:0:
448,192,186016,1,0,0:0:0:0:
192,192,186063,1,0,0:0:0:0:
320,192,186110,1,0,0:0:0:0:
448,192,186157,1,0,0:0:0:0:
320,192,186204,1,0,0:0:0:0:
192,192,186251,1,0,0:0:0:0:
64,192,186251,1,0,0:0:0:0:
448,192,186313,1,0,0:0:0:0:
64,192,186376,1,0,0:0:0:0:
192,192,186438,1,0,0:0:0:0:
320,192,186501,1,0,0:0:0:0:
192,192,186563,1,0,0:0:0:0:
448,192,186626,1,0,0:0:0:0:
64,192,186626,1,0,0:0:0:0:
320,192,186688,1,0,0:0:0:0:
448,192,186751,1,0,0:0:0:0:
192,192,186813,1,0,0:0:0:0:
192,192,187001,1,0,0:0:0:0:
320,192,187001,1,0,0:0:0:0:
192,192,187094,1,0,0:0:0:0:
320,192,187157,1,0,0:0:0:0:
64,192,187188,1,0,0:0:0:0:
448,192,187219,1,0,0:0:0:0:
320,192,187282,1,0,0:0:0:0:
64,192,187344,1,0,0:0:0:0:
192,192,187376,1,0,0:0:0:0:
448,192,187376,1,0,0:0:0:0:
320,192,187469,1,0,0:0:0:0:
192,192,187532,1,0,0:0:0:0:
448,192,187563,1,0,0:0:0:0:
64,192,187594,1,0,0:0:0:0:
192,192,187657,1,0,0:0:0:0:
320,192,187751,1,0,0:0:0:0:
448,192,187751,1,0,0:0:0:0:
320,192,187844,1,0,0:0:0:0:
192,192,187938,1,0,0:0:0:0:
64,192,187938,1,0,0:0:0:0:
320,192,188032,1,0,0:0:0:0:
448,192,188126,1,0,0:0:0:0:
64,192,188126,1,0,0:0:0:0:
320,192,188313,1,0,0:0:0:0:
320,192,188501,1,0,0:0:0:0:
448,192,188501,1,0,0:0:0:0:
64,192,188501,1,4,0:0:0:0:
192,192,188563,1,0,0:0:0:0:
64,192,188626,1,0,0:0:0:0:
192,192,188688,1,0,0:0:0:0:
320,192,188751,1,0,0:0:0:0:
448,192,188813,1,0,0:0:0:0:
192,192,188876,1,0,0:0:0:0:
64,192,188951,1,0,0:0:0:0:
192,192,189026,1,0,0:0:0:0:
320,192,189063,1,0,0:0:0:0:
448,192,189063,1,0,0:0:0:0:
192,192,189176,1,0,0:0:0:0:
320,192,189251,1,0,0:0:0:0:
64,192,189251,1,0,0:0:0:0:
448,192,189251,1,0,0:0:0:0:
320,192,189344,1,0,0:0:0:0:
64,192,189501,1,0,0:0:0:0:
192,192,189594,1,0,0:0:0:0:
320,192,189626,1,0,0:0:0:0:
64,192,189688,1,0,0:0:0:0:
320,192,189751,1,0,0:0:0:0:
64,192,189813,1,0,0:0:0:0:
448,192,189813,1,0,0:0:0:0:
192,192,189876,1,0,0:0:0:0:
320,192,190001,1,0,0:0:0:0:
64,192,190001,1,0,0:0:0:0:
448,192,190076,1,0,0:0:0:0:
192,192,190151,1,0,0:0:0:0:
448,192,190226,1,0,0:0:0:0:
192,192,190376,1,0,0:0:0:0:
64,192,190376,1,0,0:0:0:0:
320,192,190438,1,0,0:0:0:0:
320,192,190563,1,0,0:0:0:0:
64,192,190563,1,0,0:0:0:0:
192,192,190751,1,0,0:0:0:0:
448,192,190751,1,0,0:0:0:0:
64,192,190813,1,0,0:0:0:0:
320,192,190876,1,0,0:0:0:0:
64,192,190938,1,0,0:0:0:0:
192,192,191001,1,0,0:0:0:0:
320,192,191063,1,0,0:0:0:0:
64,192,191126,1,0,0:0:0:0:
448,192,191126,1,0,0:0:0:0:
192,192,191188,1,0,0:0:0:0:
64,192,191251,1,0,0:0:0:0:
448,192,191313,1,0,0:0:0:0:
320,192,191313,1,0,0:0:0:0:
64,192,191501,1,0,0:0:0:0:
320,192,191501,1,0,0:0:0:0:
448,192,191563,1,0,0:0:0:0:
192,192,191626,1,0,0:0:0:0:
448,192,191688,1,0,0:0:0:0:
320,192,191751,1,0,0:0:0:0:
192,192,191813,1,0,0:0:0:0:
64,192,191876,1,0,0:0:0:0:
448,192,191876,1,0,0:0:0:0:
320,192,191951,1,0,0:0:0:0:
192,192,192063,1,0,0:0:0:0:
64,192,192063,1,0,0:0:0:0:
320,192,192101,1,0,0:0:0:0:
320,192,192251,1,0,0:0:0:0:
448,192,192251,1,0,0:0:0:0:
192,192,192297,1,0,0:0:0:0:
64,192,192344,1,0,0:0:0:0:
192,192,192391,1,0,0:0:0:0:
320,192,192438,1,0,0:0:0:0:
64,192,192501,1,0,0:0:0:0:
448,192,192563,1,0,0:0:0:0:
192,192,192626,1,0,0:0:0:0:
320,192,192626,1,0,0:0:0:0:
192,192,192813,1,0,0:0:0:0:
64,192,192813,1,0,0:0:0:0:
320,192,192938,1,0,0:0:0:0:
64,192,193001,1,0,0:0:0:0:
448,192,193001,1,0,0:0:0:0:
320,192,193079,1,0,0:0:0:0:
192,192,193094,1,0,0:0:0:0:
64,192,193188,1,0,0:0:0:0:
320,192,193220,1,0,0:0:0:0:
192,192,193282,1,0,0:0:0:0:
320,192,193360,1,0,0:0:0:0:
64,192,193376,1,0,0:0:0:0:
320,192,193501,1,0,0:0:0:0:
192,192,193563,1,0,0:0:0:0:
448,192,193563,1,0,0:0:0:0:
320,192,193751,1,0,0:0:0:0:
64,192,193751,1,0,0:0:0:0:
448,192,193751,1,0,0:0:0:0:
192,192,194126,1,0,0:0:0:0:
320,192,194126,1,0,0:0:0:0:
320,192,194313,1,0,0:0:0:0:
64,192,194313,1,0,0:0:0:0:
448,192,194501,1,0,0:0:0:0:
64,192,194501,1,4,0:0:0:0:
192,192,194501,1,0,0:0:0:0:
320,192,194563,1,0,0:0:0:0:
64,192,194626,1,0,0:0:0:0:
320,192,194688,1,0,0:0:0:0:
192,192,194751,1,0,0:0:0:0:
320,192,194876,1,0,0:0:0:0:
448,192,194876,1,0,0:0:0:0:
64,192,194938,1,0,0:0:0:0:
320,192,195001,1,0,0:0:0:0:
448,192,195063,1,0,0:0:0:0:
192,192,195063,1,0,0:0:0:0:
192,192,195251,1,0,0:0:0:0:
64,192,195251,1,0,0:0:0:0:
448,192,195251,1,0,0:0:0:0:
192,192,195344,1,0,0:0:0:0:
448,192,195501,1,0,0:0:0:0:
320,192,195626,1,0,0:0:0:0:
64,192,195626,1,0,0:0:0:0:
448,192,195701,1,0,0:0:0:0:
320,192,195776,1,0,0:0:0:0:
192,192,195813,1,0,0:0:0:0:
64,192,195813,1,0,0:0:0:0:
320,192,195926,1,0,0:0:0:0:
64,192,196001,1,0,0:0:0:0:
448,192,196001,1,0,0:0:0:0:
192,192,196063,1,0,0:0:0:0:
320,192,196126,1,0,0:0:0:0:
64,192,196188,1,0,0:0:0:0:
320,192,196251,1,0,0:0:0:0:
192,192,196313,1,0,0:0:0:0:
64,192,196376,1,0,0:0:0:0:
448,192,196376,1,0,0:0:0:0:
448,192,196469,1,0,0:0:0:0:
320,192,196563,1,0,0:0:0:0:
192,192,196563,1,0,0:0:0:0:
64,192,196751,1,0,0:0:0:0:
320,192,196751,1,0,0:0:0:0:
448,192,196751,1,0,0:0:0:0:
192,192,196813,1,0,0:0:0:0:
64,192,196876,1,0,0:0:0:0:
64,192,197032,1,0,0:0:0:0:
192,192,197126,1,0,0:0:0:0:
448,192,197126,1,0,0:0:0:0:
320,192,197188,1,0,0:0:0:0:
448,192,197251,1,0,0:0:0:0:
64,192,197313,1,0,0:0:0:0:
192,192,197313,1,0,0:0:0:0:
320,192,197501,1,0,0:0:0:0:
448,192,197501,1,0,0:0:0:0:
64,192,197501,1,0,0:0:0:0:
320,192,197594,1,0,0:0:0:0:
192,192,197688,1,0,0:0:0:0:
320,192,197782,1,0,0:0:0:0:
64,192,197876,1,0,0:0:0:0:
448,192,197876,1,0,0:0:0:0:
192,192,197938,1,0,0:0:0:0:
320,192,198001,1,0,0:0:0:0:
448,192,198063,1,0,0:0:0:0:
192,192,198063,1,0,0:0:0:0:
64,192,198126,1,0,0:0:0:0:
192,192,198188,1,0,0:0:0:0:
448,192,198251,1,0,0:0:0:0:
320,192,198251,1,0,0:0:0:0:
64,192,198326,1,0,0:0:0:0:
448,192,198401,1,0,0:0:0:0:
192,192,198476,1,0,0:0:0:0:
192,192,198626,1,0,0:0:0:0:
448,192,198626,1,0,0:0:0:0:
320,192,198813,1,0,0:0:0:0:
448,192,198907,1,0,0:0:0:0:
320,192,199001,1,0,0:0:0:0:
64,192,199001,1,0,0:0:0:0:
192,192,199063,1,0,0:0:0:0:
64,192,199126,1,0,0:0:0:0:
320,192,199188,1,0,0:0:0:0:
448,192,199188,1,0,0:0:0:0:
192,192,199251,1,0,0:0:0:0:
192,192,199344,1,0,0:0:0:0:
320,192,199376,1,0,0:0:0:0:
448,192,199376,1,4,0:0:0:0:
64,192,199501,1,0,0:0:0:0:
192,192,199548,1,0,0:0:0:0:
320,192,199595,1,0,0:0:0:0:
64,192,199642,1,0,0:0:0:0:
320,192,199688,1,0,0:0:0:0:
448,192,199751,1,0,0:0:0:0:
192,192,199751,1,0,0:0:0:0:
64,192,199813,1,0,0:0:0:0:
320,192,199876,1,0,0:0:0:0:
64,192,199938,1,0,0:0:0:0:
448,192,199938,1,0,0:0:0:0:
320,192,200001,1,0,0:0:0:0:
192,192,200063,1,0,0:0:0:0:
448,192,200126,1,0,0:0:0:0:
64,192,200126,1,0,0:0:0:0:
320,192,200313,1,0,0:0:0:0:
64,192,200313,1,0,0:0:0:0:
320,192,200501,1,0,0:0:0:0:
448,192,200501,1,4,0:0:0:0:
192,192,200501,1,0,0:0:0:0:
64,192,200563,1,0,0:0:0:0:
192,192,200626,1,0,0:0:0:0:
64,192,200688,1,0,0:0:0:0:
320,192,200751,1,0,0:0:0:0:
192,192,200876,1,0,0:0:0:0:
448,192,200876,1,0,0:0:0:0:
64,192,200951,1,0,0:0:0:0:
448,192,201026,1,0,0:0:0:0:
320,192,201101,1,0,0:0:0:0:
64,192,201251,1,0,0:0:0:0:
320,192,201251,1,0,0:0:0:0:
192,192,201313,1,0,0:0:0:0:
448,192,201376,1,0,0:0:0:0:
192,192,201438,1,0,0:0:0:0:
64,192,201501,1,0,0:0:0:0:
320,192,201563,1,0,0:0:0:0:
192,192,201626,1,0,0:0:0:0:
448,192,201626,1,0,0:0:0:0:
64,192,201688,1,0,0:0:0:0:
192,192,201751,1,0,0:0:0:0:
320,192,201813,1,0,0:0:0:0:
192,192,202001,1,0,0:0:0:0:
64,192,202001,1,0,0:0:0:0:
448,192,202001,1,0,0:0:0:0:
320,192,202063,1,0,0:0:0:0:
64,192,202126,1,0,0:0:0:0:
320,192,202188,1,0,0:0:0:0:
192,192,202251,1,0,0:0:0:0:
64,192,202376,1,0,0:0:0:0:
448,192,202376,1,0,0:0:0:0:
192,192,202438,1,0,0:0:0:0:
192,192,202563,1,0,0:0:0:0:
448,192,202563,1,0,0:0:0:0:
64,192,202751,1,0,0:0:0:0:
320,192,202751,1,0,0:0:0:0:
192,192,202797,1,0,0:0:0:0:
448,192,202844,1,0,0:0:0:0:
320,192,202907,1,0,0:0:0:0:
192,192,202969,1,0,0:0:0:0:
64,192,203032,1,0,0:0:0:0:
320,192,203126,1,0,0:0:0:0:
448,192,203126,1,0,0:0:0:0:
192,192,203172,1,0,0:0:0:0:
64,192,203219,1,0,0:0:0:0:
320,192,203313,1,0,0:0:0:0:
448,192,203313,1,0,0:0:0:0:
64,192,203344,1,0,0:0:0:0:
192,192,203407,1,0,0:0:0:0:
448,192,203501,1,0,0:0:0:0:
64,192,203501,1,0,0:0:0:0:
320,192,203563,1,0,0:0:0:0:
192,192,203626,1,0,0:0:0:0:
320,192,203688,1,0,0:0:0:0:
448,192,203751,1,0,0:0:0:0:
448,192,203876,1,0,0:0:0:0:
64,192,203876,1,0,0:0:0:0:
192,192,203951,1,0,0:0:0:0:
64,192,204026,1,0,0:0:0:0:
320,192,204063,1,0,0:0:0:0:
448,192,204063,1,0,0:0:0:0:
64,192,204176,1,0,0:0:0:0:
192,192,204251,1,0,0:0:0:0:
448,192,204251,1,0,0:0:0:0:
320,192,204345,1,0,0:0:0:0:
64,192,204439,1,0,0:0:0:0:
320,192,204439,1,0,0:0:0:0:
192,192,204501,1,0,0:0:0:0:
448,192,204626,1,0,0:0:0:0:
192,192,204657,1,0,0:0:0:0:
64,192,204751,1,0,0:0:0:0:
320,192,204813,1,0,0:0:0:0:
448,192,204813,1,0,0:0:0:0:
64,192,204907,1,0,0:0:0:0:
448,192,205001,1,0,0:0:0:0:
64,192,205001,1,0,0:0:0:0:
192,192,205064,1,0,0:0:0:0:
320,192,205126,1,0,0:0:0:0:
192,192,205188,1,0,0:0:0:0:
448,192,205251,1,0,0:0:0:0:
192,192,205329,1,0,0:0:0:0:
64,192,205376,1,0,0:0:0:0:
320,192,205376,1,0,0:0:0:0:
192,192,205469,1,0,0:0:0:0:
448,192,205563,1,0,0:0:0:0:
192,192,205610,1,0,0:0:0:0:
448,192,205751,1,0,0:0:0:0:
192,192,205751,1,0,0:0:0:0:
64,192,205751,1,0,0:0:0:0:
192,192,206126,1,0,0:0:0:0:
320,192,206126,1,0,0:0:0:0:
64,192,206313,1,0,0:0:0:0:
448,192,206314,1,0,0:0:0:0:
192,192,206501,1,0,0:0:0:0:
448,192,206501,1,4,0:0:0:0:
64,192,206501,1,0,0:0:0:0:
320,192,206563,1,0,0:0:0:0:
64,192,206626,1,0,0:0:0:0:
320,192,206688,1,0,0:0:0:0:
192,192,206751,1,0,0:0:0:0:
448,192,206876,1,0,0:0:0:0:
64,192,206876,1,0,0:0:0:0:
320,192,206951,1,0,0:0:0:0:
448,192,207026,1,0,0:0:0:0:
192,192,207063,1,0,0:0:0:0:
64,192,207063,1,0,0:0:0:0:
448,192,207176,1,0,0:0:0:0:
64,192,207251,1,0,0:0:0:0:
320,192,207251,1,0,0:0:0:0:
192,192,207313,1,0,0:0:0:0:
448,192,207376,1,0,0:0:0:0:
192,192,207438,1,0,0:0:0:0:
64,192,207501,1,0,0:0:0:0:
320,192,207563,1,0,0:0:0:0:
192,192,207626,1,0,0:0:0:0:
448,192,207626,1,0,0:0:0:0:
64,192,207688,1,0,0:0:0:0:
192,192,207751,1,0,0:0:0:0:
320,192,207813,1,0,0:0:0:0:
448,192,207813,1,0,0:0:0:0:
320,192,208001,1,0,0:0:0:0:
64,192,208001,1,0,0:0:0:0:
448,192,208063,1,0,0:0:0:0:
192,192,208126,1,0,0:0:0:0:
448,192,208188,1,0,0:0:0:0:
320,192,208251,1,0,0:0:0:0:
192,192,208313,1,0,0:0:0:0:
64,192,208376,1,0,0:0:0:0:
448,192,208376,1,0,0:0:0:0:
320,192,208438,1,0,0:0:0:0:
320,192,208563,1,0,0:0:0:0:
64,192,208563,1,0,0:0:0:0:
192,192,208751,1,0,0:0:0:0:
64,192,208751,1,0,0:0:0:0:
448,192,208751,1,0,0:0:0:0:
320,192,208826,1,0,0:0:0:0:
448,192,208901,1,0,0:0:0:0:
320,192,208976,1,0,0:0:0:0:
192,192,209051,1,0,0:0:0:0:
64,192,209126,1,0,0:0:0:0:
448,192,209126,1,0,0:0:0:0:
64,192,209501,1,0,0:0:0:0:
448,192,209501,1,0,0:0:0:0:
192,192,209501,1,0,0:0:0:0:
192,192,209594,1,0,0:0:0:0:
320,192,209688,1,0,0:0:0:0:
192,192,209782,1,0,0:0:0:0:
64,192,209876,1,0,0:0:0:0:
320,192,209876,1,0,0:0:0:0:
448,192,209951,1,0,0:0:0:0:
320,192,210026,1,0,0:0:0:0:
192,192,210063,1,0,0:0:0:0:
64,192,210063,1,0,0:0:0:0:
320,192,210176,1,0,0:0:0:0:
64,192,210251,1,0,0:0:0:0:
448,192,210251,1,0,0:0:0:0:
320,192,210326,1,0,0:0:0:0:
64,192,210401,1,0,0:0:0:0:
192,192,210476,1,0,0:0:0:0:
320,192,210626,1,0,0:0:0:0:
64,192,210626,1,0,0:0:0:0:
192,192,210688,1,0,0:0:0:0:
448,192,210751,1,0,0:0:0:0:
192,192,210813,1,0,0:0:0:0:
320,192,210876,1,0,0:0:0:0:
320,192,211001,1,0,0:0:0:0:
448,192,211001,1,0,0:0:0:0:
64,192,211047,1,0,0:0:0:0:
448,192,211094,1,0,0:0:0:0:
192,192,211141,1,0,0:0:0:0:
64,192,211188,1,0,0:0:0:0:
320,192,211251,1,0,0:0:0:0:
448,192,211376,1,0,0:0:0:0:
192,192,211376,1,0,0:0:0:0:
64,192,211438,1,0,0:0:0:0:
192,192,211501,1,0,0:0:0:0:
320,192,211563,1,0,0:0:0:0:
64,192,211626,1,0,0:0:0:0:
448,192,211688,1,0,0:0:0:0:
320,192,211751,1,0,0:0:0:0:
192,192,211751,1,0,0:0:0:0:
192,192,211938,1,0,0:0:0:0:
320,192,211938,1,0,0:0:0:0:
64,192,212126,1,0,0:0:0:0:
448,192,212126,1,0,0:0:0:0:
192,192,212188,1,0,0:0:0:0:
320,192,212251,1,0,0:0:0:0:
448,192,212313,1,0,0:0:0:0:
320,192,212376,1,0,0:0:0:0:
192,192,212438,1,0,0:0:0:0:
64,192,212501,1,0,0:0:0:0:
448,192,212576,1,0,0:0:0:0:
64,192,212651,1,0,0:0:0:0:
320,192,212726,1,0,0:0:0:0:
64,192,212801,1,0,0:0:0:0:
448,192,212876,1,0,0:0:0:0:
64,192,212951,1,0,0:0:0:0:
320,192,213026,1,0,0:0:0:0:
64,192,213101,1,0,0:0:0:0:
448,192,213176,1,0,0:0:0:0:
64,192,213251,1,0,0:0:0:0:
320,192,213326,1,0,0:0:0:0:
64,192,213401,1,0,0:0:0:0:
448,192,213476,1,0,0:0:0:0:
64,192,213551,1,0,0:0:0:0:
320,192,213626,1,0,0:0:0:0:
64,192,213701,1,0,0:0:0:0:
448,192,213776,1,0,0:0:0:0:
64,192,213851,1,0,0:0:0:0:
320,192,213926,1,0,0:0:0:0:
64,192,214001,1,0,0:0:0:0:
448,192,214076,1,0,0:0:0:0:
64,192,214151,1,0,0:0:0:0:
320,192,214226,1,0,0:0:0:0:
64,192,214301,1,0,0:0:0:0:
448,192,214376,1,0,0:0:0:0:
64,192,214451,1,0,0:0:0:0:
320,192,214526,1,0,0:0:0:0:
64,192,214601,1,0,0:0:0:0:
448,192,214676,1,0,0:0:0:0:
64,192,214751,1,0,0:0:0:0:
192,192,214797,1,0,0:0:0:0:
320,192,214844,1,0,0:0:0:0:
448,192,214891,1,0,0:0:0:0:
64,192,215501,1,4,0:0:0:0:
320,192,215501,1,0,0:0:0:0:
448,192,215594,1,0,0:0:0:0:
448,192,215688,1,0,0:0:0:0:
192,192,215782,1,0,0:0:0:0:
448,192,215876,128,0,217376:0:0:0:0:
320,192,217563,1,0,0:0:0:0:
64,192,217657,1,0,0:0:0:0:
448,192,217751,128,0,218126:0:0:0:0:
192,192,218126,128,0,218501:0:0:0:0:
320,192,218501,128,0,218782:0:0:0:0:
64,192,218782,128,0,218969:0:0:0:0:
64,192,219063,128,0,219626:0:0:0:0:
320,192,219813,1,0,0:0:0:0:
64,192,219860,1,0,0:0:0:0:
448,192,219907,1,0,0:0:0:0:
320,192,219954,1,0,0:0:0:0:
192,192,220001,128,0,220563:0:0:0:0:
64,192,220563,128,0,220751:0:0:0:0:
448,192,220751,128,0,221501:0:0:0:0:
192,192,221501,1,0,0:0:0:0:
320,192,221594,1,0,0:0:0:0:
320,192,221688,1,0,0:0:0:0:
64,192,221782,1,0,0:0:0:0:
320,192,221876,128,0,223376:0:0:0:0:
192,192,223563,1,0,0:0:0:0:
448,192,223657,1,0,0:0:0:0:
64,192,223751,128,0,224126:0:0:0:0:
192,192,224126,128,0,224501:0:0:0:0:
320,192,224501,128,0,225626:0:0:0:0:
448,192,225813,1,0,0:0:0:0:
192,192,225907,1,0,0:0:0:0:
64,192,226001,128,0,226376:0:0:0:0:
64,192,226563,1,0,0:0:0:0:
320,192,226657,1,0,0:0:0:0:
448,192,226751,128,0,227126:0:0:0:0:
64,192,227126,1,0,0:0:0:0:
192,192,227188,1,0,0:0:0:0:
320,192,227251,1,0,0:0:0:0:
448,192,227313,1,0,0:0:0:0:
320,192,227376,1,0,0:0:0:0:
192,192,227438,1,0,0:0:0:0:
64,192,227501,1,0,0:0:0:0:
448,192,227501,1,0,0:0:0:0:
320,192,227688,1,0,0:0:0:0:
192,192,227876,1,0,0:0:0:0:
64,192,228063,1,0,0:0:0:0:
448,192,228157,1,0,0:0:0:0:
192,192,228438,1,0,0:0:0:0:
192,192,228626,1,0,0:0:0:0:
192,192,228813,1,0,0:0:0:0:
448,192,229001,1,0,0:0:0:0:
320,192,229188,1,0,0:0:0:0:
192,192,229376,1,0,0:0:0:0:
64,192,229563,1,0,0:0:0:0:
448,192,229657,1,0,0:0:0:0:
192,192,229938,1,0,0:0:0:0:
192,192,230126,1,0,0:0:0:0:
192,192,230313,1,0,0:0:0:0:
320,192,230501,1,0,0:0:0:0:
64,192,230688,1,0,0:0:0:0:
448,192,230876,1,0,0:0:0:0:
192,192,231063,1,0,0:0:0:0:
320,192,231157,1,0,0:0:0:0:
64,192,231438,1,0,0:0:0:0:
64,192,231626,1,0,0:0:0:0:
64,192,231813,1,0,0:0:0:0:
320,192,232001,1,0,0:0:0:0:
64,192,232188,1,0,0:0:0:0:
448,192,232376,1,0,0:0:0:0:
192,192,232563,1,0,0:0:0:0:
320,192,232657,1,0,0:0:0:0:
64,192,232938,1,0,0:0:0:0:
64,192,233126,1,0,0:0:0:0:
64,192,233313,1,0,0:0:0:0:
448,192,233501,1,0,0:0:0:0:
320,192,233594,1,0,0:0:0:0:
64,192,233688,1,0,0:0:0:0:
320,192,233782,1,0,0:0:0:0:
448,192,233876,1,0,0:0:0:0:
64,192,233969,1,0,0:0:0:0:
192,192,234063,1,0,0:0:0:0:
320,192,234157,1,0,0:0:0:0:
448,192,234251,1,0,0:0:0:0:
192,192,234344,1,0,0:0:0:0:
448,192,234438,1,0,0:0:0:0:
64,192,234532,1,0,0:0:0:0:
320,192,234626,1,0,0:0:0:0:
192,192,234719,1,0,0:0:0:0:
448,192,234813,1,0,0:0:0:0:
192,192,234907,1,0,0:0:0:0:
64,192,235001,1,0,0:0:0:0:
320,192,235094,1,0,0:0:0:0:
192,192,235188,1,0,0:0:0:0:
320,192,235282,1,0,0:0:0:0:
448,192,235376,1,0,0:0:0:0:
192,192,235469,1,0,0:0:0:0:
64,192,235563,1,0,0:0:0:0:
192,192,235657,1,0,0:0:0:0:
320,192,235751,1,0,0:0:0:0:
64,192,235844,1,0,0:0:0:0:
320,192,235938,1,0,0:0:0:0:
448,192,236032,1,0,0:0:0:0:
192,192,236126,1,0,0:0:0:0:
320,192,236219,1,0,0:0:0:0:
64,192,236313,1,0,0:0:0:0:
192,192,236407,1,0,0:0:0:0:
320,192,236501,1,0,0:0:0:0:
448,192,236501,1,0,0:0:0:0:
448,192,236594,1,0,0:0:0:0:
64,192,236688,1,0,0:0:0:0:
320,192,236782,1,0,0:0:0:0:
64,192,236876,1,0,0:0:0:0:
192,192,236876,1,0,0:0:0:0:
192,192,236969,1,0,0:0:0:0:
448,192,237063,1,0,0:0:0:0:
64,192,237157,1,0,0:0:0:0:
192,192,237251,1,0,0:0:0:0:
448,192,237251,1,0,0:0:0:0:
448,192,237344,1,0,0:0:0:0:
64,192,237438,1,0,0:0:0:0:
320,192,237532,1,0,0:0:0:0:
64,192,237626,1,0,0:0:0:0:
192,192,237626,1,0,0:0:0:0:
448,192,237719,1,0,0:0:0:0:
192,192,237813,1,0,0:0:0:0:
320,192,237907,1,0,0:0:0:0:
64,192,238001,1,0,0:0:0:0:
448,192,238001,1,0,0:0:0:0:
192,192,238094,1,0,0:0:0:0:
320,192,238188,1,0,0:0:0:0:
64,192,238282,1,0,0:0:0:0:
192,192,238282,1,0,0:0:0:0:
64,192,238376,1,0,0:0:0:0:
448,192,238376,1,0,0:0:0:0:
320,192,238469,1,0,0:0:0:0:
192,192,238563,1,0,0:0:0:0:
448,192,238563,1,0,0:0:0:0:
192,192,238657,1,0,0:0:0:0:
64,192,238751,1,0,0:0:0:0:
320,192,238751,1,0,0:0:0:0:
320,192,238844,1,0,0:0:0:0:
448,192,238844,1,0,0:0:0:0:
64,192,238938,1,0,0:0:0:0:
192,192,238938,1,0,0:0:0:0:
64,192,239032,1,0,0:0:0:0:
320,192,239032,1,0,0:0:0:0:
320,192,239126,1,0,0:0:0:0:
448,192,239126,1,0,0:0:0:0:
64,192,239219,1,0,0:0:0:0:
448,192,239219,1,0,0:0:0:0:
192,192,239313,1,0,0:0:0:0:
320,192,239313,1,0,0:0:0:0:
64,192,239407,1,0,0:0:0:0:
320,192,239407,1,0,0:0:0:0:
192,192,239501,1,0,0:0:0:0:
64,192,239501,1,4,0:0:0:0:
448,192,239501,1,0,0:0:0:0:
192,192,239594,1,0,0:0:0:0:
64,192,239688,1,0,0:0:0:0:
448,192,239688,1,0,0:0:0:0:
192,192,239782,1,0,0:0:0:0:
448,192,239782,1,0,0:0:0:0:
64,192,239876,1,0,0:0:0:0:
320,192,239876,1,0,0:0:0:0:
64,192,239969,1,0,0:0:0:0:
192,192,240063,1,0,0:0:0:0:
320,192,240063,1,0,0:0:0:0:
64,192,240157,1,0,0:0:0:0:
192,192,240251,1,0,0:0:0:0:
320,192,240251,1,0,0:0:0:0:
64,192,240344,1,0,0:0:0:0:
320,192,240344,1,0,0:0:0:0:
192,192,240438,1,0,0:0:0:0:
448,192,240438,1,0,0:0:0:0:
192,192,240532,1,0,0:0:0:0:
64,192,240626,1,0,0:0:0:0:
448,192,240626,1,0,0:0:0:0:
192,192,240719,1,0,0:0:0:0:
64,192,240813,1,0,0:0:0:0:
448,192,240813,1,0,0:0:0:0:
192,192,240907,1,0,0:0:0:0:
448,192,240907,1,0,0:0:0:0:
64,192,241001,1,0,0:0:0:0:
320,192,241001,1,0,0:0:0:0:
64,192,241094,1,0,0:0:0:0:
192,192,241188,1,0,0:0:0:0:
320,192,241188,1,0,0:0:0:0:
64,192,241282,1,0,0:0:0:0:
192,192,241376,1,0,0:0:0:0:
320,192,241376,1,0,0:0:0:0:
64,192,241469,1,0,0:0:0:0:
320,192,241469,1,0,0:0:0:0:
192,192,241563,1,0,0:0:0:0:
448,192,241563,1,0,0:0:0:0:
192,192,241657,1,0,0:0:0:0:
64,192,241751,1,0,0:0:0:0:
448,192,241751,1,4,0:0:0:0:
192,192,241844,1,0,0:0:0:0:
448,192,241938,1,4,0:0:0:0:
320,192,241938,1,0,0:0:0:0:
64,192,242032,1,0,0:0:0:0:
448,192,242032,1,0,0:0:0:0:
320,192,242126,1,0,0:0:0:0:
192,192,242126,1,4,0:0:0:0:
192,192,242219,1,4,0:0:0:0:
64,192,242219,1,0,0:0:0:0:
320,192,242313,1,4,0:0:0:0:
448,192,242313,1,0,0:0:0:0:
192,192,242407,1,0,0:0:0:0:
320,192,242407,1,4,0:0:0:0:
192,192,242501,1,0,0:0:0:0:
448,192,242501,1,0,0:0:0:0:
64,192,242501,1,4,0:0:0:0:
320,192,242594,1,0,0:0:0:0:
64,192,242688,1,0,0:0:0:0:
448,192,242688,1,0,0:0:0:0:
64,192,242782,1,0,0:0:0:0:
320,192,242782,1,0,0:0:0:0:
192,192,242876,1,0,0:0:0:0:
448,192,242876,1,0,0:0:0:0:
448,192,242969,1,0,0:0:0:0:
192,192,243063,1,0,0:0:0:0:
320,192,243063,1,0,0:0:0:0:
448,192,243157,1,0,0:0:0:0:
192,192,243251,1,0,0:0:0:0:
320,192,243251,1,0,0:0:0:0:
192,192,243344,1,0,0:0:0:0:
448,192,243344,1,0,0:0:0:0:
64,192,243438,1,0,0:0:0:0:
320,192,243438,1,0,0:0:0:0:
320,192,243532,1,0,0:0:0:0:
64,192,243626,1,0,0:0:0:0:
448,192,243626,1,0,0:0:0:0:
320,192,243719,1,0,0:0:0:0:
64,192,243813,1,0,0:0:0:0:
448,192,243813,1,0,0:0:0:0:
64,192,243907,1,0,0:0:0:0:
320,192,243907,1,0,0:0:0:0:
192,192,244001,1,0,0:0:0:0:
448,192,244001,1,0,0:0:0:0:
448,192,244094,1,0,0:0:0:0:
192,192,244188,1,0,0:0:0:0:
320,192,244188,1,0,0:0:0:0:
448,192,244282,1,0,0:0:0:0:
192,192,244376,1,0,0:0:0:0:
320,192,244376,1,0,0:0:0:0:
192,192,244469,1,0,0:0:0:0:
448,192,244469,1,0,0:0:0:0:
64,192,244563,1,0,0:0:0:0:
320,192,244563,1,0,0:0:0:0:
320,192,244657,1,0,0:0:0:0:
448,192,244751,1,0,0:0:0:0:
64,192,244751,1,4,0:0:0:0:
320,192,244844,1,0,0:0:0:0:
192,192,244938,1,0,0:0:0:0:
64,192,244938,1,4,0:0:0:0:
192,192,245032,1,0,0:0:0:0:
448,192,245126,1,4,0:0:0:0:
320,192,245126,1,0,0:0:0:0:
192,192,245219,1,0,0:0:0:0:
448,192,245219,1,4,0:0:0:0:
64,192,245313,1,0,0:0:0:0:
320,192,245313,1,4,0:0:0:0:
192,192,245407,1,0,0:0:0:0:
320,192,245407,1,4,0:0:0:0:
192,192,245501,1,0,0:0:0:0:
448,192,245501,1,4,0:0:0:0:
64,192,245501,1,0,0:0:0:0:
64,192,245594,1,0,0:0:0:0:
192,192,245688,1,0,0:0:0:0:
448,192,245688,1,0,0:0:0:0:
64,192,245782,1,0,0:0:0:0:
448,192,245782,1,0,0:0:0:0:
192,192,245876,1,0,0:0:0:0:
320,192,245876,1,0,0:0:0:0:
64,192,245969,1,0,0:0:0:0:
192,192,246063,1,0,0:0:0:0:
320,192,246063,1,0,0:0:0:0:
448,192,246157,1,0,0:0:0:0:
192,192,246251,1,0,0:0:0:0:
320,192,246251,1,0,0:0:0:0:
192,192,246344,1,0,0:0:0:0:
448,192,246344,1,0,0:0:0:0:
64,192,246438,1,0,0:0:0:0:
320,192,246438,1,0,0:0:0:0:
320,192,246532,1,0,0:0:0:0:
64,192,246626,1,0,0:0:0:0:
448,192,246626,1,0,0:0:0:0:
320,192,246719,1,0,0:0:0:0:
64,192,246813,1,0,0:0:0:0:
448,192,246813,1,0,0:0:0:0:
64,192,246907,1,0,0:0:0:0:
320,192,246907,1,0,0:0:0:0:
448,192,247001,1,4,0:0:0:0:
192,192,247001,1,0,0:0:0:0:
320,192,247001,1,0,0:0:0:0:
64,192,247094,1,0,0:0:0:0:
192,192,247188,1,0,0:0:0:0:
320,192,247188,1,0,0:0:0:0:
64,192,247282,1,0,0:0:0:0:
192,192,247376,1,0,0:0:0:0:
320,192,247376,1,0,0:0:0:0:
64,192,247469,1,0,0:0:0:0:
320,192,247469,1,0,0:0:0:0:
192,192,247563,1,0,0:0:0:0:
448,192,247563,1,0,0:0:0:0:
192,192,247657,1,0,0:0:0:0:
64,192,247751,1,0,0:0:0:0:
448,192,247751,1,0,0:0:0:0:
320,192,247844,1,0,0:0:0:0:
64,192,247938,1,0,0:0:0:0:
192,192,247938,1,0,0:0:0:0:
320,192,248032,1,0,0:0:0:0:
448,192,248032,1,0,0:0:0:0:
64,192,248126,1,0,0:0:0:0:
448,192,248126,1,0,0:0:0:0:
192,192,248219,1,0,0:0:0:0:
64,192,248313,1,0,0:0:0:0:
320,192,248313,1,0,0:0:0:0:
192,192,248407,1,0,0:0:0:0:
320,192,248407,1,0,0:0:0:0:
192,192,248501,1,0,0:0:0:0:
64,192,248501,1,4,0:0:0:0:
448,192,248501,1,0,0:0:0:0:
448,192,248594,1,0,0:0:0:0:
320,192,248594,1,0,0:0:0:0:
320,192,248688,1,0,0:0:0:0:
64,192,248688,1,0,0:0:0:0:
64,192,248782,1,0,0:0:0:0:
448,192,248782,1,0,0:0:0:0:
320,192,248876,1,0,0:0:0:0:
192,192,248876,1,0,0:0:0:0:
448,192,248969,1,0,0:0:0:0:
64,192,249063,1,0,0:0:0:0:
192,192,249063,1,0,0:0:0:0:
192,192,249157,1,0,0:0:0:0:
320,192,249157,1,0,0:0:0:0:
64,192,249251,1,0,0:0:0:0:
448,192,249251,1,0,0:0:0:0:
192,192,249344,1,0,0:0:0:0:
320,192,249344,1,0,0:0:0:0:
448,192,249438,1,0,0:0:0:0:
320,192,249438,1,0,0:0:0:0:
192,192,249532,1,0,0:0:0:0:
320,192,249579,1,0,0:0:0:0:
64,192,249626,1,0,0:0:0:0:
448,192,249626,1,0,0:0:0:0:
64,192,249719,1,0,0:0:0:0:
192,192,249719,1,0,0:0:0:0:
320,192,249813,1,0,0:0:0:0:
448,192,249813,1,0,0:0:0:0:
192,192,249907,1,0,0:0:0:0:
320,192,249907,1,0,0:0:0:0:
64,192,250001,1,0,0:0:0:0:
448,192,250001,1,0,0:0:0:0:
320,192,250094,1,0,0:0:0:0:
64,192,250188,1,0,0:0:0:0:
192,192,250282,1,0,0:0:0:0:
320,192,250376,1,0,0:0:0:0:
448,192,250563,1,0,0:0:0:0:
192,192,250657,128,0,250938:0:0:0:0:
64,192,250938,1,0,0:0:0:0:
448,192,251126,1,0,0:0:0:0:
64,192,251219,1,0,0:0:0:0:
192,192,251313,1,0,0:0:0:0:
320,192,251407,1,0,0:0:0:0:
192,192,251501,1,0,0:0:0:0:
320,192,251501,1,0,0:0:0:0:
448,192,251501,1,4,0:0:0:0:
64,192,251594,1,0,0:0:0:0:
192,192,251688,1,0,0:0:0:0:
448,192,251688,1,0,0:0:0:0:
192,192,251782,1,0,0:0:0:0:
448,192,251782,1,0,0:0:0:0:
64,192,251876,1,0,0:0:0:0:
320,192,251876,1,0,0:0:0:0:
64,192,251969,1,0,0:0:0:0:
192,192,252063,1,0,0:0:0:0:
320,192,252063,1,0,0:0:0:0:
448,192,252157,1,0,0:0:0:0:
64,192,252251,1,0,0:0:0:0:
320,192,252251,1,0,0:0:0:0:
64,192,252344,1,0,0:0:0:0:
320,192,252344,1,0,0:0:0:0:
192,192,252438,1,0,0:0:0:0:
448,192,252438,1,0,0:0:0:0:
448,192,252532,1,0,0:0:0:0:
192,192,252626,1,0,0:0:0:0:
320,192,252626,1,0,0:0:0:0:
64,192,252719,1,0,0:0:0:0:
192,192,252813,1,0,0:0:0:0:
448,192,252813,1,0,0:0:0:0:
192,192,252907,1,0,0:0:0:0:
448,192,252907,1,0,0:0:0:0:
64,192,253001,1,0,0:0:0:0:
320,192,253001,1,0,0:0:0:0:
64,192,253094,1,0,0:0:0:0:
192,192,253188,1,0,0:0:0:0:
320,192,253188,1,0,0:0:0:0:
448,192,253282,1,0,0:0:0:0:
64,192,253376,1,0,0:0:0:0:
320,192,253376,1,0,0:0:0:0:
64,192,253469,1,0,0:0:0:0:
320,192,253469,1,0,0:0:0:0:
192,192,253563,1,0,0:0:0:0:
448,192,253563,1,0,0:0:0:0:
448,192,253657,1,0,0:0:0:0:
192,192,253751,1,0,0:0:0:0:
320,192,253751,1,0,0:0:0:0:
64,192,253844,1,0,0:0:0:0:
192,192,253938,1,0,0:0:0:0:
448,192,253938,1,0,0:0:0:0:
192,192,254032,1,0,0:0:0:0:
448,192,254032,1,0,0:0:0:0:
64,192,254126,1,0,0:0:0:0:
320,192,254126,1,0,0:0:0:0:
192,192,254219,1,0,0:0:0:0:
320,192,254219,1,0,0:0:0:0:
64,192,254313,1,0,0:0:0:0:
192,192,254313,1,0,0:0:0:0:
320,192,254407,1,0,0:0:0:0:
448,192,254407,1,0,0:0:0:0:
448,192,254501,1,0,0:0:0:0:
192,192,254501,1,0,0:0:0:0:
64,192,254501,1,4,0:0:0:0:
64,192,254594,1,0,0:0:0:0:
192,192,254688,1,0,0:0:0:0:
448,192,254688,1,0,0:0:0:0:
192,192,254782,1,0,0:0:0:0:
448,192,254782,1,0,0:0:0:0:
64,192,254876,1,0,0:0:0:0:
320,192,254876,1,0,0:0:0:0:
64,192,254969,1,0,0:0:0:0:
192,192,255063,1,0,0:0:0:0:
320,192,255063,1,0,0:0:0:0:
448,192,255157,1,0,0:0:0:0:
64,192,255251,1,0,0:0:0:0:
320,192,255251,1,0,0:0:0:0:
64,192,255344,1,0,0:0:0:0:
320,192,255344,1,0,0:0:0:0:
192,192,255438,1,0,0:0:0:0:
448,192,255438,1,0,0:0:0:0:
448,192,255532,1,0,0:0:0:0:
192,192,255626,1,0,0:0:0:0:
320,192,255626,1,0,0:0:0:0:
64,192,255719,1,0,0:0:0:0:
192,192,255813,1,0,0:0:0:0:
448,192,255813,1,0,0:0:0:0:
192,192,255907,1,0,0:0:0:0:
448,192,255907,1,0,0:0:0:0:
64,192,256001,1,0,0:0:0:0:
320,192,256001,1,0,0:0:0:0:
64,192,256094,1,0,0:0:0:0:
192,192,256188,1,0,0:0:0:0:
320,192,256188,1,0,0:0:0:0:
448,192,256282,1,0,0:0:0:0:
64,192,256376,1,0,0:0:0:0:
320,192,256376,1,0,0:0:0:0:
64,192,256469,1,0,0:0:0:0:
320,192,256469,1,0,0:0:0:0:
192,192,256563,1,0,0:0:0:0:
448,192,256563,1,0,0:0:0:0:
448,192,256657,1,0,0:0:0:0:
64,192,256751,1,0,0:0:0:0:
320,192,256751,1,0,0:0:0:0:
64,192,256844,1,0,0:0:0:0:
448,192,256844,1,0,0:0:0:0:
192,192,256938,1,0,0:0:0:0:
320,192,256938,1,0,0:0:0:0:
64,192,257032,1,0,0:0:0:0:
192,192,257032,1,0,0:0:0:0:
320,192,257126,1,0,0:0:0:0:
448,192,257126,1,0,0:0:0:0:
64,192,257219,1,0,0:0:0:0:
448,192,257219,1,0,0:0:0:0:
192,192,257313,1,0,0:0:0:0:
320,192,257313,1,0,0:0:0:0:
64,192,257407,1,0,0:0:0:0:
320,192,257407,1,0,0:0:0:0:
192,192,257501,1,0,0:0:0:0:
448,192,257501,1,0,0:0:0:0:
64,192,257501,1,4,0:0:0:0:
320,192,257594,1,0,0:0:0:0:
192,192,257688,1,0,0:0:0:0:
448,192,257688,1,0,0:0:0:0:
192,192,257782,1,0,0:0:0:0:
448,192,257782,1,0,0:0:0:0:
64,192,257876,1,0,0:0:0:0:
320,192,257876,1,0,0:0:0:0:
64,192,257969,1,0,0:0:0:0:
192,192,258063,1,0,0:0:0:0:
320,192,258063,1,0,0:0:0:0:
64,192,258157,1,0,0:0:0:0:
192,192,258251,1,0,0:0:0:0:
320,192,258251,1,0,0:0:0:0:
192,192,258344,1,0,0:0:0:0:
320,192,258344,1,0,0:0:0:0:
64,192,258438,1,0,0:0:0:0:
448,192,258438,1,0,0:0:0:0:
448,192,258532,1,0,0:0:0:0:
64,192,258626,1,0,0:0:0:0:
320,192,258626,1,0,0:0:0:0:
448,192,258719,1,0,0:0:0:0:
64,192,258813,1,0,0:0:0:0:
320,192,258813,1,0,0:0:0:0:
64,192,258907,1,0,0:0:0:0:
320,192,258907,1,0,0:0:0:0:
192,192,259001,1,0,0:0:0:0:
448,192,259001,1,0,0:0:0:0:
192,192,259094,1,0,0:0:0:0:
64,192,259188,1,0,0:0:0:0:
448,192,259188,1,0,0:0:0:0:
192,192,259282,1,0,0:0:0:0:
64,192,259376,1,0,0:0:0:0:
448,192,259376,1,0,0:0:0:0:
64,192,259469,1,0,0:0:0:0:
448,192,259469,1,0,0:0:0:0:
192,192,259563,1,0,0:0:0:0:
320,192,259563,1,0,0:0:0:0:
320,192,259657,1,0,0:0:0:0:
64,192,259751,1,0,0:0:0:0:
448,192,259751,1,0,0:0:0:0:
192,192,259844,1,0,0:0:0:0:
320,192,259844,1,0,0:0:0:0:
64,192,259938,1,0,0:0:0:0:
192,192,259938,1,0,0:0:0:0:
320,192,260032,1,0,0:0:0:0:
448,192,260032,1,0,0:0:0:0:
64,192,260126,1,0,0:0:0:0:
192,192,260126,1,0,0:0:0:0:
64,192,260219,1,0,0:0:0:0:
448,192,260219,1,0,0:0:0:0:
192,192,260313,1,0,0:0:0:0:
320,192,260313,1,0,0:0:0:0:
192,192,260407,1,0,0:0:0:0:
448,192,260407,1,0,0:0:0:0:
320,192,260501,1,0,0:0:0:0:
448,192,260501,1,0,0:0:0:0:
64,192,260501,1,4,0:0:0:0:
192,192,260594,1,0,0:0:0:0:
320,192,260594,1,0,0:0:0:0:
64,192,260688,1,0,0:0:0:0:
448,192,260688,1,0,0:0:0:0:
64,192,260782,1,0,0:0:0:0:
192,192,260782,1,0,0:0:0:0:
320,192,260876,1,0,0:0:0:0:
448,192,260876,1,0,0:0:0:0:
192,192,260969,1,0,0:0:0:0:
64,192,261063,1,0,0:0:0:0:
448,192,261063,1,0,0:0:0:0:
192,192,261157,1,0,0:0:0:0:
320,192,261157,1,0,0:0:0:0:
320,192,261251,1,0,0:0:0:0:
448,192,261251,1,0,0:0:0:0:
64,192,261251,1,4,0:0:0:0:
448,192,261344,1,0,0:0:0:0:
64,192,261438,1,0,0:0:0:0:
192,192,261438,1,0,0:0:0:0:
64,192,261532,1,0,0:0:0:0:
192,192,261626,1,0,0:0:0:0:
448,192,261626,1,0,0:0:0:0:
192,192,261719,1,0,0:0:0:0:
320,192,261719,1,0,0:0:0:0:
320,192,261813,1,0,0:0:0:0:
448,192,261813,1,0,0:0:0:0:
64,192,261907,1,0,0:0:0:0:
192,192,261907,1,0,0:0:0:0:
64,192,262001,1,0,0:0:0:0:
448,192,262001,1,0,0:0:0:0:
320,192,262094,1,0,0:0:0:0:
64,192,262188,1,0,0:0:0:0:
192,192,262282,1,0,0:0:0:0:
320,192,262376,1,0,0:0:0:0:
64,192,262469,1,0,0:0:0:0:
448,192,262563,1,0,0:0:0:0:
320,192,262657,1,0,0:0:0:0:
64,192,262751,1,0,0:0:0:0:
192,192,262751,1,0,0:0:0:0:
64,192,262844,1,0,0:0:0:0:
448,192,262844,1,0,0:0:0:0:
192,192,262938,1,0,0:0:0:0:
320,192,262938,1,0,0:0:0:0:
320,192,263032,1,0,0:0:0:0:
448,192,263032,1,0,0:0:0:0:
64,192,263126,1,0,0:0:0:0:
448,192,263126,1,0,0:0:0:0:
192,192,263219,1,0,0:0:0:0:
320,192,263219,1,0,0:0:0:0:
64,192,263313,1,0,0:0:0:0:
192,192,263313,1,0,0:0:0:0:
320,192,263407,1,0,0:0:0:0:
448,192,263407,1,0,0:0:0:0:
64,192,263501,1,4,0:0:0:0:
448,192,263501,1,0,0:0:0:0:
320,192,263501,1,0,0:0:0:0:
192,192,263563,1,0,0:0:0:0:
64,192,263626,1,0,0:0:0:0:
192,192,263688,1,0,0:0:0:0:
320,192,263751,1,0,0:0:0:0:
448,192,263813,1,0,0:0:0:0:
192,192,263876,1,0,0:0:0:0:
64,192,263876,1,0,0:0:0:0:
448,192,263951,1,0,0:0:0:0:
64,192,264001,1,0,0:0:0:0:
192,192,264026,1,0,0:0:0:0:
320,192,264101,1,0,0:0:0:0:
192,192,264176,1,0,0:0:0:0:
64,192,264251,1,0,0:0:0:0:
448,192,264251,1,0,0:0:0:0:
448,192,264344,1,0,0:0:0:0:
192,192,264376,1,0,0:0:0:0:
64,192,264501,1,0,0:0:0:0:
192,192,264594,1,0,0:0:0:0:
320,192,264626,1,0,0:0:0:0:
64,192,264688,1,0,0:0:0:0:
320,192,264751,1,0,0:0:0:0:
64,192,264813,1,0,0:0:0:0:
448,192,264813,1,0,0:0:0:0:
192,192,264876,1,0,0:0:0:0:
64,192,265001,1,0,0:0:0:0:
320,192,265001,1,0,0:0:0:0:
448,192,265076,1,0,0:0:0:0:
64,192,265126,1,0,0:0:0:0:
192,192,265151,1,0,0:0:0:0:
448,192,265226,1,0,0:0:0:0:
64,192,265251,1,0,0:0:0:0:
64,192,265376,1,0,0:0:0:0:
192,192,265376,1,0,0:0:0:0:
320,192,265438,1,0,0:0:0:0:
448,192,265563,1,0,0:0:0:0:
64,192,265594,1,0,0:0:0:0:
448,192,265657,1,0,0:0:0:0:
192,192,265751,1,0,0:0:0:0:
320,192,265751,1,4,0:0:0:0:
64,192,265813,1,0,0:0:0:0:
192,192,265876,1,0,0:0:0:0:
448,192,265938,1,0,0:0:0:0:
320,192,265938,1,4,0:0:0:0:
192,192,266001,1,0,0:0:0:0:
64,192,266126,1,0,0:0:0:0:
448,192,266126,1,4,0:0:0:0:
192,192,266188,1,0,0:0:0:0:
448,192,266219,1,4,0:0:0:0:
320,192,266313,1,4,0:0:0:0:
192,192,266313,1,0,0:0:0:0:
320,192,266407,1,4,0:0:0:0:
192,192,266501,1,0,0:0:0:0:
64,192,266501,1,4,0:0:0:0:
448,192,266563,1,0,0:0:0:0:
64,192,266626,1,0,0:0:0:0:
448,192,266688,1,0,0:0:0:0:
320,192,266751,1,0,0:0:0:0:
192,192,266813,1,0,0:0:0:0:
64,192,266876,1,0,0:0:0:0:
448,192,266876,1,0,0:0:0:0:
192,192,266951,1,0,0:0:0:0:
448,192,267001,1,0,0:0:0:0:
320,192,267026,1,0,0:0:0:0:
192,192,267101,1,0,0:0:0:0:
64,192,267188,1,0,0:0:0:0:
320,192,267251,1,0,0:0:0:0:
448,192,267251,1,0,0:0:0:0:
192,192,267297,1,0,0:0:0:0:
64,192,267344,1,0,0:0:0:0:
192,192,267391,1,0,0:0:0:0:
320,192,267438,1,0,0:0:0:0:
64,192,267501,1,0,0:0:0:0:
448,192,267563,1,0,0:0:0:0:
192,192,267626,1,0,0:0:0:0:
320,192,267626,1,0,0:0:0:0:
192,192,267719,1,0,0:0:0:0:
448,192,267766,1,0,0:0:0:0:
64,192,267813,1,0,0:0:0:0:
320,192,267939,1,0,0:0:0:0:
64,192,268001,1,0,0:0:0:0:
448,192,268001,1,0,0:0:0:0:
320,192,268079,1,0,0:0:0:0:
192,192,268094,1,0,0:0:0:0:
64,192,268188,1,0,0:0:0:0:
320,192,268220,1,0,0:0:0:0:
192,192,268282,1,0,0:0:0:0:
320,192,268360,1,0,0:0:0:0:
64,192,268376,1,0,0:0:0:0:
448,192,268438,1,0,0:0:0:0:
320,192,268501,1,0,0:0:0:0:
192,192,268563,1,0,0:0:0:0:
320,192,268657,1,0,0:0:0:0:
448,192,268751,1,0,0:0:0:0:
64,192,268751,1,4,0:0:0:0:
448,192,268938,1,0,0:0:0:0:
64,192,268938,1,4,0:0:0:0:
192,192,269126,1,4,0:0:0:0:
320,192,269126,1,0,0:0:0:0:
192,192,269219,1,4,0:0:0:0:
320,192,269219,1,0,0:0:0:0:
448,192,269313,1,0,0:0:0:0:
64,192,269313,1,4,0:0:0:0:
64,192,269407,1,4,0:0:0:0:
448,192,269407,1,0,0:0:0:0:
192,192,269501,1,4,0:0:0:0:
448,192,269501,1,0,0:0:0:0:
320,192,269563,1,0,0:0:0:0:
64,192,269626,1,0,0:0:0:0:
320,192,269688,1,0,0:0:0:0:
192,192,269751,1,0,0:0:0:0:
448,192,269876,1,0,0:0:0:0:
320,192,269876,1,0,0:0:0:0:
64,192,269939,1,0,0:0:0:0:
320,192,270001,1,0,0:0:0:0:
192,192,270064,1,0,0:0:0:0:
448,192,270064,1,0,0:0:0:0:
320,192,270157,1,0,0:0:0:0:
64,192,270251,1,0,0:0:0:0:
192,192,270251,1,0,0:0:0:0:
448,192,270313,1,0,0:0:0:0:
192,192,270344,1,0,0:0:0:0:
64,192,270469,1,0,0:0:0:0:
448,192,270501,1,0,0:0:0:0:
64,192,270626,1,0,0:0:0:0:
320,192,270626,1,0,0:0:0:0:
448,192,270701,1,0,0:0:0:0:
64,192,270751,1,0,0:0:0:0:
320,192,270776,1,0,0:0:0:0:
192,192,270851,1,0,0:0:0:0:
320,192,270926,1,0,0:0:0:0:
64,192,271001,1,4,0:0:0:0:
448,192,271001,1,0,0:0:0:0:
192,192,271063,1,0,0:0:0:0:
320,192,271126,1,0,0:0:0:0:
64,192,271188,1,0,0:0:0:0:
320,192,271251,1,0,0:0:0:0:
192,192,271313,1,0,0:0:0:0:
448,192,271376,1,0,0:0:0:0:
64,192,271376,1,0,0:0:0:0:
192,192,271469,1,0,0:0:0:0:
320,192,271501,1,0,0:0:0:0:
192,192,271563,1,0,0:0:0:0:
448,192,271657,1,0,0:0:0:0:
64,192,271751,1,0,0:0:0:0:
320,192,271751,1,0,0:0:0:0:
192,192,271813,1,0,0:0:0:0:
448,192,271844,1,0,0:0:0:0:
64,192,271876,1,0,0:0:0:0:
320,192,271969,1,0,0:0:0:0:
64,192,272032,1,0,0:0:0:0:
192,192,272126,1,0,0:0:0:0:
448,192,272126,1,0,0:0:0:0:
320,192,272188,1,0,0:0:0:0:
64,192,272219,1,0,0:0:0:0:
448,192,272251,1,0,0:0:0:0:
64,192,272313,1,0,0:0:0:0:
192,192,272407,1,0,0:0:0:0:
448,192,272501,1,0,0:0:0:0:
64,192,272501,1,4,0:0:0:0:
320,192,272501,1,0,0:0:0:0:
192,192,272594,1,0,0:0:0:0:
320,192,272594,1,0,0:0:0:0:
64,192,272688,1,0,0:0:0:0:
192,192,272688,1,0,0:0:0:0:
448,192,272782,1,0,0:0:0:0:
320,192,272782,1,0,0:0:0:0:
448,192,272876,1,0,0:0:0:0:
64,192,272876,1,0,0:0:0:0:
192,192,272938,1,0,0:0:0:0:
320,192,272969,1,0,0:0:0:0:
192,192,273063,1,0,0:0:0:0:
64,192,273126,1,0,0:0:0:0:
320,192,273157,1,0,0:0:0:0:
192,192,273188,1,0,0:0:0:0:
320,192,273251,1,0,0:0:0:0:
448,192,273251,1,0,0:0:0:0:
64,192,273326,1,0,0:0:0:0:
448,192,273401,1,0,0:0:0:0:
64,192,273476,1,0,0:0:0:0:
192,192,273532,1,0,0:0:0:0:
320,192,273579,1,0,0:0:0:0:
448,192,273626,1,0,0:0:0:0:
64,192,273626,1,0,0:0:0:0:
64,192,273719,1,0,0:0:0:0:
192,192,273719,1,0,0:0:0:0:
192,192,273813,1,0,0:0:0:0:
448,192,273813,1,0,0:0:0:0:
320,192,273907,1,0,0:0:0:0:
448,192,273907,1,0,0:0:0:0:
64,192,274001,1,0,0:0:0:0:
192,192,274063,1,0,0:0:0:0:
64,192,274126,1,0,0:0:0:0:
448,192,274188,1,0,0:0:0:0:
192,192,274251,1,0,0:0:0:0:
320,192,274282,1,0,0:0:0:0:
192,192,274344,1,0,0:0:0:0:
448,192,274376,1,0,0:0:0:0:
64,192,274501,1,0,0:0:0:0:
192,192,274548,1,0,0:0:0:0:
320,192,274594,1,0,0:0:0:0:
64,192,274642,1,0,0:0:0:0:
320,192,274688,1,0,0:0:0:0:
448,192,274751,1,0,0:0:0:0:
192,192,274751,1,0,0:0:0:0:
64,192,274844,1,0,0:0:0:0:
192,192,274844,1,0,0:0:0:0:
64,192,274938,1,0,0:0:0:0:
448,192,274938,1,0,0:0:0:0:
192,192,275032,1,0,0:0:0:0:
320,192,275032,1,0,0:0:0:0:
448,192,275126,1,0,0:0:0:0:
320,192,275126,1,0,0:0:0:0:
192,192,275219,1,0,0:0:0:0:
64,192,275219,1,0,0:0:0:0:
192,192,275313,1,0,0:0:0:0:
320,192,275313,1,0,0:0:0:0:
64,192,275407,1,0,0:0:0:0:
448,192,275407,1,0,0:0:0:0:
320,192,275501,1,0,0:0:0:0:
192,192,275501,1,0,0:0:0:0:
448,192,275501,1,4,0:0:0:0:
64,192,275563,1,0,0:0:0:0:
64,192,275688,1,0,0:0:0:0:
448,192,275688,1,0,0:0:0:0:
192,192,275751,1,0,0:0:0:0:
448,192,275782,1,0,0:0:0:0:
192,192,275876,1,0,0:0:0:0:
320,192,275876,1,0,0:0:0:0:
64,192,275951,1,0,0:0:0:0:
320,192,276001,1,0,0:0:0:0:
192,192,276026,1,0,0:0:0:0:
64,192,276101,1,0,0:0:0:0:
448,192,276133,1,0,0:0:0:0:
64,192,276251,1,0,0:0:0:0:
320,192,276251,1,0,0:0:0:0:
192,192,276313,1,0,0:0:0:0:
320,192,276344,1,0,0:0:0:0:
192,192,276438,1,0,0:0:0:0:
448,192,276438,1,0,0:0:0:0:
64,192,276501,1,0,0:0:0:0:
320,192,276563,1,0,0:0:0:0:
192,192,276626,1,0,0:0:0:0:
448,192,276626,1,0,0:0:0:0:
64,192,276688,1,0,0:0:0:0:
192,192,276751,1,0,0:0:0:0:
448,192,276813,1,0,0:0:0:0:
64,192,276876,1,0,0:0:0:0:
448,192,276907,1,0,0:0:0:0:
320,192,277001,1,0,0:0:0:0:
192,192,277001,1,0,0:0:0:0:
64,192,277064,1,0,0:0:0:0:
320,192,277126,1,0,0:0:0:0:
192,192,277188,1,0,0:0:0:0:
448,192,277251,1,0,0:0:0:0:
64,192,277376,1,0,0:0:0:0:
320,192,277376,1,0,0:0:0:0:
192,192,277438,1,0,0:0:0:0:
320,192,277469,1,0,0:0:0:0:
192,192,277564,1,0,0:0:0:0:
448,192,277564,1,0,0:0:0:0:
320,192,277688,1,0,0:0:0:0:
64,192,277751,1,0,0:0:0:0:
448,192,277751,1,0,0:0:0:0:
192,192,277797,1,0,0:0:0:0:
320,192,277844,1,0,0:0:0:0:
64,192,277907,1,0,0:0:0:0:
448,192,277938,1,0,0:0:0:0:
192,192,277969,1,0,0:0:0:0:
448,192,278032,1,0,0:0:0:0:
192,192,278126,1,0,0:0:0:0:
320,192,278126,1,0,0:0:0:0:
320,192,278219,1,0,0:0:0:0:
64,192,278219,1,0,0:0:0:0:
192,192,278313,1,0,0:0:0:0:
448,192,278313,1,0,0:0:0:0:
320,192,278407,1,0,0:0:0:0:
192,192,278407,1,0,0:0:0:0:
64,192,278501,1,4,0:0:0:0:
448,192,278501,1,0,0:0:0:0:
320,192,278563,1,0,0:0:0:0:
192,192,278626,1,0,0:0:0:0:
320,192,278688,1,0,0:0:0:0:
64,192,278688,1,0,0:0:0:0:
448,192,278751,1,0,0:0:0:0:
64,192,278782,1,0,0:0:0:0:
192,192,278876,1,0,0:0:0:0:
448,192,278876,1,0,0:0:0:0:
64,192,278951,1,0,0:0:0:0:
448,192,279001,1,0,0:0:0:0:
192,192,279026,1,0,0:0:0:0:
320,192,279101,1,0,0:0:0:0:
64,192,279176,1,0,0:0:0:0:
192,192,279251,1,0,0:0:0:0:
448,192,279251,1,0,0:0:0:0:
320,192,279326,1,0,0:0:0:0:
192,192,279344,1,0,0:0:0:0:
448,192,279401,1,0,0:0:0:0:
64,192,279438,1,0,0:0:0:0:
448,192,279551,1,0,0:0:0:0:
192,192,279626,1,0,0:0:0:0:
320,192,279626,1,0,0:0:0:0:
64,192,279672,1,0,0:0:0:0:
448,192,279766,1,0,0:0:0:0:
64,192,279813,1,0,0:0:0:0:
64,192,279907,1,0,0:0:0:0:
320,192,279938,1,0,0:0:0:0:
192,192,280001,1,0,0:0:0:0:
448,192,280001,1,0,0:0:0:0:
320,192,280063,1,0,0:0:0:0:
64,192,280126,1,0,0:0:0:0:
320,192,280188,1,0,0:0:0:0:
448,192,280251,1,0,0:0:0:0:
320,192,280329,1,0,0:0:0:0:
64,192,280376,1,0,0:0:0:0:
192,192,280376,1,0,0:0:0:0:
192,192,280469,1,0,0:0:0:0:
320,192,280469,1,0,0:0:0:0:
64,192,280563,1,0,0:0:0:0:
320,192,280610,1,0,0:0:0:0:
192,192,280751,1,0,0:0:0:0:
448,192,280751,1,0,0:0:0:0:
192,192,280844,1,0,0:0:0:0:
64,192,280844,1,0,0:0:0:0:
64,192,280938,1,0,0:0:0:0:
448,192,280938,1,0,0:0:0:0:
320,192,281032,1,0,0:0:0:0:
192,192,281032,1,0,0:0:0:0:
448,192,281126,1,0,0:0:0:0:
192,192,281126,1,0,0:0:0:0:
320,192,281219,1,0,0:0:0:0:
448,192,281219,1,0,0:0:0:0:
192,192,281313,1,0,0:0:0:0:
64,192,281313,1,0,0:0:0:0:
320,192,281407,1,0,0:0:0:0:
192,192,281407,1,0,0:0:0:0:
448,192,281501,1,4,0:0:0:0:
320,192,281501,1,0,0:0:0:0:
64,192,281563,1,0,0:0:0:0:
192,192,281626,1,0,0:0:0:0:
320,192,281688,1,0,0:0:0:0:
192,192,281751,1,0,0:0:0:0:
320,192,281782,1,0,0:0:0:0:
64,192,281813,1,0,0:0:0:0:
448,192,281876,1,0,0:0:0:0:
192,192,281951,1,0,0:0:0:0:
64,192,282001,1,0,0:0:0:0:
448,192,282026,1,0,0:0:0:0:
192,192,282101,1,0,0:0:0:0:
64,192,282251,1,0,0:0:0:0:
320,192,282251,1,0,0:0:0:0:
448,192,282313,1,0,0:0:0:0:
64,192,282344,1,0,0:0:0:0:
320,192,282376,1,0,0:0:0:0:
192,192,282438,1,0,0:0:0:0:
320,192,282501,1,0,0:0:0:0:
448,192,282563,1,0,0:0:0:0:
64,192,282626,1,0,0:0:0:0:
320,192,282688,1,0,0:0:0:0:
64,192,282751,1,0,0:0:0:0:
192,192,282813,1,0,0:0:0:0:
448,192,282813,1,0,0:0:0:0:
192,192,282907,1,0,0:0:0:0:
64,192,283001,1,0,0:0:0:0:
320,192,283001,1,0,0:0:0:0:
448,192,283063,1,0,0:0:0:0:
192,192,283126,1,0,0:0:0:0:
448,192,283188,1,0,0:0:0:0:
320,192,283251,1,0,0:0:0:0:
192,192,283313,1,0,0:0:0:0:
64,192,283376,1,0,0:0:0:0:
448,192,283376,1,0,0:0:0:0:
192,192,283438,1,0,0:0:0:0:
448,192,283469,1,0,0:0:0:0:
320,192,283563,1,0,0:0:0:0:
192,192,283563,1,0,0:0:0:0:
64,192,283626,1,0,0:0:0:0:
64,192,283751,1,0,0:0:0:0:
448,192,283751,1,0,0:0:0:0:
320,192,283826,1,0,0:0:0:0:
64,192,283844,1,0,0:0:0:0:
448,192,283901,1,0,0:0:0:0:
192,192,283938,1,0,0:0:0:0:
320,192,283976,1,0,0:0:0:0:
192,192,284032,1,0,0:0:0:0:
64,192,284126,1,0,0:0:0:0:
448,192,284126,1,0,0:0:0:0:
192,192,284188,1,0,0:0:0:0:
448,192,284219,1,0,0:0:0:0:
64,192,284251,1,0,0:0:0:0:
320,192,284313,1,0,0:0:0:0:
320,192,284407,1,0,0:0:0:0:
192,192,284501,1,0,0:0:0:0:
64,192,284501,1,0,0:0:0:0:
192,192,284594,1,0,0:0:0:0:
320,192,284688,1,0,0:0:0:0:
448,192,284688,1,0,0:0:0:0:
192,192,284782,1,0,0:0:0:0:
64,192,284876,1,0,0:0:0:0:
320,192,284876,1,0,0:0:0:0:
448,192,284951,1,0,0:0:0:0:
320,192,285026,1,0,0:0:0:0:
64,192,285063,1,0,0:0:0:0:
192,192,285157,1,0,0:0:0:0:
320,192,285176,1,0,0:0:0:0:
192,192,285251,1,0,0:0:0:0:
448,192,285251,1,0,0:0:0:0:
320,192,285326,1,0,0:0:0:0:
64,192,285401,1,0,0:0:0:0:
320,192,285476,1,0,0:0:0:0:
192,192,285551,1,0,0:0:0:0:
64,192,285626,1,0,0:0:0:0:
320,192,285626,1,0,0:0:0:0:
192,192,285688,1,0,0:0:0:0:
448,192,285751,1,0,0:0:0:0:
192,192,285813,1,0,0:0:0:0:
320,192,285876,1,0,0:0:0:0:
64,192,285907,1,0,0:0:0:0:
320,192,286001,1,0,0:0:0:0:
448,192,286001,1,0,0:0:0:0:
64,192,286047,1,0,0:0:0:0:
448,192,286094,1,0,0:0:0:0:
192,192,286141,1,0,0:0:0:0:
64,192,286188,1,0,0:0:0:0:
320,192,286251,1,0,0:0:0:0:
192,192,286376,1,0,0:0:0:0:
448,192,286376,1,0,0:0:0:0:
64,192,286438,1,0,0:0:0:0:
192,192,286501,1,0,0:0:0:0:
320,192,286563,1,0,0:0:0:0:
64,192,286626,1,0,0:0:0:0:
448,192,286688,1,0,0:0:0:0:
192,192,286751,1,0,0:0:0:0:
320,192,286751,1,0,0:0:0:0:
192,192,286844,1,0,0:0:0:0:
320,192,286938,1,0,0:0:0:0:
192,192,287032,1,0,0:0:0:0:
64,192,287126,1,0,0:0:0:0:
448,192,287126,1,0,0:0:0:0:
320,192,287172,1,0,0:0:0:0:
192,192,287219,1,0,0:0:0:0:
320,192,287282,1,0,0:0:0:0:
192,192,287313,1,0,0:0:0:0:
320,192,287392,1,0,0:0:0:0:
64,192,287407,1,0,0:0:0:0:
320,192,287501,1,0,0:0:0:0:
448,192,287501,1,4,0:0:0:0:
192,192,287547,1,0,0:0:0:0:
64,192,287594,1,0,0:0:0:0:
448,192,287641,1,0,0:0:0:0:
64,192,287688,1,0,0:0:0:0:
192,192,287735,1,0,0:0:0:0:
320,192,287782,1,0,0:0:0:0:
448,192,287829,1,0,0:0:0:0:
192,192,287876,1,0,0:0:0:0:
320,192,287922,1,0,0:0:0:0:
64,192,287969,1,0,0:0:0:0:
448,192,288016,1,0,0:0:0:0:
192,192,288063,1,0,0:0:0:0:
64,192,288110,1,0,0:0:0:0:
320,192,288157,1,0,0:0:0:0:
192,192,288204,1,0,0:0:0:0:
320,192,288251,1,0,0:0:0:0:
448,192,288297,1,0,0:0:0:0:
64,192,288344,1,0,0:0:0:0:
192,192,288391,1,0,0:0:0:0:
448,192,288438,1,0,0:0:0:0:
64,192,288485,1,0,0:0:0:0:
320,192,288532,1,0,0:0:0:0:
192,192,288579,1,0,0:0:0:0:
64,192,288626,1,0,0:0:0:0:
448,192,288672,1,0,0:0:0:0:
192,192,288719,1,0,0:0:0:0:
320,192,288766,1,0,0:0:0:0:
448,192,288813,1,0,0:0:0:0:
64,192,288860,1,0,0:0:0:0:
448,192,288907,1,0,0:0:0:0:
320,192,288954,1,0,0:0:0:0:
192,192,289001,1,0,0:0:0:0:
64,192,289047,1,0,0:0:0:0:
320,192,289094,1,0,0:0:0:0:
64,192,289141,1,0,0:0:0:0:
192,192,289188,1,0,0:0:0:0:
448,192,289235,1,0,0:0:0:0:
64,192,289282,1,0,0:0:0:0:
320,192,289329,1,0,0:0:0:0:
192,192,289376,1,0,0:0:0:0:
448,192,289376,1,0,0:0:0:0:
448,192,289469,1,0,0:0:0:0:
320,192,289563,1,0,0:0:0:0:
320,192,289657,1,0,0:0:0:0:
448,192,289751,1,0,0:0:0:0:
64,192,289751,1,0,0:0:0:0:
64,192,289938,1,0,0:0:0:0:
64,192,290032,1,0,0:0:0:0:
192,192,290126,1,0,0:0:0:0:
192,192,290219,1,0,0:0:0:0:
320,192,290313,1,0,0:0:0:0:
320,192,290407,1,0,0:0:0:0:
448,192,290501,1,0,0:0:0:0:
64,192,290501,1,0,0:0:0:0:
448,192,290594,1,0,0:0:0:0:
320,192,290688,1,0,0:0:0:0:
448,192,290876,1,0,0:0:0:0:
64,192,290876,1,0,0:0:0:0:
64,192,290969,1,0,0:0:0:0:
192,192,291063,1,0,0:0:0:0:
192,192,291157,1,0,0:0:0:0:
448,192,291251,1,0,0:0:0:0:
320,192,291251,1,0,0:0:0:0:
448,192,291438,1,0,0:0:0:0:
448,192,291532,1,0,0:0:0:0:
320,192,291626,1,0,0:0:0:0:
64,192,291626,1,0,0:0:0:0:
320,192,291719,1,0,0:0:0:0:
192,192,291813,1,0,0:0:0:0:
192,192,291907,1,0,0:0:0:0:
448,192,292001,1,0,0:0:0:0:
64,192,292001,1,0,0:0:0:0:
64,192,292094,1,0,0:0:0:0:
192,192,292188,1,0,0:0:0:0:
448,192,292376,1,0,0:0:0:0:
192,192,292376,1,0,0:0:0:0:
448,192,292469,1,0,0:0:0:0:
320,192,292563,1,0,0:0:0:0:
320,192,292657,1,0,0:0:0:0:
448,192,292751,1,0,0:0:0:0:
64,192,292751,1,0,0:0:0:0:
64,192,292938,1,0,0:0:0:0:
64,192,293032,1,0,0:0:0:0:
448,192,293126,1,0,0:0:0:0:
192,192,293126,1,0,0:0:0:0:
192,192,293219,1,0,0:0:0:0:
320,192,293313,1,0,0:0:0:0:
320,192,293407,1,0,0:0:0:0:
64,192,293501,1,4,0:0:0:0:
192,192,293501,1,0,0:0:0:0:
448,192,293501,1,0,0:0:0:0:
448,192,293594,1,0,0:0:0:0:
320,192,293688,1,0,0:0:0:0:
320,192,293782,1,0,0:0:0:0:
192,192,293876,1,0,0:0:0:0:
64,192,293876,1,0,0:0:0:0:
64,192,294063,1,0,0:0:0:0:
64,192,294157,1,0,0:0:0:0:
448,192,294251,1,0,0:0:0:0:
192,192,294251,1,0,0:0:0:0:
192,192,294344,1,0,0:0:0:0:
320,192,294438,1,0,0:0:0:0:
320,192,294532,1,0,0:0:0:0:
448,192,294626,1,0,0:0:0:0:
64,192,294626,1,0,0:0:0:0:
448,192,294719,1,0,0:0:0:0:
320,192,294813,1,0,0:0:0:0:
320,192,294907,1,0,0:0:0:0:
448,192,295001,1,0,0:0:0:0:
64,192,295001,1,0,0:0:0:0:
320,192,295094,1,0,0:0:0:0:
64,192,295188,1,0,0:0:0:0:
320,192,295282,1,0,0:0:0:0:
448,192,295376,1,0,0:0:0:0:
64,192,295376,1,0,0:0:0:0:
320,192,295469,1,0,0:0:0:0:
320,192,295657,1,0,0:0:0:0:
448,192,295751,1,0,0:0:0:0:
192,192,295751,1,0,0:0:0:0:
64,192,295844,1,0,0:0:0:0:
448,192,295938,1,0,0:0:0:0:
64,192,296032,1,0,0:0:0:0:
448,192,296126,1,0,0:0:0:0:
320,192,296126,1,0,0:0:0:0:
64,192,296219,1,0,0:0:0:0:
448,192,296313,1,0,0:0:0:0:
64,192,296407,1,0,0:0:0:0:
320,192,296501,1,0,0:0:0:0:
192,192,296501,1,0,0:0:0:0:
192,192,296688,1,0,0:0:0:0:
64,192,296688,1,0,0:0:0:0:
192,192,296876,1,0,0:0:0:0:
64,192,296876,1,0,0:0:0:0:
448,192,297063,1,0,0:0:0:0:
64,192,297063,1,0,0:0:0:0:
320,192,297157,1,0,0:0:0:0:
192,192,297157,1,0,0:0:0:0:
448,192,297251,1,0,0:0:0:0:
192,192,297251,1,0,0:0:0:0:
448,192,297344,1,0,0:0:0:0:
64,192,297344,1,0,0:0:0:0:
320,192,297438,1,0,0:0:0:0:
320,192,297532,1,0,0:0:0:0:
192,192,297626,1,0,0:0:0:0:
64,192,297626,1,0,0:0:0:0:
448,192,297813,1,0,0:0:0:0:
64,192,297813,1,0,0:0:0:0:
64,192,297907,1,0,0:0:0:0:
448,192,298001,1,0,0:0:0:0:
192,192,298001,1,0,0:0:0:0:
448,192,298188,1,0,0:0:0:0:
320,192,298188,1,0,0:0:0:0:
192,192,298282,1,0,0:0:0:0:
64,192,298282,1,0,0:0:0:0:
448,192,298376,1,0,0:0:0:0:
192,192,298376,1,0,0:0:0:0:
448,192,298563,1,0,0:0:0:0:
64,192,298563,1,0,0:0:0:0:
320,192,298657,1,0,0:0:0:0:
192,192,298657,1,0,0:0:0:0:
320,192,298751,1,0,0:0:0:0:
64,192,298751,1,0,0:0:0:0:
448,192,298844,1,0,0:0:0:0:
64,192,298844,1,0,0:0:0:0:
320,192,298938,1,0,0:0:0:0:
192,192,298938,1,0,0:0:0:0:
192,192,299032,1,0,0:0:0:0:
448,192,299126,1,0,0:0:0:0:
320,192,299126,1,0,0:0:0:0:
64,192,299219,1,0,0:0:0:0:
320,192,299313,1,0,0:0:0:0:
192,192,299313,1,0,0:0:0:0:
192,192,299407,1,0,0:0:0:0:
64,192,299407,1,0,0:0:0:0:
448,192,299501,1,0,0:0:0:0:
64,192,299501,1,4,0:0:0:0:
320,192,299501,1,0,0:0:0:0:
192,192,299688,1,0,0:0:0:0:
192,192,299876,1,0,0:0:0:0:
448,192,300063,1,0,0:0:0:0:
448,192,300813,1,0,0:0:0:0:
320,192,301188,1,0,0:0:0:0:
320,192,301376,1,0,0:0:0:0:
64,192,301563,1,0,0:0:0:0:
64,192,302313,1,0,0:0:0:0:
192,192,302688,1,0,0:0:0:0:
192,192,302876,1,0,0:0:0:0:
448,192,303063,1,0,0:0:0:0:
448,192,303813,1,0,0:0:0:0:
320,192,304188,1,0,0:0:0:0:
320,192,304376,1,0,0:0:0:0:
64,192,304563,1,0,0:0:0:0:
64,192,305313,1,0,0:0:0:0:
192,192,305688,1,0,0:0:0:0:
192,192,305876,1,0,0:0:0:0:
448,192,306063,1,0,0:0:0:0:
448,192,306813,1,0,0:0:0:0:
320,192,307188,1,0,0:0:0:0:
320,192,307376,1,0,0:0:0:0:
64,192,307563,1,0,0:0:0:0:
64,192,308313,1,0,0:0:0:0:
192,192,308688,1,0,0:0:0:0:
192,192,308876,1,0,0:0:0:0:
448,192,309063,1,0,0:0:0:0:
448,192,309813,1,0,0:0:0:0:
320,192,310188,1,0,0:0:0:0:
320,192,310376,1,0,0:0:0:0:
64,192,310563,1,0,0:0:0:0:
