osu file format v14

[General]
AudioFilename: audio.mp3
AudioLeadIn: 0
PreviewTime: 60338
Countdown: 0
SampleSet: Normal
StackLeniency: 0.7
Mode: 1
LetterboxInBreaks: 0
WidescreenStoryboard: 1

[Editor]
DistanceSpacing: 0.5
BeatDivisor: 4
GridSize: 32
TimelineZoom: 1.7

[Metadata]
Title:Siu Lei Aa Baa
TitleUnicode:少理阿爸
Artist:Wan Kwong
ArtistUnicode:尹光
Creator:_mtk
Version:Muzukashii
Source:
Tags:呂明光 jackson lu minh quang ignoring father 粵語 廣東話 cantonese techno electronic rap novelty chinese 中文
BeatmapID:4529112
BeatmapSetID:2085082

[Difficulty]
HPDrainRate:6.5
CircleSize:5
OverallDifficulty:5
ApproachRate:5
SliderMultiplier:1.4
SliderTickRate:1

[Events]
//Background and Video events
0,0,"idk.jpg",0,85
//Break Periods
//Storyboard Layer 0 (Background)
//Storyboard Layer 1 (Fail)
//Storyboard Layer 2 (Pass)
//Storyboard Layer 3 (Foreground)
//Storyboard Layer 4 (Overlay)
//Storyboard Sound Samples

[TimingPoints]
40,447.761194029851,4,1,0,85,1,0
60935,-100,4,1,0,85,0,1
75263,-100,4,1,0,85,0,0
118248,-100,4,1,0,85,0,1
132577,-100,4,1,0,85,0,0
179144,-100,4,1,0,85,0,1
193472,-100,4,1,0,85,0,0
207801,-100,4,1,0,85,0,1
222129,-100,4,1,0,85,0,0

[HitObjects]
256,192,7204,5,8,0:0:0:0:
256,192,7875,1,8,0:0:0:0:
256,192,8099,1,8,0:0:0:0:
256,192,8995,1,8,0:0:0:0:
256,192,9666,1,8,0:0:0:0:
256,192,9890,1,8,0:0:0:0:
224,192,10338,1,8,0:0:0:0:
256,192,10786,1,8,0:0:0:0:
256,192,11457,1,8,0:0:0:0:
256,192,11681,1,8,0:0:0:0:
256,192,12577,1,8,0:0:0:0:
256,192,13248,1,8,0:0:0:0:
256,192,13472,1,8,0:0:0:0:
256,192,13920,1,8,0:0:0:0:
256,192,14368,1,0,0:0:0:0:
256,160,15040,1,8,0:0:0:0:
256,192,15263,1,8,0:0:0:0:
256,192,16159,1,0,0:0:0:0:
256,192,16831,1,8,0:0:0:0:
256,192,17054,1,8,0:0:0:0:
256,160,17502,1,8,0:0:0:0:
256,192,17950,1,0,0:0:0:0:
256,192,18622,1,8,0:0:0:0:
256,192,18845,1,8,0:0:0:0:
256,192,19741,1,0,0:0:0:0:
256,192,20413,1,8,0:0:0:0:
256,192,20637,1,8,0:0:0:0:
256,192,21084,1,8,0:0:0:0:
256,192,21308,1,8,0:0:0:0:
256,192,21532,1,0,0:0:0:0:
256,192,21980,1,8,0:0:0:0:
61,157,22204,1,0,0:0:0:0:
256,192,22428,1,0,0:0:0:0:
256,192,22651,1,8,0:0:0:0:
256,192,23323,1,0,0:0:0:0:
256,192,23771,1,8,0:0:0:0:
256,192,23995,1,0,0:0:0:0:
256,192,24219,1,0,0:0:0:0:
256,192,24442,1,8,0:0:0:0:
256,192,25114,1,0,0:0:0:0:
256,192,25562,1,8,0:0:0:0:
256,192,25786,1,0,0:0:0:0:
256,192,26010,1,0,0:0:0:0:
256,192,26234,1,8,0:0:0:0:
256,192,26905,1,0,0:0:0:0:
256,192,27353,1,8,0:0:0:0:
256,192,27577,1,0,0:0:0:0:
256,192,27801,1,0,0:0:0:0:
256,192,28025,1,0,0:0:0:0:
256,192,28248,1,8,0:0:0:0:
224,192,28696,1,0,0:0:0:0:
231,199,29144,1,0,0:0:0:0:
256,192,29368,1,0,0:0:0:0:
256,192,29592,1,8,0:0:0:0:
224,192,30040,1,8,0:0:0:0:
224,192,30151,1,8,0:0:0:0:
224,192,30263,1,8,0:0:0:0:
256,192,30487,1,0,0:0:0:0:
224,192,30935,1,0,0:0:0:0:
278,183,31159,1,0,0:0:0:0:
224,192,31383,1,8,0:0:0:0:
224,192,31831,1,8,0:0:0:0:
256,192,32278,1,0,0:0:0:0:
224,192,32726,1,0,0:0:0:0:
224,192,32950,1,0,0:0:0:0:
224,192,33174,1,8,0:0:0:0:
224,192,33622,1,8,0:0:0:0:
224,192,33734,1,8,0:0:0:0:
224,192,33845,1,8,0:0:0:0:
224,192,34069,1,0,0:0:0:0:
224,192,34517,1,0,0:0:0:0:
224,192,34741,1,0,0:0:0:0:
224,192,34965,1,8,0:0:0:0:
224,192,35413,1,8,0:0:0:0:
224,192,35637,1,8,0:0:0:0:
224,192,35860,1,0,0:0:0:0:
224,192,36308,1,0,0:0:0:0:
242,210,36532,1,0,0:0:0:0:
224,192,36756,1,8,0:0:0:0:
224,192,37204,1,8,0:0:0:0:
192,192,37316,1,8,0:0:0:0:
192,192,37428,1,8,0:0:0:0:
192,192,37651,1,0,0:0:0:0:
192,192,38099,1,0,0:0:0:0:
192,192,38323,1,0,0:0:0:0:
192,192,38547,1,8,0:0:0:0:
290,175,38995,1,0,0:0:0:0:
192,192,39442,1,12,0:0:0:0:
192,192,39666,1,8,0:0:0:0:
192,192,40114,1,8,0:0:0:0:
192,192,40338,1,8,0:0:0:0:
192,192,41234,1,8,0:0:0:0:
223,174,41569,1,0,0:0:0:0:
160,192,41905,1,8,0:0:0:0:
192,192,42129,1,8,0:0:0:0:
192,160,42465,1,0,0:0:0:0:
224,152,42577,1,0,0:0:0:0:
192,160,42801,1,0,0:0:0:0:
192,160,43025,1,12,0:0:0:0:
192,160,43248,1,8,0:0:0:0:
192,160,43696,1,8,0:0:0:0:
192,160,43920,1,8,0:0:0:0:
192,160,44816,1,8,0:0:0:0:
192,160,45151,1,0,0:0:0:0:
192,160,45487,1,8,0:0:0:0:
192,160,45711,1,8,0:0:0:0:
255,153,46047,1,0,0:0:0:0:
192,160,46159,1,0,0:0:0:0:
192,160,46383,1,8,0:0:0:0:
192,160,46607,1,4,0:0:0:0:
246,186,47054,1,0,0:0:0:0:
246,186,47278,1,8,0:0:0:0:
256,160,47502,1,0,0:0:0:0:
257,197,47838,1,0,0:0:0:0:
257,197,47950,1,0,0:0:0:0:
256,160,48174,1,8,0:0:0:0:
256,160,48398,1,0,0:0:0:0:
257,197,48622,1,8,0:0:0:0:
257,197,48734,1,8,0:0:0:0:
257,197,48845,1,8,0:0:0:0:
269,195,49069,1,8,0:0:0:0:
256,160,49293,1,0,0:0:0:0:
296,204,49741,1,0,0:0:0:0:
296,204,49965,1,8,0:0:0:0:
256,160,50189,1,0,0:0:0:0:
297,203,50637,1,0,0:0:0:0:
297,203,51084,1,8,0:0:0:0:
269,195,51420,1,0,0:0:0:0:
320,224,51532,1,0,0:0:0:0:
320,224,51756,1,8,0:0:0:0:
320,224,51980,1,0,0:0:0:0:
288,224,52204,1,0,0:0:0:0:
288,224,52316,1,0,0:0:0:0:
269,195,52428,1,0,0:0:0:0:
288,224,52651,1,8,0:0:0:0:
288,192,52875,1,0,0:0:0:0:
256,224,53771,1,0,0:0:0:0:
256,224,54219,1,8,0:0:0:0:
256,192,54666,1,0,0:0:0:0:
253,196,55002,1,0,0:0:0:0:
256,224,55114,1,0,0:0:0:0:
256,224,55338,1,8,0:0:0:0:
256,224,55562,1,0,0:0:0:0:
253,196,55786,1,8,0:0:0:0:
256,224,55898,1,8,0:0:0:0:
253,196,56010,1,8,0:0:0:0:
288,224,56234,1,8,0:0:0:0:
288,224,56457,1,0,0:0:0:0:
288,224,56905,1,0,0:0:0:0:
288,224,57129,1,8,0:0:0:0:
288,224,57353,1,0,0:0:0:0:
288,224,57801,1,0,0:0:0:0:
256,224,58248,1,8,0:0:0:0:
256,224,58472,1,0,0:0:0:0:
251,184,58584,1,0,0:0:0:0:
256,224,58696,1,0,0:0:0:0:
256,224,58920,1,8,0:0:0:0:
256,224,59144,1,0,0:0:0:0:
272,188,59368,1,8,0:0:0:0:
272,188,59480,1,8,0:0:0:0:
256,192,59592,1,8,0:0:0:0:
224,192,59816,1,8,0:0:0:0:
224,192,60040,1,0,0:0:0:0:
192,192,60935,1,4,0:0:0:0:
192,192,61383,1,4,0:0:0:0:
192,192,61831,1,4,0:0:0:0:
192,192,62278,1,0,0:0:0:0:
192,192,62502,1,8,0:0:0:0:
192,192,62726,1,0,0:0:0:0:
192,192,62950,1,0,0:0:0:0:
192,192,63062,1,0,0:0:0:0:
192,192,63174,1,0,0:0:0:0:
192,192,63398,1,8,0:0:0:0:
192,192,63622,1,0,0:0:0:0:
235,203,64069,1,0,0:0:0:0:
225,206,64293,1,8,0:0:0:0:
160,192,64517,1,4,0:0:0:0:
160,192,64965,1,4,0:0:0:0:
160,192,65413,1,4,0:0:0:0:
192,224,65860,1,0,0:0:0:0:
192,224,66084,1,8,0:0:0:0:
192,224,66308,1,0,0:0:0:0:
276,243,66532,1,8,0:0:0:0:
276,243,66644,1,8,0:0:0:0:
192,224,66756,1,8,0:0:0:0:
224,192,66980,1,8,0:0:0:0:
224,192,67204,1,0,0:0:0:0:
206,221,67651,1,0,0:0:0:0:
206,221,67875,1,8,0:0:0:0:
128,224,68099,1,4,0:0:0:0:
128,224,68547,1,4,0:0:0:0:
128,224,68995,1,4,0:0:0:0:
256,192,69442,1,0,0:0:0:0:
256,192,69666,1,8,0:0:0:0:
192,224,69890,1,0,0:0:0:0:
224,224,70114,1,0,0:0:0:0:
224,224,70226,1,0,0:0:0:0:
224,224,70338,1,0,0:0:0:0:
224,224,70562,1,8,0:0:0:0:
224,224,70786,1,0,0:0:0:0:
208,222,71234,1,0,0:0:0:0:
206,228,71457,1,8,0:0:0:0:
224,224,71681,1,4,0:0:0:0:
224,224,72129,1,4,0:0:0:0:
224,224,72577,1,4,0:0:0:0:
224,224,72801,1,0,0:0:0:0:
224,224,72913,1,0,0:0:0:0:
224,224,73025,1,0,0:0:0:0:
224,224,73248,1,8,0:0:0:0:
192,224,73472,1,0,0:0:0:0:
192,224,73696,1,8,0:0:0:0:
192,224,73808,1,8,0:0:0:0:
230,227,73920,1,8,0:0:0:0:
192,224,74144,1,8,0:0:0:0:
256,192,74368,1,0,0:0:0:0:
192,224,75263,1,4,0:0:0:0:
256,224,75711,1,0,0:0:0:0:
160,224,75935,1,8,0:0:0:0:
160,224,76159,1,0,0:0:0:0:
192,224,76607,1,0,0:0:0:0:
192,224,76831,1,8,0:0:0:0:
192,224,77054,1,0,0:0:0:0:
192,224,77502,1,0,0:0:0:0:
192,224,77726,1,0,0:0:0:0:
192,192,77950,1,8,0:0:0:0:
192,192,78622,1,0,0:0:0:0:
192,192,78845,1,0,0:0:0:0:
256,192,79293,1,0,0:0:0:0:
216,202,79517,1,8,0:0:0:0:
224,192,79741,1,0,0:0:0:0:
224,192,80189,1,0,0:0:0:0:
215,192,80413,1,8,0:0:0:0:
224,192,80637,1,0,0:0:0:0:
288,192,81084,1,0,0:0:0:0:
256,192,81308,1,8,0:0:0:0:
256,192,81532,1,0,0:0:0:0:
301,172,81980,1,8,0:0:0:0:
288,192,82204,1,8,0:0:0:0:
192,192,82428,1,0,0:0:0:0:
256,192,82875,1,0,0:0:0:0:
256,192,83099,1,0,0:0:0:0:
256,192,83323,1,8,0:0:0:0:
256,192,83771,1,8,0:0:0:0:
256,192,83995,1,8,0:0:0:0:
256,192,84219,1,0,0:0:0:0:
256,192,84666,1,0,0:0:0:0:
256,192,84890,1,0,0:0:0:0:
256,192,85114,1,8,0:0:0:0:
219,193,85562,1,0,0:0:0:0:
226,192,85786,1,0,0:0:0:0:
219,193,86010,1,8,0:0:0:0:
211,204,86234,1,8,0:0:0:0:
193,204,86457,1,0,0:0:0:0:
219,193,86681,1,0,0:0:0:0:
241,195,86905,1,8,0:0:0:0:
211,188,87353,1,0,0:0:0:0:
222,198,87577,1,8,0:0:0:0:
226,192,87801,1,0,0:0:0:0:
211,188,88025,1,8,0:0:0:0:
211,188,88248,1,0,0:0:0:0:
160,192,88696,1,8,0:0:0:0:
160,192,89368,1,0,0:0:0:0:
192,192,89592,1,0,0:0:0:0:
192,192,90040,1,0,0:0:0:0:
160,192,90263,1,8,0:0:0:0:
192,192,90487,1,0,0:0:0:0:
160,192,90935,1,0,0:0:0:0:
160,192,91159,1,8,0:0:0:0:
160,192,91383,1,0,0:0:0:0:
192,160,91831,1,0,0:0:0:0:
192,160,92054,1,0,0:0:0:0:
192,160,92278,1,8,0:0:0:0:
224,192,92726,1,4,0:0:0:0:
224,192,93174,1,4,0:0:0:0:
256,192,93622,1,12,0:0:0:0:
256,192,94069,1,12,0:0:0:0:
224,192,94517,1,0,0:0:0:0:
224,192,94741,1,8,0:0:0:0:
256,192,94965,1,0,0:0:0:0:
192,160,95413,1,0,0:0:0:0:
224,192,95637,1,8,0:0:0:0:
224,192,95860,1,0,0:0:0:0:
224,192,96532,1,8,0:0:0:0:
192,160,96756,1,8,0:0:0:0:
192,160,97204,1,0,0:0:0:0:
192,160,97428,1,8,0:0:0:0:
224,192,97651,1,0,0:0:0:0:
224,192,98099,1,0,0:0:0:0:
224,192,98323,1,8,0:0:0:0:
224,224,98547,1,0,0:0:0:0:
192,160,98995,1,8,0:0:0:0:
192,160,99219,1,8,0:0:0:0:
192,160,99442,1,0,0:0:0:0:
256,192,99890,1,0,0:0:0:0:
256,192,100114,1,0,0:0:0:0:
256,192,100338,1,8,0:0:0:0:
256,224,100562,1,8,0:0:0:0:
256,192,100786,1,0,0:0:0:0:
256,192,101010,1,0,0:0:0:0:
224,192,101234,1,8,0:0:0:0:
216,206,101681,1,8,0:0:0:0:
256,192,101905,1,8,0:0:0:0:
256,192,102129,1,0,0:0:0:0:
192,160,102353,1,0,0:0:0:0:
192,160,102577,1,8,0:0:0:0:
192,160,102801,1,8,0:0:0:0:
192,160,103025,1,0,0:0:0:0:
192,160,103696,1,0,0:0:0:0:
192,160,103920,1,0,0:0:0:0:
256,192,104368,1,0,0:0:0:0:
192,160,104592,1,8,0:0:0:0:
224,192,104816,1,0,0:0:0:0:
224,192,105263,1,0,0:0:0:0:
256,192,105487,1,8,0:0:0:0:
256,192,105711,1,0,0:0:0:0:
224,192,106159,1,0,0:0:0:0:
224,192,106383,1,0,0:0:0:0:
224,192,106607,1,8,0:0:0:0:
224,192,107054,1,8,0:0:0:0:
256,192,107278,1,8,0:0:0:0:
256,192,107502,1,0,0:0:0:0:
256,192,107950,1,0,0:0:0:0:
224,192,108174,1,8,0:0:0:0:
256,192,108398,1,0,0:0:0:0:
224,192,108845,1,0,0:0:0:0:
224,192,109069,1,8,0:0:0:0:
256,192,109293,1,0,0:0:0:0:
224,192,109741,1,0,0:0:0:0:
224,160,110189,1,8,0:0:0:0:
224,160,110860,1,0,0:0:0:0:
256,192,111084,1,0,0:0:0:0:
224,160,111532,1,0,0:0:0:0:
256,192,111756,1,8,0:0:0:0:
224,160,111980,1,0,0:0:0:0:
256,192,112428,1,0,0:0:0:0:
224,192,112651,1,0,0:0:0:0:
224,192,112875,1,8,0:0:0:0:
224,192,113099,1,8,0:0:0:0:
224,192,113323,1,0,0:0:0:0:
288,224,113547,1,0,0:0:0:0:
288,224,113771,1,8,0:0:0:0:
256,160,114442,1,0,0:0:0:0:
256,160,114666,1,0,0:0:0:0:
256,160,114890,1,8,0:0:0:0:
256,160,115114,1,8,0:0:0:0:
224,160,115562,1,0,0:0:0:0:
224,160,116010,1,8,0:0:0:0:
224,160,116234,1,8,0:0:0:0:
224,160,116457,1,0,0:0:0:0:
224,160,116681,1,0,0:0:0:0:
224,160,116905,1,8,0:0:0:0:
224,160,117129,1,8,0:0:0:0:
224,160,117353,1,8,0:0:0:0:
224,160,118248,1,4,0:0:0:0:
224,160,118696,1,4,0:0:0:0:
224,160,119144,1,4,0:0:0:0:
192,192,119592,1,0,0:0:0:0:
192,192,119816,1,8,0:0:0:0:
192,192,120040,1,0,0:0:0:0:
221,155,120263,1,0,0:0:0:0:
221,155,120375,1,0,0:0:0:0:
192,192,120487,1,0,0:0:0:0:
192,192,120711,1,8,0:0:0:0:
192,192,120935,1,0,0:0:0:0:
237,182,121383,1,0,0:0:0:0:
237,182,121607,1,8,0:0:0:0:
160,192,121831,1,4,0:0:0:0:
160,192,122278,1,4,0:0:0:0:
160,192,122726,1,4,0:0:0:0:
192,224,123174,1,0,0:0:0:0:
192,224,123398,1,8,0:0:0:0:
192,224,123622,1,0,0:0:0:0:
221,155,123845,1,8,0:0:0:0:
221,155,123957,1,8,0:0:0:0:
192,224,124069,1,8,0:0:0:0:
192,224,124293,1,8,0:0:0:0:
256,192,124517,1,0,0:0:0:0:
237,178,124965,1,0,0:0:0:0:
236,178,125189,1,8,0:0:0:0:
128,224,125413,1,4,0:0:0:0:
128,224,125860,1,4,0:0:0:0:
128,224,126308,1,4,0:0:0:0:
256,192,126756,1,0,0:0:0:0:
256,192,126980,1,8,0:0:0:0:
192,224,127204,1,0,0:0:0:0:
221,155,127428,1,0,0:0:0:0:
221,155,127540,1,0,0:0:0:0:
224,224,127651,1,0,0:0:0:0:
224,224,127875,1,8,0:0:0:0:
224,224,128099,1,0,0:0:0:0:
246,177,128547,1,0,0:0:0:0:
231,180,128771,1,8,0:0:0:0:
224,224,128995,1,4,0:0:0:0:
224,224,129442,1,4,0:0:0:0:
224,224,129890,1,4,0:0:0:0:
245,196,130114,1,0,0:0:0:0:
245,196,130226,1,0,0:0:0:0:
224,224,130338,1,0,0:0:0:0:
224,224,130562,1,8,0:0:0:0:
192,224,130786,1,0,0:0:0:0:
192,224,131010,1,8,0:0:0:0:
192,224,131122,1,8,0:0:0:0:
245,196,131234,1,8,0:0:0:0:
192,224,131457,1,8,0:0:0:0:
256,192,131681,1,0,0:0:0:0:
245,196,132129,1,8,0:0:0:0:
256,192,132577,1,4,0:0:0:0:
256,160,133025,1,8,0:0:0:0:
256,160,133472,1,0,0:0:0:0:
256,192,133808,1,0,0:0:0:0:
256,160,133920,1,0,0:0:0:0:
256,160,134144,1,8,0:0:0:0:
256,160,134368,1,0,0:0:0:0:
256,224,134592,1,8,0:0:0:0:
224,160,134704,1,8,0:0:0:0:
224,160,134816,1,8,0:0:0:0:
256,160,135040,1,8,0:0:0:0:
256,160,135263,1,0,0:0:0:0:
224,160,135711,1,0,0:0:0:0:
192,192,135935,1,8,0:0:0:0:
256,160,136159,1,0,0:0:0:0:
256,192,136607,1,0,0:0:0:0:
352,224,137054,1,8,0:0:0:0:
352,224,137390,1,0,0:0:0:0:
320,224,137502,1,0,0:0:0:0:
320,224,137726,1,8,0:0:0:0:
320,224,137950,1,0,0:0:0:0:
352,224,138174,1,0,0:0:0:0:
352,224,138286,1,0,0:0:0:0:
288,224,138398,1,0,0:0:0:0:
288,224,138622,1,8,0:0:0:0:
288,192,138845,1,0,0:0:0:0:
256,224,139741,1,0,0:0:0:0:
256,224,140189,1,8,0:0:0:0:
256,192,140637,1,0,0:0:0:0:
288,224,140972,1,0,0:0:0:0:
256,224,141084,1,0,0:0:0:0:
256,224,141308,1,8,0:0:0:0:
256,224,141532,1,0,0:0:0:0:
288,224,141756,1,8,0:0:0:0:
288,224,141868,1,8,0:0:0:0:
256,224,141980,1,8,0:0:0:0:
288,224,142204,1,8,0:0:0:0:
288,224,142428,1,0,0:0:0:0:
288,224,142875,1,0,0:0:0:0:
288,224,143099,1,8,0:0:0:0:
288,224,143323,1,0,0:0:0:0:
288,192,143771,1,8,0:0:0:0:
256,224,144219,1,0,0:0:0:0:
256,192,144442,1,0,0:0:0:0:
320,224,144554,1,0,0:0:0:0:
256,224,144666,1,0,0:0:0:0:
256,224,144890,1,8,0:0:0:0:
256,224,145114,1,0,0:0:0:0:
320,224,145338,1,8,0:0:0:0:
288,224,145450,1,8,0:0:0:0:
256,192,145562,1,8,0:0:0:0:
224,192,145786,1,8,0:0:0:0:
224,192,146010,1,0,0:0:0:0:
256,192,146681,1,0,0:0:0:0:
192,192,146905,1,12,0:0:0:0:
192,192,147353,1,8,0:0:0:0:
192,192,147577,1,8,0:0:0:0:
192,192,147801,1,0,0:0:0:0:
256,224,148025,1,8,0:0:0:0:
192,160,148696,1,0,0:0:0:0:
224,192,149144,1,8,0:0:0:0:
224,192,149368,1,8,0:0:0:0:
224,192,149592,1,0,0:0:0:0:
256,224,149816,1,8,0:0:0:0:
256,192,150263,1,8,0:0:0:0:
224,160,150487,1,0,0:0:0:0:
256,192,150935,1,8,0:0:0:0:
224,192,151159,1,8,0:0:0:0:
256,160,151383,1,0,0:0:0:0:
256,160,151607,1,8,0:0:0:0:
224,192,152278,1,0,0:0:0:0:
256,160,152726,1,8,0:0:0:0:
224,192,152950,1,8,0:0:0:0:
224,192,153174,1,0,0:0:0:0:
288,160,153398,1,8,0:0:0:0:
224,192,153845,1,8,0:0:0:0:
256,160,154069,1,0,0:0:0:0:
224,192,154517,1,8,0:0:0:0:
224,192,154741,1,8,0:0:0:0:
224,160,154965,1,0,0:0:0:0:
224,160,155189,1,8,0:0:0:0:
288,160,155860,1,0,0:0:0:0:
224,192,156308,1,8,0:0:0:0:
288,160,156532,1,8,0:0:0:0:
224,192,156756,1,0,0:0:0:0:
224,160,156980,1,8,0:0:0:0:
288,128,157428,1,8,0:0:0:0:
288,128,157651,1,0,0:0:0:0:
288,160,158099,1,8,0:0:0:0:
224,192,158323,1,8,0:0:0:0:
288,128,158547,1,0,0:0:0:0:
192,160,158771,1,8,0:0:0:0:
256,160,159219,1,8,0:0:0:0:
224,192,159442,1,0,0:0:0:0:
256,160,159890,1,8,0:0:0:0:
256,160,160338,1,0,0:0:0:0:
256,128,161010,1,0,0:0:0:0:
224,192,161234,1,8,0:0:0:0:
224,192,161457,1,8,0:0:0:0:
192,160,161905,1,8,0:0:0:0:
224,160,162129,1,8,0:0:0:0:
256,160,162577,1,0,0:0:0:0:
224,192,162801,1,0,0:0:0:0:
256,128,163025,1,8,0:0:0:0:
256,128,163248,1,8,0:0:0:0:
256,128,163696,1,8,0:0:0:0:
256,128,163920,1,8,0:0:0:0:
256,128,164368,1,8,0:0:0:0:
224,192,164592,1,8,0:0:0:0:
224,192,164816,1,0,0:0:0:0:
256,128,165040,1,0,0:0:0:0:
256,128,165487,1,0,0:0:0:0:
224,192,165711,1,0,0:0:0:0:
224,192,166159,1,8,0:0:0:0:
288,192,166383,1,8,0:0:0:0:
288,192,166607,1,0,0:0:0:0:
288,192,166831,1,0,0:0:0:0:
256,128,167278,1,0,0:0:0:0:
256,128,167502,1,0,0:0:0:0:
288,192,168174,1,0,0:0:0:0:
256,192,168398,1,8,0:0:0:0:
256,160,168622,1,8,0:0:0:0:
288,192,169069,1,8,0:0:0:0:
288,192,169293,1,8,0:0:0:0:
256,160,169741,1,0,0:0:0:0:
256,160,169965,1,0,0:0:0:0:
256,160,170189,1,8,0:0:0:0:
256,160,170413,1,8,0:0:0:0:
288,160,170860,1,8,0:0:0:0:
224,192,171084,1,8,0:0:0:0:
224,192,171532,1,8,0:0:0:0:
224,192,171756,1,8,0:0:0:0:
224,192,171980,1,4,0:0:0:0:
288,160,172950,1,4,0:0:0:0:
288,160,173771,1,4,0:0:0:0:
256,192,173995,12,0,174666,0:0:0:0:
256,192,175562,5,0,0:0:0:0:
256,192,176010,1,0,0:0:0:0:
256,192,176457,1,0,0:0:0:0:
256,192,176905,1,0,0:0:0:0:
256,192,177353,1,0,0:0:0:0:
256,192,177577,1,0,0:0:0:0:
256,192,177801,1,0,0:0:0:0:
256,192,178025,1,0,0:0:0:0:
256,192,178248,1,0,0:0:0:0:
256,192,178360,1,0,0:0:0:0:
256,192,178472,1,0,0:0:0:0:
320,224,178696,1,0,0:0:0:0:
288,192,179144,1,4,0:0:0:0:
288,224,179592,1,0,0:0:0:0:
256,192,179816,1,0,0:0:0:0:
288,224,180040,1,8,0:0:0:0:
288,224,180263,1,8,0:0:0:0:
288,224,180375,1,8,0:0:0:0:
288,224,180487,1,8,0:0:0:0:
288,224,180711,1,8,0:0:0:0:
288,224,180935,1,0,0:0:0:0:
288,224,181383,1,0,0:0:0:0:
288,224,181607,1,8,0:0:0:0:
256,224,181831,1,0,0:0:0:0:
224,224,182054,1,8,0:0:0:0:
224,224,182166,1,8,0:0:0:0:
224,224,182278,1,8,0:0:0:0:
288,192,182502,1,8,0:0:0:0:
288,192,182726,1,0,0:0:0:0:
288,192,183174,1,0,0:0:0:0:
288,192,183398,1,0,0:0:0:0:
288,192,183622,1,8,0:0:0:0:
288,192,183845,1,8,0:0:0:0:
288,192,183957,1,8,0:0:0:0:
288,192,184069,1,8,0:0:0:0:
288,192,184293,1,8,0:0:0:0:
288,192,184517,1,0,0:0:0:0:
288,192,184965,1,0,0:0:0:0:
256,224,185189,1,8,0:0:0:0:
256,224,185413,1,0,0:0:0:0:
288,192,185637,1,8,0:0:0:0:
288,192,185748,1,8,0:0:0:0:
288,160,185860,1,8,0:0:0:0:
288,160,186084,1,8,0:0:0:0:
288,192,186308,1,4,0:0:0:0:
256,192,186756,1,12,0:0:0:0:
288,192,187204,1,4,0:0:0:0:
256,192,187651,1,12,0:0:0:0:
288,192,188099,1,4,0:0:0:0:
256,192,188547,1,12,0:0:0:0:
288,192,188995,1,4,0:0:0:0:
256,192,189442,1,12,0:0:0:0:
288,192,189890,1,4,0:0:0:0:
288,192,190338,1,4,0:0:0:0:
288,192,190786,1,4,0:0:0:0:
288,192,191234,1,4,0:0:0:0:
288,192,191681,1,4,0:0:0:0:
288,192,191905,1,4,0:0:0:0:
288,192,192129,1,4,0:0:0:0:
288,192,192353,1,4,0:0:0:0:
288,192,192577,1,4,0:0:0:0:
288,192,192801,1,4,0:0:0:0:
288,192,193025,1,4,0:0:0:0:
288,192,193472,1,0,0:0:0:0:
288,192,193920,1,0,0:0:0:0:
256,160,194144,1,0,0:0:0:0:
256,160,194368,1,8,0:0:0:0:
221,210,194816,1,8,0:0:0:0:
235,212,195040,1,8,0:0:0:0:
252,213,195263,1,0,0:0:0:0:
227,207,195487,1,0,0:0:0:0:
196,183,195711,1,8,0:0:0:0:
217,193,195935,1,0,0:0:0:0:
212,182,196159,1,8,0:0:0:0:
288,160,196607,1,0,0:0:0:0:
320,192,196831,1,0,0:0:0:0:
320,192,197054,1,8,0:0:0:0:
288,160,197502,1,8,0:0:0:0:
288,192,197726,1,8,0:0:0:0:
256,160,197950,1,0,0:0:0:0:
256,160,198398,1,0,0:0:0:0:
256,192,198622,1,8,0:0:0:0:
256,128,198845,1,0,0:0:0:0:
288,192,199069,1,8,0:0:0:0:
288,192,199181,1,8,0:0:0:0:
256,128,199293,1,8,0:0:0:0:
256,128,199517,1,0,0:0:0:0:
256,128,199741,1,8,0:0:0:0:
201,191,200189,1,0,0:0:0:0:
192,160,200637,1,0,0:0:0:0:
224,192,201084,1,8,0:0:0:0:
256,160,201308,1,8,0:0:0:0:
224,192,201532,1,0,0:0:0:0:
192,160,201980,1,0,0:0:0:0:
208,183,202204,1,0,0:0:0:0:
208,183,202428,1,8,0:0:0:0:
208,183,202651,1,0,0:0:0:0:
192,160,202875,1,8,0:0:0:0:
208,183,203099,1,8,0:0:0:0:
192,160,203323,1,8,0:0:0:0:
192,160,203771,1,0,0:0:0:0:
192,160,203995,1,8,0:0:0:0:
192,160,204219,1,0,0:0:0:0:
192,160,204666,1,8,0:0:0:0:
192,160,204890,1,8,0:0:0:0:
192,160,205114,1,0,0:0:0:0:
192,160,205562,1,0,0:0:0:0:
224,160,205786,1,0,0:0:0:0:
192,160,206010,1,8,0:0:0:0:
256,160,206457,1,8,0:0:0:0:
256,192,206905,1,8,0:0:0:0:
256,192,207801,1,4,0:0:0:0:
256,192,208248,1,4,0:0:0:0:
256,192,208696,1,4,0:0:0:0:
192,192,209144,1,0,0:0:0:0:
192,192,209368,1,8,0:0:0:0:
192,192,209592,1,0,0:0:0:0:
192,192,209816,1,0,0:0:0:0:
192,192,209928,1,0,0:0:0:0:
192,192,210040,1,0,0:0:0:0:
192,192,210263,1,8,0:0:0:0:
192,192,210487,1,0,0:0:0:0:
236,219,210935,1,0,0:0:0:0:
236,219,211159,1,8,0:0:0:0:
160,192,211383,1,4,0:0:0:0:
160,192,211831,1,4,0:0:0:0:
160,192,212278,1,4,0:0:0:0:
192,224,212726,1,0,0:0:0:0:
192,224,212950,1,8,0:0:0:0:
192,224,213174,1,0,0:0:0:0:
288,224,213398,1,8,0:0:0:0:
288,224,213510,1,8,0:0:0:0:
256,224,213622,1,8,0:0:0:0:
192,224,213845,1,8,0:0:0:0:
160,192,214069,1,0,0:0:0:0:
242,220,214517,1,0,0:0:0:0:
242,220,214741,1,8,0:0:0:0:
128,224,214965,1,4,0:0:0:0:
128,224,215413,1,4,0:0:0:0:
128,224,215860,1,4,0:0:0:0:
256,192,216308,1,0,0:0:0:0:
256,192,216532,1,8,0:0:0:0:
192,224,216756,1,0,0:0:0:0:
224,224,216980,1,0,0:0:0:0:
224,224,217092,1,0,0:0:0:0:
224,224,217204,1,0,0:0:0:0:
224,224,217428,1,8,0:0:0:0:
224,224,217651,1,0,0:0:0:0:
246,219,218099,1,0,0:0:0:0:
246,219,218323,1,8,0:0:0:0:
224,224,218547,1,4,0:0:0:0:
224,224,218995,1,4,0:0:0:0:
224,224,219442,1,4,0:0:0:0:
256,224,219666,1,0,0:0:0:0:
224,224,219778,1,0,0:0:0:0:
224,224,219890,1,0,0:0:0:0:
224,224,220114,1,8,0:0:0:0:
192,224,220338,1,0,0:0:0:0:
192,224,220562,1,8,0:0:0:0:
192,224,220674,1,8,0:0:0:0:
256,224,220786,1,8,0:0:0:0:
192,224,221010,1,8,0:0:0:0:
256,192,221234,1,0,0:0:0:0:
256,192,222129,1,4,0:0:0:0:
256,192,222577,1,8,0:0:0:0:
256,192,223025,1,0,0:0:0:0:
224,160,223360,1,0,0:0:0:0:
256,192,223472,1,0,0:0:0:0:
256,192,223696,1,8,0:0:0:0:
256,192,223920,1,0,0:0:0:0:
256,224,224144,1,0,0:0:0:0:
256,224,224256,1,0,0:0:0:0:
256,192,224368,1,0,0:0:0:0:
256,192,224592,1,8,0:0:0:0:
256,192,224816,1,0,0:0:0:0:
256,192,225263,1,0,0:0:0:0:
256,192,225487,1,8,0:0:0:0:
256,192,225711,1,0,0:0:0:0:
256,192,226159,1,0,0:0:0:0:
288,192,226607,1,8,0:0:0:0:
384,224,226942,1,0,0:0:0:0:
256,160,227054,1,0,0:0:0:0:
256,160,227278,1,8,0:0:0:0:
256,160,227502,1,0,0:0:0:0:
256,160,227726,1,8,0:0:0:0:
288,192,227838,1,8,0:0:0:0:
288,192,227950,1,8,0:0:0:0:
256,160,228174,1,8,0:0:0:0:
256,160,228398,1,0,0:0:0:0:
256,160,229293,1,0,0:0:0:0:
256,160,229741,1,8,0:0:0:0:
256,160,230189,1,0,0:0:0:0:
256,160,230525,1,0,0:0:0:0:
256,160,230637,1,0,0:0:0:0:
224,160,230860,1,8,0:0:0:0:
224,160,231084,1,0,0:0:0:0:
224,160,231308,1,0,0:0:0:0:
224,160,231420,1,0,0:0:0:0:
256,160,231532,1,0,0:0:0:0:
256,160,231756,1,8,0:0:0:0:
256,160,231980,1,0,0:0:0:0:
256,160,232428,1,0,0:0:0:0:
256,160,232651,1,8,0:0:0:0:
256,160,232875,1,0,0:0:0:0:
224,160,233323,1,8,0:0:0:0:
224,160,233771,1,0,0:0:0:0:
224,160,233995,1,0,0:0:0:0:
224,160,234107,1,0,0:0:0:0:
224,160,234219,1,0,0:0:0:0:
224,160,234442,1,8,0:0:0:0:
224,160,234666,1,0,0:0:0:0:
224,160,234890,1,8,0:0:0:0:
224,160,235002,1,8,0:0:0:0:
256,192,235114,1,8,0:0:0:0:
224,160,235338,1,8,0:0:0:0:
224,160,235562,1,0,0:0:0:0:
256,160,236457,1,4,0:0:0:0:
224,160,236905,1,8,0:0:0:0:
224,160,237129,1,0,0:0:0:0:
224,160,237353,1,0,0:0:0:0:
224,128,237577,1,8,0:0:0:0:
224,128,238025,1,8,0:0:0:0:
224,128,238248,1,0,0:0:0:0:
192,128,238696,1,8,0:0:0:0:
192,128,239144,1,0,0:0:0:0:
192,128,239368,1,8,0:0:0:0:
192,128,239480,1,8,0:0:0:0:
192,128,239592,1,8,0:0:0:0:
192,128,239816,1,8,0:0:0:0:
192,128,240040,1,0,0:0:0:0:
192,128,240487,1,8,0:0:0:0:
192,96,240711,1,0,0:0:0:0:
192,128,240935,1,0,0:0:0:0:
192,128,241159,1,8,0:0:0:0:
192,128,241607,1,0,0:0:0:0:
192,128,241831,1,8,0:0:0:0:
256,192,242278,1,8,0:0:0:0:
256,160,242950,1,8,0:0:0:0:
224,192,243174,1,8,0:0:0:0:
224,192,243286,1,8,0:0:0:0:
256,160,243398,1,8,0:0:0:0:
256,160,243622,1,0,0:0:0:0:
256,160,244069,1,8,0:0:0:0:
256,160,244293,1,0,0:0:0:0:
256,160,244517,1,0,0:0:0:0:
256,160,244741,1,8,0:0:0:0:
256,160,245189,1,8,0:0:0:0:
256,160,245413,1,0,0:0:0:0:
256,160,245860,1,8,0:0:0:0:
256,160,246308,1,0,0:0:0:0:
256,160,246532,1,8,0:0:0:0:
256,160,246644,1,8,0:0:0:0:
256,160,246756,1,8,0:0:0:0:
256,160,246980,1,8,0:0:0:0:
256,160,247204,1,0,0:0:0:0:
256,160,247651,1,8,0:0:0:0:
256,160,247875,1,0,0:0:0:0:
256,160,248099,1,0,0:0:0:0:
256,160,248323,1,8,0:0:0:0:
256,160,248771,1,0,0:0:0:0:
256,160,248995,1,8,0:0:0:0:
256,160,249442,1,8,0:0:0:0:
256,160,250114,1,8,0:0:0:0:
256,160,250338,1,0,0:0:0:0:
256,160,250562,1,8,0:0:0:0:
256,160,250786,1,8,0:0:0:0:
