osu file format v14

[General]
AudioFilename: audio.mp3
AudioLeadIn: 0
PreviewTime: 60338
Countdown: 0
SampleSet: Normal
StackLeniency: 0.7
Mode: 1
LetterboxInBreaks: 0
WidescreenStoryboard: 0

[Editor]
DistanceSpacing: 0.5
BeatDivisor: 6
GridSize: 32
TimelineZoom: 1.7

[Metadata]
Title:Siu Lei Aa Baa
TitleUnicode:少理阿爸
Artist:Wan Kwong
ArtistUnicode:尹光
Creator:_mtk
Version:Disrespectful Son
Source:
Tags:呂明光 jackson lu minh quang ignoring father 粵語 廣東話 cantonese techno electronic rap novelty chinese 中文
BeatmapID:4367853
BeatmapSetID:2085082

[Difficulty]
HPDrainRate:6
CircleSize:5
OverallDifficulty:6
ApproachRate:5
SliderMultiplier:1.4
SliderTickRate:1

[Events]
//Background and Video events
0,0,"idk.jpg",0,85
//Break Periods
//Storyboard Layer 0 (Background)
//Storyboard Layer 1 (Fail)
//Storyboard Layer 2 (Pass)
//Storyboard Layer 3 (Foreground)
//Storyboard Layer 4 (Overlay)
//Storyboard Sound Samples

[TimingPoints]
40,447.761194029851,4,1,0,85,1,0
60935,-100,4,1,0,85,0,1
75263,-100,4,1,0,85,0,0
118248,-100,4,1,0,85,0,1
132577,-100,4,1,0,85,0,0
172875,-125,4,1,0,85,0,0
173659,-142.857142857143,4,1,0,85,0,0
173883,-160,4,1,0,85,0,0
175450,-166.666666666667,4,1,0,85,0,0
175898,-142.857142857143,4,1,0,85,0,0
176345,-125,4,1,0,85,0,0
176793,-111.111111111111,4,1,0,85,0,0
177241,-100,4,1,0,85,0,0
179144,-100,4,1,0,85,0,1
186644,-89.6860986547085,4,1,0,85,0,1
187092,-80,4,1,0,85,0,1
187540,-72.7272727272727,4,1,0,85,0,1
187987,-66.6666666666667,4,1,0,85,0,1
188435,-61.5384615384615,4,1,0,85,0,1
188883,-57.1428571428571,4,1,0,85,0,1
189331,-53.3333333333333,4,1,0,85,0,1
189778,-50,4,1,0,85,0,1
190226,-50,4,1,0,85,0,1
193472,-100,4,1,0,85,0,0
207801,-100,4,1,0,85,0,1
222129,-100,4,1,0,85,0,0

[HitObjects]
256,192,7204,5,8,0:0:0:0:
256,192,7875,1,8,0:0:0:0:
256,192,8099,1,8,0:0:0:0:
256,192,8995,1,8,0:0:0:0:
256,192,9666,1,8,0:0:0:0:
256,192,9890,1,8,0:0:0:0:
224,192,10338,1,8,0:0:0:0:
256,192,10786,1,8,0:0:0:0:
256,192,11457,1,8,0:0:0:0:
256,192,11681,1,8,0:0:0:0:
256,192,12577,1,8,0:0:0:0:
256,192,13248,1,8,0:0:0:0:
256,192,13472,1,8,0:0:0:0:
256,192,13920,1,8,0:0:0:0:
256,192,14368,1,0,0:0:0:0:
256,160,15040,1,8,0:0:0:0:
256,192,15263,1,8,0:0:0:0:
256,192,16159,1,0,0:0:0:0:
256,192,16831,1,8,0:0:0:0:
256,192,17054,1,8,0:0:0:0:
256,160,17502,1,8,0:0:0:0:
256,192,17950,1,0,0:0:0:0:
256,192,18622,1,8,0:0:0:0:
256,192,18845,1,8,0:0:0:0:
256,192,19741,1,0,0:0:0:0:
256,192,20413,1,8,0:0:0:0:
256,192,20637,1,8,0:0:0:0:
256,192,21084,1,8,0:0:0:0:
256,192,21308,1,8,0:0:0:0:
256,192,21532,1,0,0:0:0:0:
256,192,21980,1,8,0:0:0:0:
256,192,22204,1,0,0:0:0:0:
256,192,22428,1,0,0:0:0:0:
256,192,22651,1,8,0:0:0:0:
256,192,23323,1,0,0:0:0:0:
256,192,23771,1,8,0:0:0:0:
256,192,23995,1,0,0:0:0:0:
256,192,24219,1,0,0:0:0:0:
256,192,24442,1,8,0:0:0:0:
256,192,25114,1,0,0:0:0:0:
256,192,25562,1,8,0:0:0:0:
256,192,25786,1,0,0:0:0:0:
256,192,26010,1,0,0:0:0:0:
256,192,26234,1,8,0:0:0:0:
256,192,26905,1,0,0:0:0:0:
256,192,27353,1,8,0:0:0:0:
256,192,27577,1,0,0:0:0:0:
256,192,27801,1,0,0:0:0:0:
256,192,28025,1,0,0:0:0:0:
256,192,28248,1,8,0:0:0:0:
224,192,28696,1,0,0:0:0:0:
256,192,28920,1,8,0:0:0:0:
256,192,29032,1,8,0:0:0:0:
256,192,29144,1,0,0:0:0:0:
256,192,29368,1,8,0:0:0:0:
256,192,29592,1,8,0:0:0:0:
256,192,29816,1,0,0:0:0:0:
224,192,30040,1,0,0:0:0:0:
224,192,30151,1,8,0:0:0:0:
224,192,30263,1,8,0:0:0:0:
256,192,30487,1,0,0:0:0:0:
256,192,30711,1,8,0:0:0:0:
256,192,30823,1,8,0:0:0:0:
224,192,30935,1,0,0:0:0:0:
224,192,31159,1,8,0:0:0:0:
224,192,31383,1,8,0:0:0:0:
224,192,31607,1,0,0:0:0:0:
224,192,31831,1,8,0:0:0:0:
256,192,31942,1,8,0:0:0:0:
224,192,32054,1,0,0:0:0:0:
256,192,32278,1,0,0:0:0:0:
224,192,32502,1,8,0:0:0:0:
224,192,32614,1,8,0:0:0:0:
224,192,32726,1,0,0:0:0:0:
224,192,32950,1,8,0:0:0:0:
224,192,33174,1,8,0:0:0:0:
224,192,33398,1,0,0:0:0:0:
224,192,33622,1,0,0:0:0:0:
224,192,33734,1,8,0:0:0:0:
224,192,33845,1,8,0:0:0:0:
224,192,34069,1,0,0:0:0:0:
224,192,34293,1,8,0:0:0:0:
224,192,34405,1,8,0:0:0:0:
224,192,34517,1,0,0:0:0:0:
224,192,34741,1,8,0:0:0:0:
224,192,34965,1,8,0:0:0:0:
224,192,35189,1,0,0:0:0:0:
224,192,35413,1,8,0:0:0:0:
224,192,35525,1,8,0:0:0:0:
224,192,35637,1,0,0:0:0:0:
224,192,35748,1,8,0:0:0:0:
224,192,35860,1,0,0:0:0:0:
224,192,36084,1,8,0:0:0:0:
224,192,36196,1,8,0:0:0:0:
224,192,36308,1,0,0:0:0:0:
224,192,36532,1,8,0:0:0:0:
224,192,36756,1,8,0:0:0:0:
224,192,36980,1,0,0:0:0:0:
224,192,37204,1,0,0:0:0:0:
192,192,37316,1,8,0:0:0:0:
192,192,37428,1,8,0:0:0:0:
192,192,37651,1,0,0:0:0:0:
192,192,37875,1,8,0:0:0:0:
192,192,37987,1,8,0:0:0:0:
192,192,38099,1,0,0:0:0:0:
192,192,38323,1,8,0:0:0:0:
192,192,38547,1,8,0:0:0:0:
192,192,38771,1,0,0:0:0:0:
192,192,38995,1,8,0:0:0:0:
192,192,39107,1,8,0:0:0:0:
192,192,39219,1,0,0:0:0:0:
192,192,39442,1,12,0:0:0:0:
192,192,39666,1,8,0:0:0:0:
192,192,40114,1,8,0:0:0:0:
192,192,40338,1,8,0:0:0:0:
192,192,41234,1,8,0:0:0:0:
192,192,41569,1,0,0:0:0:0:
192,192,41681,1,0,0:0:0:0:
192,160,41905,1,8,0:0:0:0:
192,160,42017,1,8,0:0:0:0:
192,192,42129,1,8,0:0:0:0:
192,160,42465,1,0,0:0:0:0:
192,160,42577,1,0,0:0:0:0:
192,160,42801,1,0,0:0:0:0:
192,160,43025,1,12,0:0:0:0:
192,160,43248,1,8,0:0:0:0:
192,160,43696,1,8,0:0:0:0:
192,160,43920,1,8,0:0:0:0:
192,160,44816,1,8,0:0:0:0:
192,160,45151,1,0,0:0:0:0:
192,160,45263,1,0,0:0:0:0:
192,160,45487,1,8,0:0:0:0:
192,160,45599,1,8,0:0:0:0:
192,160,45711,1,8,0:0:0:0:
192,160,46047,1,0,0:0:0:0:
192,160,46159,1,0,0:0:0:0:
192,160,46383,1,8,0:0:0:0:
192,160,46607,1,4,0:0:0:0:
192,160,46831,1,8,0:0:0:0:
256,160,46942,1,8,0:0:0:0:
256,160,47054,1,0,0:0:0:0:
224,160,47278,1,8,0:0:0:0:
256,160,47502,1,0,0:0:0:0:
256,224,47614,1,8,0:0:0:0:
224,160,47838,1,8,0:0:0:0:
256,160,47950,1,0,0:0:0:0:
256,160,48174,1,8,0:0:0:0:
256,160,48398,1,0,0:0:0:0:
256,224,48622,1,8,0:0:0:0:
224,160,48734,1,8,0:0:0:0:
224,160,48845,1,0,0:0:0:0:
256,160,49069,1,8,0:0:0:0:
256,160,49293,1,0,0:0:0:0:
224,192,49629,1,8,0:0:0:0:
256,160,49741,1,0,0:0:0:0:
256,160,49965,1,8,0:0:0:0:
256,160,50189,1,0,0:0:0:0:
256,192,50525,1,8,0:0:0:0:
256,192,50637,1,0,0:0:0:0:
288,192,50860,1,8,0:0:0:0:
288,192,51084,1,0,0:0:0:0:
256,224,51308,1,8,0:0:0:0:
320,224,51420,1,8,0:0:0:0:
320,224,51532,1,0,0:0:0:0:
320,224,51756,1,8,0:0:0:0:
320,224,51980,1,0,0:0:0:0:
247,221,52204,1,0,0:0:0:0:
288,224,52316,1,8,0:0:0:0:
288,224,52428,1,0,0:0:0:0:
288,224,52651,1,8,0:0:0:0:
288,192,52875,1,0,0:0:0:0:
256,224,52987,1,0,0:0:0:0:
256,224,53211,1,8,0:0:0:0:
288,224,53323,1,0,0:0:0:0:
256,224,53547,1,8,0:0:0:0:
256,224,53771,1,0,0:0:0:0:
256,224,53995,1,8,0:0:0:0:
256,224,54107,1,8,0:0:0:0:
256,224,54219,1,0,0:0:0:0:
256,224,54442,1,8,0:0:0:0:
256,192,54666,1,0,0:0:0:0:
256,224,54778,1,8,0:0:0:0:
256,224,55002,1,8,0:0:0:0:
256,224,55114,1,0,0:0:0:0:
256,224,55338,1,8,0:0:0:0:
256,224,55562,1,0,0:0:0:0:
249,221,55786,1,8,0:0:0:0:
256,224,55898,1,8,0:0:0:0:
256,224,56010,1,0,0:0:0:0:
288,224,56234,1,8,0:0:0:0:
288,224,56457,1,0,0:0:0:0:
256,224,56793,1,8,0:0:0:0:
288,224,56905,1,0,0:0:0:0:
288,224,57129,1,8,0:0:0:0:
288,224,57353,1,0,0:0:0:0:
288,224,57689,1,8,0:0:0:0:
288,224,57801,1,0,0:0:0:0:
256,224,58025,1,8,0:0:0:0:
256,224,58248,1,0,0:0:0:0:
256,224,58472,1,8,0:0:0:0:
256,192,58584,1,8,0:0:0:0:
256,224,58696,1,0,0:0:0:0:
256,224,58920,1,8,0:0:0:0:
256,224,59144,1,0,0:0:0:0:
288,192,59368,1,0,0:0:0:0:
256,224,59480,1,8,0:0:0:0:
256,192,59592,1,0,0:0:0:0:
224,192,59816,1,8,0:0:0:0:
224,192,60040,1,0,0:0:0:0:
192,192,60375,1,0,0:0:0:0:
192,192,60487,1,0,0:0:0:0:
192,192,60711,1,8,0:0:0:0:
192,192,60935,1,4,0:0:0:0:
192,192,61383,1,4,0:0:0:0:
192,192,61831,1,4,0:0:0:0:
224,192,62054,1,8,0:0:0:0:
192,192,62166,1,8,0:0:0:0:
192,192,62278,1,0,0:0:0:0:
192,192,62502,1,8,0:0:0:0:
192,192,62726,1,0,0:0:0:0:
192,192,62950,1,8,0:0:0:0:
192,192,63062,1,8,0:0:0:0:
192,192,63174,1,0,0:0:0:0:
192,192,63398,1,8,0:0:0:0:
192,192,63622,1,0,0:0:0:0:
160,192,63734,1,8,0:0:0:0:
160,192,63957,1,8,0:0:0:0:
160,192,64069,1,0,0:0:0:0:
160,192,64293,1,8,0:0:0:0:
160,192,64517,1,4,0:0:0:0:
160,192,64965,1,4,0:0:0:0:
160,192,65413,1,4,0:0:0:0:
192,192,65637,1,8,0:0:0:0:
192,224,65748,1,8,0:0:0:0:
192,224,65860,1,0,0:0:0:0:
192,224,66084,1,8,0:0:0:0:
192,224,66308,1,0,0:0:0:0:
192,224,66532,1,0,0:0:0:0:
192,224,66644,1,8,0:0:0:0:
192,224,66756,1,0,0:0:0:0:
192,224,66980,1,8,0:0:0:0:
160,192,67204,1,8,0:0:0:0:
160,192,67316,1,8,0:0:0:0:
256,160,67540,1,8,0:0:0:0:
256,192,67651,1,0,0:0:0:0:
160,224,67875,1,8,0:0:0:0:
128,224,68099,1,4,0:0:0:0:
128,224,68547,1,4,0:0:0:0:
128,224,68995,1,4,0:0:0:0:
256,192,69219,1,8,0:0:0:0:
96,224,69331,1,8,0:0:0:0:
256,192,69442,1,0,0:0:0:0:
256,192,69666,1,8,0:0:0:0:
192,224,69890,1,0,0:0:0:0:
224,224,70114,1,8,0:0:0:0:
224,224,70226,1,8,0:0:0:0:
224,224,70338,1,0,0:0:0:0:
224,224,70562,1,8,0:0:0:0:
224,224,70786,1,0,0:0:0:0:
224,224,70898,1,8,0:0:0:0:
224,224,71122,1,8,0:0:0:0:
224,224,71234,1,0,0:0:0:0:
224,224,71457,1,8,0:0:0:0:
224,224,71681,1,4,0:0:0:0:
224,224,72129,1,4,0:0:0:0:
224,224,72577,1,4,0:0:0:0:
256,192,72801,1,8,0:0:0:0:
224,224,72913,1,8,0:0:0:0:
224,224,73025,1,0,0:0:0:0:
224,224,73248,1,8,0:0:0:0:
192,224,73472,1,0,0:0:0:0:
192,224,73696,1,8,0:0:0:0:
192,224,73808,1,8,0:0:0:0:
192,224,73920,1,0,0:0:0:0:
192,224,74144,1,8,0:0:0:0:
256,192,74368,1,0,0:0:0:0:
256,192,74480,1,0,0:0:0:0:
192,224,74704,1,8,0:0:0:0:
256,192,74816,1,0,0:0:0:0:
224,256,75040,1,8,0:0:0:0:
192,224,75263,1,4,0:0:0:0:
160,224,75487,1,0,0:0:0:0:
160,224,75711,1,8,0:0:0:0:
160,224,75935,1,8,0:0:0:0:
160,224,76159,1,0,0:0:0:0:
160,224,76383,1,8,0:0:0:0:
192,224,76607,1,0,0:0:0:0:
192,224,76831,1,0,0:0:0:0:
192,224,77054,1,8,0:0:0:0:
192,192,77278,1,0,0:0:0:0:
192,224,77502,1,0,0:0:0:0:
192,192,77726,1,8,0:0:0:0:
192,192,77950,1,8,0:0:0:0:
192,192,78622,1,0,0:0:0:0:
192,192,78845,1,0,0:0:0:0:
192,192,79069,1,0,0:0:0:0:
256,192,79293,1,8,0:0:0:0:
224,192,79517,1,8,0:0:0:0:
224,192,79629,1,8,0:0:0:0:
224,192,79741,1,0,0:0:0:0:
224,192,79965,1,0,0:0:0:0:
224,192,80189,1,8,0:0:0:0:
192,192,80413,1,0,0:0:0:0:
192,192,80525,1,0,0:0:0:0:
192,192,80637,1,8,0:0:0:0:
192,192,80860,1,0,0:0:0:0:
192,192,81084,1,8,0:0:0:0:
192,192,81532,1,0,0:0:0:0:
192,192,81868,1,8,0:0:0:0:
192,192,81980,1,0,0:0:0:0:
192,192,82204,1,8,0:0:0:0:
192,192,82428,1,0,0:0:0:0:
192,192,82651,1,0,0:0:0:0:
192,192,82875,1,8,0:0:0:0:
192,192,83099,1,8,0:0:0:0:
192,192,83323,1,0,0:0:0:0:
160,160,83659,1,0,0:0:0:0:
192,192,83771,1,8,0:0:0:0:
192,192,83995,1,8,0:0:0:0:
160,192,84219,1,0,0:0:0:0:
192,192,84442,1,8,0:0:0:0:
192,192,84666,1,0,0:0:0:0:
192,192,84890,1,8,0:0:0:0:
160,192,85114,1,0,0:0:0:0:
160,192,85562,1,0,0:0:0:0:
160,192,85786,1,0,0:0:0:0:
160,192,86010,1,8,0:0:0:0:
160,192,86234,1,8,0:0:0:0:
160,192,86457,1,0,0:0:0:0:
160,192,86681,1,0,0:0:0:0:
160,192,86905,1,8,0:0:0:0:
160,192,87129,1,0,0:0:0:0:
160,192,87353,1,8,0:0:0:0:
160,192,87577,1,8,0:0:0:0:
160,192,87801,1,0,0:0:0:0:
160,192,88025,1,8,0:0:0:0:
160,192,88248,1,0,0:0:0:0:
160,192,88696,1,8,0:0:0:0:
160,192,89368,1,0,0:0:0:0:
160,192,89592,1,8,0:0:0:0:
160,192,89816,1,8,0:0:0:0:
160,192,90040,1,0,0:0:0:0:
160,192,90263,1,0,0:0:0:0:
160,192,90487,1,8,0:0:0:0:
160,192,90935,1,0,0:0:0:0:
160,192,91159,1,0,0:0:0:0:
160,192,91383,1,8,0:0:0:0:
160,192,91607,1,0,0:0:0:0:
160,192,91831,1,8,0:0:0:0:
160,192,92054,1,8,0:0:0:0:
160,192,92278,1,0,0:0:0:0:
224,192,92726,1,4,0:0:0:0:
224,192,93174,1,4,0:0:0:0:
256,192,93622,1,12,0:0:0:0:
256,192,94069,1,12,0:0:0:0:
224,192,94517,1,0,0:0:0:0:
224,192,94741,1,0,0:0:0:0:
256,192,94965,1,8,0:0:0:0:
256,192,95189,1,0,0:0:0:0:
224,192,95413,1,8,0:0:0:0:
224,192,95637,1,8,0:0:0:0:
224,192,95860,1,0,0:0:0:0:
224,192,96532,1,8,0:0:0:0:
224,192,96756,1,0,0:0:0:0:
224,192,96980,1,0,0:0:0:0:
224,192,97204,1,8,0:0:0:0:
224,192,97428,1,0,0:0:0:0:
224,192,97651,1,8,0:0:0:0:
224,192,98099,1,0,0:0:0:0:
224,192,98323,1,8,0:0:0:0:
256,192,98435,1,8,0:0:0:0:
256,192,98547,1,0,0:0:0:0:
256,192,98771,1,0,0:0:0:0:
256,192,98995,1,8,0:0:0:0:
256,192,99219,1,0,0:0:0:0:
256,192,99442,1,8,0:0:0:0:
256,192,99890,1,0,0:0:0:0:
256,192,100114,1,0,0:0:0:0:
256,192,100338,1,8,0:0:0:0:
256,192,100562,1,8,0:0:0:0:
256,192,100786,1,0,0:0:0:0:
256,192,101010,1,8,0:0:0:0:
256,192,101234,1,0,0:0:0:0:
256,192,101457,1,0,0:0:0:0:
256,192,101681,1,8,0:0:0:0:
256,192,101905,1,8,0:0:0:0:
256,192,102129,1,0,0:0:0:0:
256,192,102353,1,8,0:0:0:0:
256,192,102577,1,0,0:0:0:0:
256,192,102801,1,0,0:0:0:0:
256,192,103025,1,8,0:0:0:0:
256,192,103696,1,8,0:0:0:0:
256,192,103920,1,0,0:0:0:0:
256,192,104144,1,0,0:0:0:0:
256,192,104368,1,8,0:0:0:0:
256,192,104592,1,8,0:0:0:0:
224,192,104816,1,0,0:0:0:0:
224,192,105263,1,0,0:0:0:0:
256,192,105487,1,0,0:0:0:0:
256,192,105711,1,8,0:0:0:0:
256,192,105935,1,8,0:0:0:0:
256,192,106047,1,8,0:0:0:0:
224,192,106159,1,0,0:0:0:0:
224,192,106383,1,0,0:0:0:0:
224,192,106607,1,8,0:0:0:0:
224,192,107054,1,8,0:0:0:0:
224,192,107278,1,0,0:0:0:0:
224,192,107502,1,8,0:0:0:0:
224,192,107726,1,0,0:0:0:0:
224,192,107950,1,0,0:0:0:0:
224,192,108174,1,8,0:0:0:0:
224,192,108398,1,8,0:0:0:0:
224,192,108622,1,0,0:0:0:0:
224,192,108845,1,0,0:0:0:0:
224,192,109069,1,8,0:0:0:0:
224,192,109293,1,8,0:0:0:0:
224,192,109517,1,0,0:0:0:0:
224,192,109741,1,0,0:0:0:0:
224,160,110189,1,8,0:0:0:0:
224,160,110860,1,0,0:0:0:0:
224,160,111084,1,8,0:0:0:0:
224,160,111308,1,0,0:0:0:0:
224,160,111532,1,8,0:0:0:0:
224,160,111980,1,0,0:0:0:0:
224,160,112428,1,8,0:0:0:0:
224,160,112651,1,8,0:0:0:0:
224,160,112875,1,0,0:0:0:0:
224,160,113099,1,8,0:0:0:0:
192,160,113323,1,0,0:0:0:0:
192,160,113547,1,0,0:0:0:0:
224,160,113771,1,8,0:0:0:0:
224,160,114442,1,8,0:0:0:0:
224,160,114666,1,0,0:0:0:0:
224,160,114890,1,0,0:0:0:0:
224,160,115114,1,8,0:0:0:0:
224,160,115562,1,0,0:0:0:0:
224,160,116010,1,8,0:0:0:0:
224,160,116234,1,8,0:0:0:0:
224,160,116457,1,0,0:0:0:0:
224,160,116681,1,0,0:0:0:0:
224,160,116905,1,8,0:0:0:0:
224,160,117129,1,8,0:0:0:0:
224,160,117353,1,8,0:0:0:0:
256,160,117689,1,8,0:0:0:0:
224,160,117801,1,0,0:0:0:0:
224,160,117913,1,0,0:0:0:0:
224,160,118025,1,8,0:0:0:0:
224,160,118248,1,4,0:0:0:0:
224,160,118696,1,4,0:0:0:0:
224,160,119144,1,4,0:0:0:0:
224,192,119368,1,8,0:0:0:0:
192,192,119480,1,8,0:0:0:0:
192,192,119592,1,0,0:0:0:0:
224,192,119704,1,0,0:0:0:0:
192,192,119816,1,8,0:0:0:0:
192,192,120040,1,0,0:0:0:0:
192,192,120263,1,8,0:0:0:0:
192,192,120375,1,8,0:0:0:0:
192,192,120487,1,0,0:0:0:0:
192,192,120711,1,8,0:0:0:0:
192,192,120935,1,0,0:0:0:0:
160,192,121047,1,8,0:0:0:0:
160,192,121271,1,8,0:0:0:0:
160,192,121383,1,0,0:0:0:0:
224,192,121495,1,0,0:0:0:0:
160,192,121607,1,8,0:0:0:0:
160,192,121831,1,4,0:0:0:0:
160,192,122278,1,4,0:0:0:0:
160,192,122726,1,4,0:0:0:0:
192,192,122950,1,8,0:0:0:0:
192,224,123062,1,8,0:0:0:0:
192,224,123174,1,0,0:0:0:0:
192,224,123398,1,8,0:0:0:0:
192,224,123622,1,0,0:0:0:0:
192,224,123845,1,0,0:0:0:0:
192,224,123957,1,8,0:0:0:0:
192,224,124069,1,0,0:0:0:0:
192,224,124293,1,8,0:0:0:0:
160,192,124517,1,8,0:0:0:0:
160,192,124629,1,8,0:0:0:0:
256,160,124853,1,8,0:0:0:0:
256,192,124965,1,8,0:0:0:0:
160,160,125077,1,0,0:0:0:0:
160,224,125189,1,8,0:0:0:0:
128,224,125413,1,4,0:0:0:0:
128,224,125860,1,4,0:0:0:0:
128,224,126308,1,4,0:0:0:0:
256,192,126532,1,8,0:0:0:0:
96,224,126644,1,8,0:0:0:0:
256,192,126756,1,0,0:0:0:0:
256,192,126868,1,0,0:0:0:0:
256,192,126980,1,8,0:0:0:0:
192,224,127204,1,0,0:0:0:0:
224,224,127428,1,8,0:0:0:0:
224,224,127540,1,8,0:0:0:0:
224,224,127651,1,0,0:0:0:0:
224,224,127875,1,8,0:0:0:0:
224,224,128099,1,0,0:0:0:0:
224,224,128211,1,8,0:0:0:0:
224,224,128435,1,8,0:0:0:0:
224,224,128547,1,0,0:0:0:0:
256,192,128659,1,0,0:0:0:0:
224,224,128771,1,8,0:0:0:0:
224,224,128995,1,4,0:0:0:0:
224,224,129442,1,4,0:0:0:0:
224,224,129890,1,4,0:0:0:0:
256,192,130114,1,8,0:0:0:0:
224,224,130226,1,8,0:0:0:0:
224,224,130338,1,0,0:0:0:0:
192,224,130450,1,0,0:0:0:0:
224,224,130562,1,8,0:0:0:0:
192,224,130786,1,0,0:0:0:0:
192,224,131010,1,8,0:0:0:0:
192,224,131122,1,8,0:0:0:0:
192,224,131234,1,0,0:0:0:0:
192,224,131457,1,8,0:0:0:0:
256,192,131681,1,0,0:0:0:0:
192,224,131793,1,0,0:0:0:0:
192,224,132017,1,8,0:0:0:0:
256,192,132129,1,8,0:0:0:0:
256,192,132241,1,0,0:0:0:0:
192,224,132353,1,8,0:0:0:0:
256,192,132577,1,4,0:0:0:0:
226,224,132801,1,8,0:0:0:0:
256,160,132913,1,8,0:0:0:0:
256,160,133025,1,0,0:0:0:0:
224,160,133248,1,8,0:0:0:0:
256,160,133472,1,0,0:0:0:0:
288,192,133584,1,8,0:0:0:0:
224,160,133808,1,8,0:0:0:0:
256,160,133920,1,0,0:0:0:0:
256,160,134144,1,8,0:0:0:0:
256,160,134368,1,0,0:0:0:0:
256,224,134592,1,8,0:0:0:0:
224,160,134704,1,8,0:0:0:0:
224,160,134816,1,0,0:0:0:0:
256,160,135040,1,8,0:0:0:0:
256,160,135263,1,0,0:0:0:0:
256,192,135487,1,8,0:0:0:0:
256,192,135599,1,8,0:0:0:0:
224,160,135711,1,0,0:0:0:0:
224,160,135823,1,0,0:0:0:0:
256,160,135935,1,8,0:0:0:0:
256,160,136159,1,0,0:0:0:0:
224,192,136383,1,8,0:0:0:0:
256,192,136495,1,8,0:0:0:0:
256,192,136607,1,0,0:0:0:0:
288,192,136831,1,8,0:0:0:0:
288,192,137054,1,0,0:0:0:0:
282,191,137278,1,0,0:0:0:0:
320,224,137390,1,8,0:0:0:0:
320,224,137502,1,0,0:0:0:0:
320,224,137726,1,8,0:0:0:0:
288,224,137950,1,0,0:0:0:0:
288,224,138062,1,0,0:0:0:0:
288,224,138174,1,8,0:0:0:0:
288,224,138286,1,8,0:0:0:0:
288,224,138398,1,0,0:0:0:0:
288,224,138622,1,8,0:0:0:0:
288,192,138845,1,0,0:0:0:0:
288,224,139181,1,0,0:0:0:0:
288,224,139293,1,0,0:0:0:0:
256,224,139517,1,8,0:0:0:0:
256,224,139741,1,0,0:0:0:0:
256,224,139965,1,8,0:0:0:0:
256,224,140077,1,8,0:0:0:0:
256,224,140189,1,0,0:0:0:0:
256,224,140413,1,8,0:0:0:0:
256,192,140637,1,0,0:0:0:0:
320,192,140748,1,8,0:0:0:0:
256,224,140972,1,8,0:0:0:0:
256,224,141084,1,0,0:0:0:0:
256,224,141308,1,8,0:0:0:0:
256,224,141532,1,0,0:0:0:0:
251,221,141756,1,8,0:0:0:0:
256,224,141868,1,8,0:0:0:0:
256,224,141980,1,0,0:0:0:0:
288,224,142204,1,8,0:0:0:0:
288,224,142428,1,0,0:0:0:0:
320,224,142651,1,8,0:0:0:0:
320,192,142763,1,8,0:0:0:0:
288,224,142875,1,0,0:0:0:0:
256,192,142987,1,0,0:0:0:0:
288,224,143099,1,8,0:0:0:0:
288,224,143323,1,0,0:0:0:0:
256,192,143547,1,8,0:0:0:0:
288,224,143659,1,8,0:0:0:0:
288,224,143771,1,0,0:0:0:0:
256,224,143883,1,8,0:0:0:0:
288,192,144107,1,8,0:0:0:0:
256,224,144219,1,0,0:0:0:0:
256,224,144442,1,8,0:0:0:0:
256,224,144554,1,8,0:0:0:0:
256,224,144666,1,0,0:0:0:0:
256,224,144890,1,8,0:0:0:0:
256,224,145114,1,0,0:0:0:0:
288,192,145338,1,0,0:0:0:0:
256,224,145450,1,8,0:0:0:0:
256,192,145562,1,0,0:0:0:0:
224,192,145786,1,8,0:0:0:0:
224,192,146010,1,0,0:0:0:0:
192,192,146345,1,0,0:0:0:0:
192,192,146457,1,0,0:0:0:0:
192,192,146681,1,0,0:0:0:0:
192,192,146905,1,12,0:0:0:0:
192,192,147129,1,0,0:0:0:0:
192,192,147353,1,8,0:0:0:0:
192,192,147801,1,8,0:0:0:0:
224,160,148248,1,8,0:0:0:0:
224,160,148472,1,8,0:0:0:0:
192,160,148696,1,0,0:0:0:0:
192,160,148920,1,8,0:0:0:0:
224,160,149144,1,0,0:0:0:0:
224,160,149368,1,0,0:0:0:0:
224,160,149592,1,8,0:0:0:0:
224,160,150040,1,8,0:0:0:0:
224,160,150263,1,8,0:0:0:0:
224,160,150487,1,0,0:0:0:0:
256,192,150711,1,0,0:0:0:0:
256,192,150935,1,8,0:0:0:0:
256,160,151159,1,0,0:0:0:0:
256,160,151383,1,0,0:0:0:0:
256,160,151607,1,8,0:0:0:0:
256,160,151831,1,0,0:0:0:0:
256,160,152054,1,8,0:0:0:0:
256,160,152278,1,8,0:0:0:0:
256,160,152502,1,0,0:0:0:0:
256,160,152726,1,0,0:0:0:0:
256,160,152950,1,8,0:0:0:0:
256,160,153174,1,0,0:0:0:0:
256,160,153398,1,8,0:0:0:0:
256,160,153734,1,0,0:0:0:0:
256,160,153845,1,8,0:0:0:0:
256,160,154069,1,0,0:0:0:0:
256,160,154293,1,8,0:0:0:0:
256,160,154517,1,0,0:0:0:0:
256,160,154741,1,8,0:0:0:0:
256,160,154965,1,8,0:0:0:0:
256,160,155338,1,8,0:0:0:0:
288,160,155860,1,0,0:0:0:0:
288,160,156084,1,8,0:0:0:0:
288,160,156308,1,0,0:0:0:0:
288,160,156532,1,8,0:0:0:0:
288,160,156756,1,8,0:0:0:0:
288,128,157204,1,0,0:0:0:0:
288,128,157428,1,0,0:0:0:0:
288,128,157651,1,8,0:0:0:0:
288,128,157875,1,8,0:0:0:0:
288,128,158099,1,0,0:0:0:0:
288,128,158323,1,8,0:0:0:0:
288,128,158547,1,8,0:0:0:0:
288,128,158771,1,0,0:0:0:0:
288,128,158995,1,0,0:0:0:0:
288,128,159219,1,8,0:0:0:0:
288,128,159442,1,8,0:0:0:0:
288,128,159890,1,0,0:0:0:0:
256,128,160338,1,8,0:0:0:0:
256,128,161010,1,0,0:0:0:0:
256,128,161234,1,8,0:0:0:0:
256,128,161457,1,0,0:0:0:0:
256,128,161681,1,8,0:0:0:0:
256,128,161905,1,8,0:0:0:0:
256,128,162129,1,0,0:0:0:0:
256,128,162353,1,0,0:0:0:0:
256,128,162577,1,8,0:0:0:0:
256,128,162801,1,8,0:0:0:0:
256,128,163025,1,0,0:0:0:0:
256,128,163248,1,8,0:0:0:0:
256,128,163472,1,0,0:0:0:0:
256,128,163696,1,0,0:0:0:0:
256,128,163920,1,8,0:0:0:0:
256,128,164368,1,8,0:0:0:0:
256,128,164592,1,0,0:0:0:0:
256,128,164816,1,8,0:0:0:0:
256,128,165040,1,0,0:0:0:0:
256,128,165263,1,0,0:0:0:0:
256,128,165487,1,8,0:0:0:0:
256,128,165711,1,8,0:0:0:0:
256,128,165935,1,0,0:0:0:0:
256,128,166159,1,0,0:0:0:0:
256,128,166383,1,8,0:0:0:0:
256,128,166607,1,8,0:0:0:0:
256,128,166831,1,0,0:0:0:0:
256,128,167054,1,0,0:0:0:0:
256,128,167502,1,8,0:0:0:0:
224,128,168174,1,0,0:0:0:0:
256,160,168398,1,8,0:0:0:0:
256,160,168622,1,8,0:0:0:0:
256,128,168845,1,0,0:0:0:0:
256,128,169069,1,0,0:0:0:0:
256,128,169293,1,8,0:0:0:0:
256,128,169741,1,8,0:0:0:0:
256,160,169965,1,0,0:0:0:0:
288,160,170189,1,0,0:0:0:0:
288,160,170413,1,8,0:0:0:0:
288,160,170637,1,0,0:0:0:0:
288,160,170860,1,8,0:0:0:0:
288,160,171084,1,8,0:0:0:0:
288,160,171532,1,0,0:0:0:0:
288,160,171756,1,8,0:0:0:0:
288,160,171980,1,4,0:0:0:0:
288,160,172950,1,4,0:0:0:0:
288,160,173771,1,4,0:0:0:0:
256,192,173995,12,0,175114,0:0:0:0:
256,192,175562,5,0,0:0:0:0:
256,192,176010,1,0,0:0:0:0:
256,192,176457,1,0,0:0:0:0:
256,192,176905,1,0,0:0:0:0:
256,192,177353,1,0,0:0:0:0:
256,192,177577,1,0,0:0:0:0:
256,192,177801,1,0,0:0:0:0:
256,192,178025,1,0,0:0:0:0:
256,192,178248,1,0,0:0:0:0:
256,192,178360,1,0,0:0:0:0:
256,192,178472,1,0,0:0:0:0:
320,224,178696,1,0,0:0:0:0:
288,224,178771,1,0,0:0:0:0:
288,224,178845,1,0,0:0:0:0:
320,256,178920,1,0,0:0:0:0:
256,192,179144,1,4,0:0:0:0:
288,192,179368,1,8,0:0:0:0:
288,192,179480,1,8,0:0:0:0:
288,224,179592,1,0,0:0:0:0:
256,192,179704,1,8,0:0:0:0:
256,192,179816,1,0,0:0:0:0:
288,224,180040,1,0,0:0:0:0:
288,224,180263,1,8,0:0:0:0:
288,224,180375,1,8,0:0:0:0:
288,224,180487,1,0,0:0:0:0:
288,192,180599,1,0,0:0:0:0:
288,224,180711,1,8,0:0:0:0:
288,224,180935,1,0,0:0:0:0:
288,224,181159,1,8,0:0:0:0:
320,224,181271,1,8,0:0:0:0:
288,224,181383,1,0,0:0:0:0:
256,192,181495,1,0,0:0:0:0:
288,192,181607,1,0,0:0:0:0:
288,224,181831,1,0,0:0:0:0:
288,224,182054,1,8,0:0:0:0:
288,224,182166,1,8,0:0:0:0:
288,192,182278,1,0,0:0:0:0:
288,192,182390,1,8,0:0:0:0:
288,192,182502,1,8,0:0:0:0:
288,192,182726,1,0,0:0:0:0:
288,192,182950,1,8,0:0:0:0:
288,192,183062,1,8,0:0:0:0:
288,192,183174,1,0,0:0:0:0:
256,192,183286,1,8,0:0:0:0:
288,192,183398,1,0,0:0:0:0:
288,192,183622,1,0,0:0:0:0:
288,192,183845,1,8,0:0:0:0:
288,192,183957,1,8,0:0:0:0:
288,192,184069,1,0,0:0:0:0:
288,192,184181,1,0,0:0:0:0:
288,192,184293,1,8,0:0:0:0:
288,192,184517,1,0,0:0:0:0:
288,192,184741,1,8,0:0:0:0:
288,192,184853,1,8,0:0:0:0:
288,192,184965,1,0,0:0:0:0:
256,192,185077,1,0,0:0:0:0:
288,192,185189,1,0,0:0:0:0:
288,192,185413,1,0,0:0:0:0:
288,192,185637,1,8,0:0:0:0:
288,192,185748,1,8,0:0:0:0:
288,224,185860,1,0,0:0:0:0:
288,160,185972,1,8,0:0:0:0:
288,160,186084,1,8,0:0:0:0:
288,192,186308,1,4,0:0:0:0:
256,192,186756,1,12,0:0:0:0:
288,192,187204,1,4,0:0:0:0:
256,192,187651,1,12,0:0:0:0:
288,192,188099,1,4,0:0:0:0:
256,192,188547,1,12,0:0:0:0:
288,192,188995,1,4,0:0:0:0:
256,192,189442,1,12,0:0:0:0:
288,192,189890,1,4,0:0:0:0:
288,192,190338,1,4,0:0:0:0:
288,192,190786,1,4,0:0:0:0:
288,192,191234,1,4,0:0:0:0:
288,192,191681,1,4,0:0:0:0:
288,192,191905,1,4,0:0:0:0:
288,192,192129,1,4,0:0:0:0:
288,192,192353,1,4,0:0:0:0:
288,192,192577,1,4,0:0:0:0:
288,192,192801,1,4,0:0:0:0:
288,192,193025,1,4,0:0:0:0:
288,192,193248,1,4,0:0:0:0:
288,192,193472,1,0,0:0:0:0:
288,192,193696,1,8,0:0:0:0:
256,192,193808,1,8,0:0:0:0:
288,192,193920,1,0,0:0:0:0:
256,192,194032,1,0,0:0:0:0:
256,192,194144,1,0,0:0:0:0:
256,192,194368,1,8,0:0:0:0:
256,192,194592,1,0,0:0:0:0:
256,192,194704,1,8,0:0:0:0:
288,160,194816,1,8,0:0:0:0:
256,192,194928,1,0,0:0:0:0:
256,192,195040,1,8,0:0:0:0:
256,192,195263,1,0,0:0:0:0:
288,160,195487,1,0,0:0:0:0:
288,160,195711,1,8,0:0:0:0:
288,224,195935,1,0,0:0:0:0:
288,160,196159,1,8,0:0:0:0:
288,160,196607,1,0,0:0:0:0:
256,160,196719,1,0,0:0:0:0:
288,160,196831,1,8,0:0:0:0:
256,160,197054,1,0,0:0:0:0:
256,160,197278,1,8,0:0:0:0:
256,160,197390,1,8,0:0:0:0:
256,160,197502,1,0,0:0:0:0:
256,160,197614,1,0,0:0:0:0:
256,160,197726,1,8,0:0:0:0:
256,160,197950,1,0,0:0:0:0:
256,160,198174,1,8,0:0:0:0:
256,128,198286,1,0,0:0:0:0:
256,160,198398,1,8,0:0:0:0:
256,128,198510,1,8,0:0:0:0:
256,128,198622,1,0,0:0:0:0:
256,128,198845,1,0,0:0:0:0:
288,192,199069,1,8,0:0:0:0:
288,192,199181,1,8,0:0:0:0:
256,128,199293,1,8,0:0:0:0:
256,128,199517,1,0,0:0:0:0:
256,128,199741,1,8,0:0:0:0:
192,160,200189,1,0,0:0:0:0:
192,160,200301,1,0,0:0:0:0:
192,160,200413,1,8,0:0:0:0:
192,160,200637,1,0,0:0:0:0:
192,160,200860,1,8,0:0:0:0:
192,160,200972,1,8,0:0:0:0:
192,160,201084,1,0,0:0:0:0:
192,160,201196,1,8,0:0:0:0:
192,160,201308,1,0,0:0:0:0:
192,160,201532,1,8,0:0:0:0:
192,160,201756,1,0,0:0:0:0:
192,160,201868,1,0,0:0:0:0:
192,160,201980,1,8,0:0:0:0:
192,160,202092,1,8,0:0:0:0:
192,160,202204,1,0,0:0:0:0:
192,160,202428,1,0,0:0:0:0:
192,160,202651,1,0,0:0:0:0:
192,160,202875,1,8,0:0:0:0:
192,160,203099,1,0,0:0:0:0:
192,160,203323,1,8,0:0:0:0:
192,160,203771,1,0,0:0:0:0:
192,160,203883,1,0,0:0:0:0:
192,160,203995,1,8,0:0:0:0:
192,160,204219,1,0,0:0:0:0:
192,160,204442,1,8,0:0:0:0:
192,160,204554,1,8,0:0:0:0:
192,160,204666,1,0,0:0:0:0:
192,160,204778,1,0,0:0:0:0:
192,160,204890,1,0,0:0:0:0:
192,160,205114,1,8,0:0:0:0:
192,160,205338,1,0,0:0:0:0:
192,160,205450,1,8,0:0:0:0:
192,160,205562,1,0,0:0:0:0:
192,160,205674,1,8,0:0:0:0:
192,160,205786,1,8,0:0:0:0:
192,160,206010,1,0,0:0:0:0:
192,160,206234,1,0,0:0:0:0:
192,160,206457,1,8,0:0:0:0:
192,160,206681,1,0,0:0:0:0:
192,160,206905,1,8,0:0:0:0:
320,224,207241,1,8,0:0:0:0:
192,192,207353,1,0,0:0:0:0:
256,224,207465,1,0,0:0:0:0:
192,192,207577,1,8,0:0:0:0:
256,192,207801,1,4,0:0:0:0:
256,192,208248,1,4,0:0:0:0:
256,192,208696,1,4,0:0:0:0:
224,192,208920,1,8,0:0:0:0:
192,192,209032,1,8,0:0:0:0:
192,192,209144,1,0,0:0:0:0:
224,192,209256,1,0,0:0:0:0:
192,192,209368,1,8,0:0:0:0:
192,192,209592,1,0,0:0:0:0:
192,192,209816,1,8,0:0:0:0:
192,192,209928,1,8,0:0:0:0:
192,192,210040,1,0,0:0:0:0:
192,192,210263,1,8,0:0:0:0:
192,192,210487,1,0,0:0:0:0:
160,192,210599,1,8,0:0:0:0:
160,192,210823,1,8,0:0:0:0:
160,192,210935,1,0,0:0:0:0:
224,192,211047,1,0,0:0:0:0:
160,192,211159,1,8,0:0:0:0:
160,192,211383,1,4,0:0:0:0:
160,192,211831,1,4,0:0:0:0:
160,192,212278,1,4,0:0:0:0:
192,192,212502,1,8,0:0:0:0:
192,224,212614,1,8,0:0:0:0:
192,224,212726,1,0,0:0:0:0:
256,192,212838,1,0,0:0:0:0:
192,224,212950,1,8,0:0:0:0:
192,224,213174,1,0,0:0:0:0:
192,224,213398,1,0,0:0:0:0:
192,224,213510,1,8,0:0:0:0:
192,224,213622,1,0,0:0:0:0:
192,224,213845,1,8,0:0:0:0:
160,192,214069,1,8,0:0:0:0:
160,192,214181,1,8,0:0:0:0:
256,160,214405,1,8,0:0:0:0:
256,192,214517,1,8,0:0:0:0:
160,160,214629,1,0,0:0:0:0:
160,224,214741,1,8,0:0:0:0:
128,224,214965,1,4,0:0:0:0:
128,224,215413,1,4,0:0:0:0:
128,224,215860,1,4,0:0:0:0:
256,192,216084,1,8,0:0:0:0:
96,224,216196,1,8,0:0:0:0:
256,192,216308,1,0,0:0:0:0:
256,192,216420,1,0,0:0:0:0:
256,192,216532,1,8,0:0:0:0:
192,224,216756,1,0,0:0:0:0:
224,224,216980,1,8,0:0:0:0:
224,224,217092,1,8,0:0:0:0:
224,224,217204,1,0,0:0:0:0:
224,224,217428,1,8,0:0:0:0:
224,224,217651,1,0,0:0:0:0:
224,224,217763,1,8,0:0:0:0:
224,224,217987,1,8,0:0:0:0:
224,224,218099,1,0,0:0:0:0:
256,192,218211,1,0,0:0:0:0:
224,224,218323,1,8,0:0:0:0:
224,224,218547,1,4,0:0:0:0:
224,224,218995,1,4,0:0:0:0:
224,224,219442,1,4,0:0:0:0:
256,192,219666,1,8,0:0:0:0:
224,224,219778,1,8,0:0:0:0:
224,224,219890,1,0,0:0:0:0:
192,224,220002,1,0,0:0:0:0:
224,224,220114,1,8,0:0:0:0:
192,224,220338,1,0,0:0:0:0:
192,224,220562,1,8,0:0:0:0:
192,224,220674,1,8,0:0:0:0:
192,224,220786,1,0,0:0:0:0:
192,224,221010,1,8,0:0:0:0:
256,192,221234,1,0,0:0:0:0:
192,224,221345,1,0,0:0:0:0:
192,224,221569,1,8,0:0:0:0:
256,192,221681,1,8,0:0:0:0:
256,192,221793,1,0,0:0:0:0:
192,224,221905,1,8,0:0:0:0:
256,192,222129,1,4,0:0:0:0:
224,192,222465,1,8,0:0:0:0:
224,192,222577,1,0,0:0:0:0:
224,192,222801,1,8,0:0:0:0:
224,192,223025,1,0,0:0:0:0:
224,192,223137,1,8,0:0:0:0:
224,192,223360,1,8,0:0:0:0:
256,192,223472,1,0,0:0:0:0:
256,192,223584,1,0,0:0:0:0:
256,192,223696,1,8,0:0:0:0:
256,192,223920,1,0,0:0:0:0:
256,192,224144,1,8,0:0:0:0:
256,192,224256,1,8,0:0:0:0:
256,192,224368,1,0,0:0:0:0:
256,192,224592,1,8,0:0:0:0:
256,192,224816,1,0,0:0:0:0:
256,192,225263,1,0,0:0:0:0:
256,160,225375,1,0,0:0:0:0:
256,192,225487,1,8,0:0:0:0:
256,192,225711,1,0,0:0:0:0:
256,160,225935,1,8,0:0:0:0:
256,192,226047,1,8,0:0:0:0:
256,192,226159,1,0,0:0:0:0:
256,160,226383,1,8,0:0:0:0:
256,160,226607,1,8,0:0:0:0:
256,160,226719,1,8,0:0:0:0:
256,160,226942,1,8,0:0:0:0:
256,160,227054,1,8,0:0:0:0:
256,160,227166,1,0,0:0:0:0:
256,160,227278,1,8,0:0:0:0:
256,160,227502,1,0,0:0:0:0:
256,160,227726,1,8,0:0:0:0:
256,160,227838,1,8,0:0:0:0:
256,160,227950,1,0,0:0:0:0:
224,160,228062,1,0,0:0:0:0:
256,160,228174,1,8,0:0:0:0:
256,160,228398,1,0,0:0:0:0:
256,160,228845,1,0,0:0:0:0:
256,160,228957,1,0,0:0:0:0:
256,160,229069,1,8,0:0:0:0:
256,160,229293,1,0,0:0:0:0:
224,192,229517,1,8,0:0:0:0:
224,160,229629,1,8,0:0:0:0:
224,160,229741,1,0,0:0:0:0:
224,160,229965,1,8,0:0:0:0:
256,160,230189,1,0,0:0:0:0:
224,160,230301,1,8,0:0:0:0:
224,160,230525,1,8,0:0:0:0:
256,160,230637,1,0,0:0:0:0:
224,160,230748,1,0,0:0:0:0:
224,160,230860,1,8,0:0:0:0:
224,160,231084,1,0,0:0:0:0:
224,160,231308,1,8,0:0:0:0:
224,160,231420,1,8,0:0:0:0:
256,160,231532,1,0,0:0:0:0:
256,160,231756,1,8,0:0:0:0:
256,160,231980,1,0,0:0:0:0:
256,160,232428,1,0,0:0:0:0:
256,160,232540,1,0,0:0:0:0:
256,160,232651,1,8,0:0:0:0:
256,160,232875,1,0,0:0:0:0:
256,160,233099,1,8,0:0:0:0:
256,160,233211,1,8,0:0:0:0:
224,160,233323,1,0,0:0:0:0:
256,160,233435,1,8,0:0:0:0:
224,160,233659,1,8,0:0:0:0:
224,160,233771,1,0,0:0:0:0:
224,160,233995,1,8,0:0:0:0:
224,160,234107,1,8,0:0:0:0:
224,160,234219,1,0,0:0:0:0:
224,160,234331,1,0,0:0:0:0:
224,160,234442,1,8,0:0:0:0:
224,160,234666,1,0,0:0:0:0:
224,160,234890,1,8,0:0:0:0:
224,160,235002,1,8,0:0:0:0:
224,160,235114,1,0,0:0:0:0:
224,160,235338,1,8,0:0:0:0:
224,160,235562,1,0,0:0:0:0:
256,160,236457,1,4,0:0:0:0:
224,160,236905,1,8,0:0:0:0:
224,160,237129,1,0,0:0:0:0:
224,160,237353,1,0,0:0:0:0:
224,128,237577,1,8,0:0:0:0:
224,128,238025,1,8,0:0:0:0:
224,128,238248,1,0,0:0:0:0:
192,128,238696,1,8,0:0:0:0:
192,128,239144,1,0,0:0:0:0:
192,128,239368,1,8,0:0:0:0:
192,128,239480,1,8,0:0:0:0:
192,128,239592,1,8,0:0:0:0:
192,128,239816,1,8,0:0:0:0:
192,128,240040,1,0,0:0:0:0:
192,128,240487,1,8,0:0:0:0:
192,96,240711,1,0,0:0:0:0:
192,128,240935,1,0,0:0:0:0:
192,128,241159,1,8,0:0:0:0:
192,128,241607,1,0,0:0:0:0:
192,128,241831,1,8,0:0:0:0:
256,192,242278,1,8,0:0:0:0:
256,160,242726,1,0,0:0:0:0:
256,160,242950,1,8,0:0:0:0:
256,160,243174,1,0,0:0:0:0:
256,160,243286,1,0,0:0:0:0:
256,160,243398,1,8,0:0:0:0:
256,160,243622,1,0,0:0:0:0:
256,160,244069,1,8,0:0:0:0:
256,160,244293,1,0,0:0:0:0:
256,160,244517,1,0,0:0:0:0:
256,160,244741,1,8,0:0:0:0:
256,160,245189,1,8,0:0:0:0:
256,160,245413,1,0,0:0:0:0:
256,160,245860,1,8,0:0:0:0:
256,160,246308,1,0,0:0:0:0:
256,160,246532,1,8,0:0:0:0:
256,160,246644,1,8,0:0:0:0:
256,160,246756,1,8,0:0:0:0:
256,160,246980,1,8,0:0:0:0:
256,160,247204,1,0,0:0:0:0:
256,160,247651,1,8,0:0:0:0:
256,160,247875,1,0,0:0:0:0:
256,160,248099,1,0,0:0:0:0:
256,160,248323,1,8,0:0:0:0:
256,160,248771,1,0,0:0:0:0:
256,160,248995,1,8,0:0:0:0:
256,160,249442,1,8,0:0:0:0:
256,160,250114,1,8,0:0:0:0:
256,160,250338,1,0,0:0:0:0:
256,160,250562,1,8,0:0:0:0:
256,160,250786,1,8,0:0:0:0:
