osu file format v14

[General]
AudioFilename: audio.mp3
AudioLeadIn: 0
PreviewTime: 32155
Countdown: 0
SampleSet: Soft
StackLeniency: 0.7
Mode: 0
LetterboxInBreaks: 0
WidescreenStoryboard: 0

[Editor]
DistanceSpacing: 1
BeatDivisor: 4
GridSize: 4
TimelineZoom: 3.299999

[Metadata]
Title:Unknown Title
TitleUnicode:Unknown Title
Artist:Wan Ho-Kit, Lee Hon-Kam
ArtistUnicode:溫浩傑、李漢金
Creator:Monstrata
Version:Let's show them Monstrata's powerful stance.
Source:超級學校霸王
Tags:future cops underforest ezek armin a_r_m_i_n habiholic chaoslitz
BeatmapID:1312156
BeatmapSetID:468614

[Difficulty]
HPDrainRate:6
CircleSize:4
OverallDifficulty:9
ApproachRate:9.3
SliderMultiplier:1.86
SliderTickRate:1

[Events]
//Background and Video events
Video,-266,"chunlifuturecop.avi"
0,0,"ok.jpg",0,0
//Break Periods
//Storyboard Layer 0 (Background)
//Storyboard Layer 1 (Fail)
//Storyboard Layer 2 (Pass)
//Storyboard Layer 3 (Foreground)
//Storyboard Sound Samples

[TimingPoints]
2570,314.13612565445,4,2,2,70,1,0
5083,315.236979399263,4,2,2,70,1,0
10126,315.789473684211,4,2,2,70,1,0
11389,314.13612565445,4,2,2,70,1,0
12645,315.789473684211,4,2,2,70,1,0
16434,316.622691292876,4,2,2,70,1,0
18966,318.302387267905,4,2,2,70,1,0
20239,315.789473684211,4,2,2,70,1,0
25291,313.725490196078,4,2,2,70,1,0
26545,315.789473684211,4,2,2,70,1,0
29071,316.622691292876,4,2,2,70,1,0
31603,315.789473684211,4,2,2,70,1,0
32866,317.460317460317,4,2,2,70,1,0
34135,314.13612565445,4,2,2,70,1,0
37904,312.5,4,2,2,70,1,0
40404,310.880829015544,4,2,2,70,1,0
42891,303.030303030303,4,2,2,70,1,0
45315,301.507537688442,4,2,2,70,1,0
47727,297.029702970297,4,2,2,70,1,0
48915,294.117647058824,4,2,2,70,1,0
50091,297.029702970297,4,2,2,70,1,0
51873,291.26213592233,4,2,2,70,1,0
52455,294.117647058824,4,2,2,70,1,0
53631,289.855072463768,4,2,2,70,1,0
55949,297.029702970297,4,2,2,70,1,0
57137,288.461538461538,4,2,2,70,1,0
59444,285.714285714286,4,2,2,70,1,0
60586,287.081339712919,4,2,2,70,1,0
61734,285.714285714286,4,2,2,70,1,0
64019,283.018867924528,4,2,2,70,1,0
64868,-128.205128205128,4,2,2,70,0,0
65009,-133.333333333333,4,2,2,20,0,0
66778,-133.333333333333,4,2,2,70,0,0

[Colours]
Combo1 : 255,64,64
Combo2 : 55,155,255
Combo3 : 128,128,255
Combo4 : 255,51,153

[HitObjects]
196,67,2569,6,0,P|188:112|201:156,1,93,0|2,3:0|0:0,0:0:0:0:
377,239,2884,1,8,0:0:0:0:
281,106,3041,1,0,0:0:0:0:
300,293,3198,1,2,3:2:0:0:
367,145,3355,1,0,3:0:0:0:
386,331,3512,1,8,0:0:0:0:
290,199,3669,1,0,1:0:0:0:
223,348,3826,5,0,3:0:0:0:
377,239,3983,1,0,3:0:0:0:
203,160,4140,2,0,L|189:114,1,46.5,10|0,0:0|0:0,0:0:0:0:
357,51,4297,2,0,L|371:5,1,46.5,2|0,3:2|0:0,0:0:0:0:
357,51,4611,5,2,3:2:0:0:
363,73,4768,1,8,0:0:0:0:
370,96,4926,1,0,1:0:0:0:
376,118,5083,5,2,3:2:0:0:
248,20,5240,1,0,0:0:0:0:
180,186,5398,1,8,0:0:0:0:
284,106,5555,1,2,0:0:0:0:
106,129,5713,1,0,3:0:0:0:
272,198,5871,1,0,3:0:0:0:
192,94,6028,1,8,0:0:0:0:
215,271,6186,1,0,1:0:0:0:
284,106,6343,5,0,3:0:0:0:
180,186,6501,1,0,3:0:0:0:
272,198,6659,2,0,L|326:269,1,46.5,8|0,0:0|0:0,0:0:0:0:
192,94,6816,2,0,L|137:22,1,46.5,0|0,3:0|0:0,0:0:0:0:
215,271,6974,5,4,0:3:0:0:
284,106,7132,1,0,3:0:0:0:
282,329,7289,1,8,0:0:0:0:
351,164,7447,1,0,1:0:0:0:
87,258,7604,6,0,L|-14:239,1,93,2|0,3:2|0:0,0:0:0:0:
377,36,7920,2,0,L|478:17,1,93,8|0,0:0|0:0,0:0:0:0:
232,147,8235,1,2,3:2:0:0:
343,363,8392,1,8,3:0:0:0:
317,181,8550,1,8,0:0:0:0:
172,294,8708,1,0,3:0:0:0:
146,112,8865,5,2,3:2:0:0:
258,329,9023,1,0,0:0:0:0:
303,90,9181,1,8,0:0:0:0:
172,294,9338,1,0,3:0:0:0:
414,305,9496,1,4,0:3:0:0:
232,147,9653,1,0,3:0:0:0:
184,384,9811,1,8,0:0:0:0:
317,181,9969,1,0,1:0:0:0:
99,350,10126,6,0,L|-9:308,1,93,0|2,3:2|0:0,0:0:0:0:
413,350,10441,2,0,L|521:308,1,93,8|0,0:0|0:0,0:0:0:0:
245,238,10757,1,0,3:0:0:0:
276,324,10915,1,0,3:0:0:0:
393,233,11073,1,8,0:0:0:0:
317,181,11231,1,2,0:0:0:0:
368,321,11389,5,4,3:0:0:0:
368,321,11703,5,8,0:0:0:0:
393,233,11860,1,2,0:0:0:0:
245,238,12017,1,0,0:0:0:0:
276,324,12174,1,0,3:0:0:0:
317,181,12331,1,8,0:0:0:0:
186,307,12488,1,0,1:0:0:0:
393,233,12645,5,2,3:2:0:0:
231,147,12802,1,2,0:3:0:0:
276,324,12960,1,8,0:0:0:0:
317,181,13118,1,0,0:0:0:0:
186,307,13276,1,2,3:0:0:0:
393,233,13434,1,0,3:0:0:0:
231,147,13592,1,8,0:0:0:0:
367,320,13750,6,0,P|413:322|454:300,1,93,2|0,0:3|3:0,0:0:0:0:
303,89,14066,1,2,0:3:0:0:
245,239,14223,1,8,0:0:0:0:
389,122,14381,1,2,0:3:0:0:
217,56,14539,1,4,0:3:0:0:
317,181,14697,1,0,3:0:0:0:
290,0,14855,1,8,0:0:0:0:
245,239,15013,6,0,P|209:284|144:299,1,93,2|4,0:3|3:0,0:0:0:0:
231,147,15329,1,2,0:0:0:0:
331,273,15487,1,8,0:0:0:0:
303,89,15645,1,2,0:3:0:0:
158,205,15803,1,0,3:0:0:0:
317,181,15960,1,2,3:0:0:0:
145,113,16118,1,8,0:0:0:0:
170,295,16276,6,0,L|187:414,1,93,2|0,0:3|3:0,0:0:0:0:
403,214,16592,1,2,0:3:0:0:
303,89,16750,1,8,0:0:0:0:
245,239,16908,1,0,0:0:0:0:
413,305,17067,1,4,0:3:0:0:
317,181,17225,1,0,3:0:0:0:
259,331,17383,1,8,0:0:0:0:
403,214,17541,1,6,0:3:0:0:
231,146,17700,6,0,L|248:265,1,93,4|0,0:0|3:0,0:0:0:0:
85,263,18017,1,8,0:0:0:0:
144,111,18175,1,0,0:0:0:0:
171,297,18333,1,0,0:0:0:0:
317,181,18492,1,0,3:0:0:0:
158,206,18650,1,8,0:0:0:0:
267,17,18808,6,0,L|261:109,1,93,2|4,0:0|0:3,0:0:0:0:
244,238,19125,1,2,0:3:0:0:
181,57,19284,1,8,0:0:0:0:
158,206,19443,1,0,3:0:0:0:
265,16,19602,1,2,0:3:0:0:
97,98,19761,1,0,3:0:0:0:
260,109,19920,1,8,0:0:0:0:
102,5,20080,1,4,3:0:0:0:
8,235,20239,6,0,P|40:268|83:281,1,93,4|0,3:2|0:0,0:0:0:0:
242,14,20554,2,0,P|197:25|163:56,1,93,8|0,0:0|0:0,0:0:0:0:
311,174,20870,1,0,3:0:0:0:
244,108,21028,1,0,3:0:0:0:
220,200,21186,1,8,0:0:0:0:
334,82,21344,1,0,1:0:0:0:
378,239,21502,5,0,3:0:0:0:
244,108,21660,1,0,0:0:0:0:
197,289,21817,1,0,1:0:0:0:
334,82,21975,1,0,0:0:0:0:
444,304,22133,1,0,1:0:0:0:
244,108,22291,1,0,3:0:0:0:
174,379,22449,1,8,0:0:0:0:
334,82,22607,1,2,3:2:0:0:
510,369,22765,5,4,3:2:0:0:
2,369,23081,1,8,0:0:0:0:
468,172,23396,1,0,3:0:0:0:
436,259,23554,1,2,3:2:0:0:
361,95,23712,1,8,0:0:0:0:
376,187,23870,1,2,0:0:0:0:
453,80,24028,5,4,3:0:0:0:
288,153,24186,1,2,0:0:0:0:
436,259,24344,1,8,0:0:0:0:
361,95,24502,1,0,3:0:0:0:
256,241,24660,1,4,0:3:0:0:
436,259,24817,1,0,3:0:0:0:
288,153,24975,1,8,0:0:0:0:
270,334,25133,1,2,3:2:0:0:
453,80,25291,5,0,3:0:0:0:
59,80,25604,2,0,P|112:110|133:178,1,93,8|0,0:0|0:0,0:0:0:0:
95,329,25918,2,0,L|140:321,1,46.5,4|0,3:0|0:0,0:0:0:0:
41,173,26075,2,0,L|-16:164,1,46.5,0|0,3:0|0:0,0:0:0:0:
15,311,26232,2,0,L|23:266,1,46.5,8|0,0:0|0:0,0:0:0:0:
128,137,26389,2,0,L|137:194,1,46.5,0|0,3:0|0:0,0:0:0:0:
220,339,26545,6,0,P|273:307|342:323,1,93,4|2,3:0|0:0,0:0:0:0:
512,192,26860,2,0,P|451:192|392:67,1,186,8|4,0:0|0:3,0:0:0:0:
480,104,27334,1,0,3:0:0:0:
443,278,27492,1,8,0:0:0:0:
310,158,27650,1,2,0:0:0:0:
272,333,27808,6,0,L|390:348,1,93,4|0,3:0|0:0,0:0:0:0:
217,169,28123,2,0,L|125:181,1,93,10|0,0:0|0:0,0:0:0:0:
252,83,28439,1,4,3:0:0:0:
274,242,28597,1,0,3:0:0:0:
433,220,28755,1,8,0:0:0:0:
411,61,28913,1,0,3:0:0:0:
274,242,29071,6,0,L|289:349,1,93,4|0,3:0|0:0,0:0:0:0:
274,142,29387,2,0,L|289:35,1,93,8|2,0:0|0:0,0:0:0:0:
157,173,29704,2,0,B|114:191|114:191|157:211,1,93,4|0,0:3|3:0,0:0:0:0:
354,211,30020,2,0,B|397:191|397:191|355:173,1,93,8|0,0:0|3:0,0:0:0:0:
150,96,30337,6,0,B|33:147,1,93,4|2,3:0|0:0,0:0:0:0:
362,288,30654,2,0,B|478:236,1,93,8|2,0:0|0:0,0:0:0:0:
216,139,30970,1,0,3:0:0:0:
203,231,31129,1,0,3:0:0:0:
295,244,31287,1,8,0:0:0:0:
308,152,31446,1,0,0:0:0:0:
130,174,31603,6,0,L|23:159,1,93,0|2,3:0|0:0,0:0:0:0:
382,210,31918,2,0,L|488:224,1,93,8|2,0:0|0:0,0:0:0:0:
203,231,32234,5,4,0:3:0:0:
216,139,32392,1,0,3:0:0:0:
295,244,32550,1,8,0:0:0:0:
308,152,32708,1,2,0:0:0:0:
130,174,32866,5,4,3:2:0:0:
126,282,33024,1,2,0:3:0:0:
227,319,33183,1,8,0:0:0:0:
293,233,33342,1,0,0:0:0:0:
233,144,33500,2,0,L|196:253,1,93,0|0,3:0|3:0,0:0:0:0:
383,235,33818,1,8,0:0:0:0:
385,145,33977,1,2,0:0:0:0:
291,323,34135,5,0,3:0:0:0:
473,237,34292,1,2,0:3:0:0:
295,143,34449,1,8,0:0:0:0:
381,325,34606,1,2,0:0:0:0:
475,147,34763,2,0,L|478:44,1,93,0|0,3:0|3:0,0:0:0:0:
471,327,35077,1,8,0:0:0:0:
385,145,35234,1,2,0:3:0:0:
291,323,35391,5,0,3:0:0:0:
205,141,35548,1,2,0:3:0:0:
66,318,35705,1,8,0:0:0:0:
248,232,35862,1,2,0:0:0:0:
71,93,36019,2,0,L|-36:144,1,93,0|0,3:0|3:0,0:0:0:0:
296,98,36333,1,8,0:0:0:0:
114,184,36490,1,2,0:3:0:0:
291,323,36648,5,0,3:0:0:0:
205,141,36805,1,2,0:3:0:0:
66,318,36962,1,8,0:0:0:0:
71,93,37119,1,0,3:0:0:0:
248,232,37276,1,2,0:0:0:0:
162,50,37433,1,0,3:0:0:0:
157,275,37590,1,8,0:0:0:0:
296,98,37747,1,4,0:0:0:0:
23,227,37904,6,0,L|73:334,1,93,4|0,3:2|0:0,0:0:0:0:
256,182,38216,2,0,L|306:74,1,93,8|0,0:0|0:0,0:0:0:0:
71,93,38529,1,0,3:0:0:0:
157,275,38685,1,0,3:0:0:0:
157,109,38841,1,8,0:0:0:0:
71,291,38997,1,2,0:3:0:0:
127,26,39154,5,2,3:2:0:0:
243,259,39310,1,2,0:3:0:0:
213,41,39466,1,8,0:0:0:0:
157,275,39622,1,0,3:0:0:0:
299,56,39779,1,4,0:3:0:0:
100,208,39935,1,0,3:0:0:0:
300,326,40091,1,8,0:0:0:0:
243,122,40247,1,2,0:3:0:0:
71,291,40404,6,0,P|144:285|173:253,1,93,4|0,0:0|0:0,0:0:0:0:
213,41,40714,1,8,0:0:0:0:
42,141,40870,2,0,P|61:183|100:208,1,93,2|0,0:0|3:0,0:0:0:0:
328,136,41181,1,2,3:2:0:0:
131,32,41336,2,0,L|128:124,1,93,8|0,0:0|0:0,0:0:0:0:
321,321,41647,6,0,L|324:228,1,93,0|0,3:0|0:0,0:0:0:0:
299,24,41958,2,0,P|253:19|212:40,1,93,8|0,0:0|3:0,0:0:0:0:
156,228,42269,2,0,L|242:217,1,46.5,0|0,1:0|1:0,0:0:0:0:
271,112,42424,2,0,L|260:198,1,46.5,0|0,3:0|1:0,0:0:0:0:
155,303,42580,2,0,L|241:292,1,46.5,8|0,0:0|1:0,0:0:0:0:
346,111,42735,2,0,L|335:197,1,46.5,0|0,1:0|1:0,0:0:0:0:
154,378,42891,6,0,L|281:361,1,93,4|0,1:2|0:0,0:0:0:0:
421,110,43194,2,0,L|405:228,1,93,8|0,0:0|0:0,0:0:0:0:
181,136,43497,1,0,3:0:0:0:
288,244,43648,1,0,3:0:0:0:
242,75,43800,1,8,0:0:0:0:
118,199,43951,1,2,0:3:0:0:
349,183,44103,6,0,L|459:175,1,93,2|0,3:2|0:0,0:0:0:0:
95,113,44406,2,0,P|41:154|81:279,1,186,8|4,0:0|0:3,0:0:0:0:
288,244,44860,1,0,3:0:0:0:
118,199,45012,1,8,0:0:0:0:
164,368,45163,1,2,0:3:0:0:
349,183,45315,6,0,L|459:175,1,93,2|0,3:2|0:0,0:0:0:0:
141,283,45616,2,0,L|48:276,1,93,8|0,0:0|0:0,0:0:0:0:
244,78,45918,1,0,3:0:0:0:
288,244,46068,1,0,3:0:0:0:
305,18,46219,1,8,0:0:0:0:
183,138,46370,1,2,0:3:0:0:
410,124,46521,6,0,P|404:62|383:36,1,93,2|0,3:2|0:0,0:0:0:0:
161,55,46822,1,8,0:0:0:0:
118,198,46973,2,0,P|154:222|205:224,1,93,0|4,3:0|0:3,0:0:0:0:
327,101,47274,1,0,3:0:0:0:
161,55,47425,1,8,0:0:0:0:
266,161,47576,1,2,0:3:0:0:
388,41,47727,5,2,3:2:0:0:
244,78,47875,1,0,0:0:0:0:
288,245,48024,1,8,0:0:0:0:
327,101,48172,1,0,0:0:0:0:
205,221,48321,1,0,3:0:0:0:
308,328,48469,1,0,3:0:0:0:
266,161,48618,1,8,0:0:0:0:
143,281,48766,1,2,0:3:0:0:
369,269,48915,6,0,P|370:224|334:173,1,93,2|0,3:2|0:0,0:0:0:0:
183,138,49209,1,8,0:0:0:0:
308,328,49356,2,0,P|346:351|408:345,1,93,2|4,3:0|0:3,0:0:0:0:
266,161,49650,2,0,L|282:92,1,46.5,0|0,3:0|3:0,0:0:0:0:
143,281,49797,2,0,L|159:350,1,46.5,8|0,3:2|3:0,0:0:0:0:
100,115,49944,2,0,L|15:90,1,46.5,0|0,3:0|0:0,0:0:0:0:
53,306,50091,6,0,L|167:273,1,93,2|0,3:2|0:0,0:0:0:0:
355,135,50388,2,0,L|240:167,1,93,8|0,0:0|0:0,0:0:0:0:
309,315,50685,1,4,0:3:0:0:
332,225,50833,1,2,0:3:0:0:
176,186,50982,1,8,0:0:0:0:
243,250,51130,1,0,3:0:0:0:
288,70,51279,6,0,L|257:190,1,93,2|0,3:2|0:0,0:0:0:0:
444,109,51576,2,0,P|412:61|362:44,1,93,8|0,0:0|0:0,0:0:0:0:
176,186,51873,1,4,0:3:0:0:
243,250,52018,1,0,3:0:0:0:
355,135,52164,1,8,0:0:0:0:
265,159,52309,1,2,0:3:0:0:
309,315,52455,6,0,L|440:280,1,93,4|2,0:0|0:3,0:0:0:0:
288,70,52749,2,0,P|250:68|194:102,1,93,8|0,0:0|0:0,0:0:0:0:
155,277,53043,1,0,3:0:0:0:
265,159,53190,1,0,3:0:0:0:
85,207,53337,1,8,0:0:0:0:
225,347,53484,1,2,0:0:0:0:
109,117,53631,6,0,P|62:117|22:139,1,93,2|2,3:0|0:3,0:0:0:0:
61,297,53920,2,0,P|107:296|147:274,1,93,8|0,0:0|3:0,0:0:0:0:
288,70,54210,1,4,0:3:0:0:
175,183,54355,1,0,3:0:0:0:
307,314,54500,1,8,0:0:0:0:
265,159,54645,1,2,0:0:0:0:
85,207,54790,5,2,3:0:0:0:
243,250,54935,1,2,0:0:0:0:
107,116,55080,1,8,0:0:0:0:
61,297,55225,1,4,0:3:0:0:
265,159,55370,1,0,3:0:0:0:
85,207,55515,1,0,3:0:0:0:
216,338,55659,1,8,0:0:0:0:
175,183,55804,1,2,0:0:0:0:
61,297,55949,5,2,3:0:0:0:
107,116,56097,1,2,0:3:0:0:
243,250,56246,1,8,0:0:0:0:
197,92,56394,1,4,0:3:0:0:
153,273,56543,2,0,L|131:363,1,93,2|0,0:0|3:0,0:0:0:0:
265,159,56840,1,8,0:0:0:0:
222,0,56988,1,4,0:0:0:0:
106,115,57137,6,0,P|130:155|170:178,1,93,6|2,3:0|0:3,0:0:0:0:
374,46,57425,2,0,P|328:47|288:70,1,93,8|0,0:0|0:0,0:0:0:0:
243,250,57713,1,0,3:0:0:0:
355,135,57858,1,0,3:0:0:0:
197,92,58002,1,8,0:0:0:0:
332,225,58146,1,2,0:0:0:0:
222,0,58290,6,0,P|158:5|124:36,1,93,2|2,3:3|0:3,0:0:0:0:
309,314,58579,2,0,P|373:309|407:278,1,93,8|0,0:0|0:0,0:0:0:0:
288,70,58867,1,4,0:3:0:0:
243,250,59012,1,0,3:0:0:0:
421,198,59156,1,8,0:0:0:0:
197,92,59300,1,6,0:0:0:0:
216,338,59444,5,6,3:0:0:0:
265,159,59586,1,2,0:3:0:0:
107,116,59729,1,8,0:0:0:0:
243,250,59872,1,0,1:0:0:0:
288,70,60015,1,0,3:0:0:0:
154,275,60158,1,0,3:0:0:0:
355,135,60301,1,8,0:0:0:0:
129,25,60444,1,2,3:2:0:0:
216,338,60586,5,2,1:2:0:0:
197,92,60729,1,2,0:0:0:0:
60,299,60873,1,8,0:0:0:0:
265,159,61016,1,0,1:0:0:0:
39,46,61160,1,2,1:2:0:0:
243,250,61303,1,0,1:0:0:0:
222,0,61447,1,8,0:0:0:0:
60,299,61590,1,0,1:0:0:0:
398,290,61734,6,0,P|424:227|358:137,1,186,6|8,0:0|0:0,0:0:0:0:
175,128,62162,2,0,L|268:133,1,93,2|0,0:2|3:0,0:0:0:0:
225,49,62448,1,0,3:0:0:0:
125,207,62591,2,0,L|74:285,1,93,8|4,0:0|0:3,0:0:0:0:
352,297,62876,6,0,L|310:215,1,93,2|0,3:2|0:0,0:0:0:0:
268,133,63162,1,8,0:0:0:0:
169,290,63305,2,0,L|261:294,1,93,2|4,3:2|0:3,0:0:0:0:
353,298,63591,1,0,3:0:0:0:
125,207,63734,2,0,L|74:285,1,93,8|0,0:0|3:0,0:0:0:0:
304,376,64019,6,0,L|261:293,1,93,2|0,3:2|0:0,0:0:0:0:
175,129,64302,1,8,0:0:0:0:
25,364,64443,2,0,L|117:368,1,93,2|4,3:0|3:0,0:0:0:0:
353,298,64726,1,0,1:0:0:0:
88,128,64868,6,0,B|37:127|21:175|37:223|97:223|97:223|109:211|121:223|121:223|133:211|145:223|145:223|157:211|169:223|169:223|181:211|193:223|193:223|205:211|217:223|217:223|229:211|241:223|241:223|253:211|265:223|265:223|277:211|289:223|289:223|301:211|313:223|313:223|325:211|337:223|337:223|349:211|361:223|361:223|373:211|385:223|385:223|397:211|409:223|409:223|421:211|433:223|433:223|477:183|465:127|409:103|369:143|369:143|270:131|285:-42|426:23|392:109,1,979.290032874116,8|8,0:0|1:2,0:0:0:0:
