osu file format v14

[General]
AudioFilename: audio.mp3
AudioLeadIn: 0
PreviewTime: 32155
Countdown: 0
SampleSet: Soft
StackLeniency: 0.7
Mode: 0
LetterboxInBreaks: 0
WidescreenStoryboard: 0

[Editor]
DistanceSpacing: 1
BeatDivisor: 4
GridSize: 4
TimelineZoom: 3.299999

[Metadata]
Title:Unknown Title
TitleUnicode:Unknown Title
Artist:Wan Ho-Kit, Lee Hon-Kam
ArtistUnicode:溫浩傑、李漢金
Creator:Monstrata
Version:Let's show them Habi's Insane stance.
Source:超級學校霸王
Tags:future cops underforest ezek armin a_r_m_i_n habiholic chaoslitz
BeatmapID:1022964
BeatmapSetID:468614

[Difficulty]
HPDrainRate:6
CircleSize:4
OverallDifficulty:8
ApproachRate:9.1
SliderMultiplier:1.6
SliderTickRate:1

[Events]
//Background and Video events
Video,-266,"chunlifuturecop.avi"
0,0,"ok.jpg",0,0
//Break Periods
//Storyboard Layer 0 (Background)
//Storyboard Layer 1 (Fail)
//Storyboard Layer 2 (Pass)
//Storyboard Layer 3 (Foreground)
//Storyboard Sound Samples

[TimingPoints]
2570,314.13612565445,4,2,2,70,1,0
5083,315.236979399263,4,2,2,70,1,0
10126,315.789473684211,4,2,2,70,1,0
11389,314.13612565445,4,2,2,70,1,0
12645,315.789473684211,4,2,2,70,1,0
16434,316.622691292876,4,2,2,70,1,0
18966,318.302387267905,4,2,2,70,1,0
20239,315.789473684211,4,2,2,70,1,0
25291,313.725490196078,4,2,2,70,1,0
26545,315.789473684211,4,2,2,70,1,0
29071,316.622691292876,4,2,2,70,1,0
31603,315.789473684211,4,2,2,70,1,0
32866,317.460317460317,4,2,2,70,1,0
34135,314.13612565445,4,2,2,70,1,0
37904,312.5,4,2,2,70,1,0
40404,310.880829015544,4,2,2,70,1,0
42891,303.030303030303,4,2,2,70,1,0
45315,301.507537688442,4,2,2,70,1,0
47727,297.029702970297,4,2,2,70,1,0
48915,294.117647058824,4,2,2,70,1,0
50091,297.029702970297,4,2,2,70,1,0
51873,291.26213592233,4,2,2,70,1,0
52455,294.117647058824,4,2,2,70,1,0
53631,289.855072463768,4,2,2,70,1,0
55949,297.029702970297,4,2,2,70,1,0
57137,288.461538461538,4,2,2,70,1,0
59444,285.714285714286,4,2,2,70,1,0
60586,287.081339712919,4,2,2,70,1,0
61734,285.714285714286,4,2,2,70,1,0
64019,283.018867924528,4,2,2,70,1,0
64868,-133.333333333333,4,2,2,70,0,0
65009,-133.333333333333,4,2,2,20,0,0
66778,-133.333333333333,4,2,2,70,0,0

[Colours]
Combo1 : 255,64,64
Combo2 : 55,155,255
Combo3 : 128,128,255
Combo4 : 255,51,153

[HitObjects]
104,256,2569,6,0,L|188:264,1,80,2|2,0:0|0:0,0:0:0:0:
375,87,2884,2,0,L|296:80,1,80,8|0,0:0|0:0,0:0:0:0:
232,152,3198,1,2,3:2:0:0:
464,132,3355,2,0,P|472:92|464:44,1,80,0|8,3:0|0:0,0:0:0:0:
376,184,3669,1,0,1:0:0:0:
212,120,3826,6,0,L|228:280,1,160,0|10,3:0|0:0,0:0:0:0:
308,248,4297,2,0,P|356:248|392:228,1,80,2|0,3:2|0:0,0:0:0:0:
338,98,4611,1,2,3:2:0:0:
308,248,4768,1,8,0:0:0:0:
428,136,4926,1,0,1:0:0:0:
272,168,5083,6,0,B|220:192|172:144|172:144|144:168|160:196,1,160,2|8,3:2|0:0,0:0:0:0:
240,88,5555,1,2,0:0:0:0:
216,264,5713,2,0,L|208:360,1,80,0|0,3:0|3:0,0:0:0:0:
124,296,6028,1,8,0:0:0:0:
300,316,6186,1,0,1:0:0:0:
144,204,6343,6,0,L|64:192,1,80,2|2,3:0|0:0,0:0:0:0:
272,68,6659,2,0,L|352:80,1,80,8|0,0:0|3:0,0:0:0:0:
440,135,6974,2,0,P|456:100|456:60,1,80,4|0,0:3|3:0,0:0:0:0:
195,8,7289,2,0,P|179:43|179:83,1,80,8|0,0:0|1:0,0:0:0:0:
272,256,7604,6,0,B|296:200|272:148|272:148|296:164|304:192,1,160,2|8,3:2|0:0,0:0:0:0:
360,256,8077,1,0,0:0:0:0:
192,204,8235,2,0,P|152:212|116:200,1,80,2|8,3:2|3:0,0:0:0:0:
68,80,8550,1,8,0:0:0:0:
56,312,8708,1,0,3:0:0:0:
256,279,8865,6,0,P|288:209|258:137,1,160,2|8,3:2|0:0,0:0:0:0:
176,108,9338,1,0,3:0:0:0:
135,323,9496,2,0,L|55:311,1,80,4|0,0:3|3:0,0:0:0:0:
8,164,9811,2,0,L|88:152,1,80,8|0,0:0|1:0,0:0:0:0:
276,40,10126,6,0,B|252:124|308:112|284:200,1,160,0|8,3:2|0:0,0:0:0:0:
200,160,10599,1,0,0:0:0:0:
360,76,10757,2,0,L|448:84,1,80,0|0,3:0|3:0,0:0:0:0:
508,312,11073,2,0,L|428:304,1,80,8|2,0:0|0:0,0:0:0:0:
223,179,11389,6,0,P|146:172|89:225,1,160,4|8,3:0|0:0,0:0:0:0:
320,240,11860,1,2,0:0:0:0:
320,240,11938,1,0,0:0:0:0:
320,240,12017,1,0,0:0:0:0:
252,72,12174,1,0,3:0:0:0:
272,328,12331,1,8,0:0:0:0:
312,144,12488,1,0,1:0:0:0:
160,256,12645,6,0,L|76:248,1,80,2|2,3:2|0:3,0:0:0:0:
20,312,12960,1,8,0:0:0:0:
160,256,13118,1,0,0:0:0:0:
104,96,13276,2,0,P|96:136|104:176,1,80,2|0,3:0|3:0,0:0:0:0:
184,288,13592,1,8,0:0:0:0:
376,160,13750,6,0,P|304:120|224:136,1,160,2|2,0:3|0:3,0:0:0:0:
204,168,14145,1,0,0:0:0:0:
204,168,14223,2,0,L|192:84,1,80,8|2,0:0|0:3,0:0:0:0:
268,28,14539,6,0,L|320:32,1,40,4|0,0:3|0:0,0:0:0:0:
384,100,14697,2,0,P|424:104|464:88,1,80,0|8,3:0|0:0,0:0:0:0:
408,16,15013,1,2,0:3:0:0:
272,132,15171,2,0,B|260:188|296:228|296:228|284:288,1,160,4|8,3:0|0:0,0:0:0:0:
352,164,15645,1,2,0:3:0:0:
192,340,15802,2,0,L|176:260,1,80,0|2,3:0|3:0,0:0:0:0:
252,100,16118,1,8,0:0:0:0:
208,320,16276,1,2,0:3:0:0:
300,260,16434,6,0,P|340:252|380:264,1,80,0|2,3:0|0:3,0:0:0:0:
452,328,16750,1,8,0:0:0:0:
480,164,16908,1,0,3:0:0:0:
480,164,16988,1,0,0:0:0:0:
480,164,17067,1,4,0:3:0:0:
328,348,17225,1,0,3:0:0:0:
256,132,17383,1,8,0:0:0:0:
472,192,17542,1,6,0:3:0:0:
236,92,17700,6,0,L|256:228,1,120,4|0,0:0|0:0,0:0:0:0:
232,248,18017,1,8,0:0:0:0:
396,120,18175,1,2,0:0:0:0:
396,120,18254,1,0,0:0:0:0:
396,120,18333,1,0,3:0:0:0:
312,289,18492,1,0,3:0:0:0:
322,62,18650,1,8,0:0:0:0:
80,176,18808,1,2,0:0:0:0:
176,216,18966,6,0,P|184:176|176:136,1,80,4|2,0:3|0:3,0:0:0:0:
108,72,19284,1,8,0:0:0:0:
104,284,19443,1,0,3:0:0:0:
104,284,19523,1,0,0:0:0:0:
104,284,19602,2,0,L|188:276,1,80,2|0,0:3|3:0,0:0:0:0:
264,352,19920,1,8,0:0:0:0:
256,104,20080,1,4,3:0:0:0:
344,287,20239,6,0,P|421:294|477:240,1,160,4|8,3:2|0:0,0:0:0:0:
200,344,20870,2,0,L|112:336,1,80,0|0,3:0|3:0,0:0:0:0:
8,140,21186,2,0,L|87:147,1,80,8|0,0:0|1:0,0:0:0:0:
244,24,21502,6,0,B|256:80|256:80|240:136|240:136|248:188,1,160,0|0,3:0|1:0,0:0:0:0:
320,256,21975,1,0,0:0:0:0:
416,144,22133,2,0,P|376:136|332:144,1,80,0|0,1:0|3:0,0:0:0:0:
184,248,22449,2,0,P|144:253|105:245,1,80,8|2,0:0|3:2,0:0:0:0:
4,92,22765,6,0,P|28:164|-4:244,1,160,4|8,3:2|0:0,0:0:0:0:
132,368,23239,1,0,0:0:0:0:
240,180,23396,2,0,L|156:164,1,80,0|2,3:0|3:2,0:0:0:0:
332,260,23712,2,0,L|416:248,1,80,8|2,0:0|0:0,0:0:0:0:
492,72,24028,6,0,L|328:96,1,160,4|8,3:0|0:0,0:0:0:0:
168,184,24502,2,0,P|144:112|164:28,1,160,0|0,3:0|3:0,0:0:0:0:
316,208,24975,2,0,L|308:288,1,80,8|2,0:0|3:2,0:0:0:0:
80,176,25291,6,0,B|100:136|84:72|84:72|112:88|124:124,1,160,0|8,3:0|0:0,0:0:0:0:
127,252,25761,2,0,P|51:264|-4:211,1,160,0|0,0:0|3:0,0:0:0:0:
192,184,26232,2,0,P|215:215|220:254,1,80,8|0,0:0|3:0,0:0:0:0:
349,202,26545,6,0,L|320:360,1,160,4|8,3:0|0:0,0:0:0:0:
212,32,27176,1,4,0:3:0:0:
212,32,27334,1,0,3:0:0:0:
156,208,27492,2,0,L|72:196,1,80,8|2,0:0|0:0,0:0:0:0:
228,296,27808,6,0,L|396:288,1,160,4|10,3:0|0:0,0:0:0:0:
468,228,28281,1,0,0:0:0:0:
324,80,28439,2,0,L|336:160,1,80,4|0,3:0|3:0,0:0:0:0:
480,204,28755,1,8,0:0:0:0:
336,344,28913,1,0,3:0:0:0:
216,244,29071,6,0,P|256:236|296:244,1,80,4|0,3:0|0:0,0:0:0:0:
139,319,29387,2,0,P|114:245|134:169,1,160,8|4,0:0|0:3,0:0:0:0:
216,100,29862,1,0,3:0:0:0:
340,212,30020,2,0,L|432:198,1,80,8|0,0:0|0:0,0:0:0:0:
280,288,30337,6,0,L|184:276,1,80,4|2,3:0|0:0,0:0:0:0:
48,216,30654,1,8,0:0:0:0:
168,52,30812,1,2,0:0:0:0:
168,52,30970,2,0,P|176:92|164:136,1,80,0|0,3:0|3:0,0:0:0:0:
28,184,31287,1,8,0:0:0:0:
260,168,31445,1,0,0:0:0:0:
12,148,31603,6,0,L|24:320,1,160,0|8,3:0|0:0,0:0:0:0:
100,372,32076,1,2,0:0:0:0:
200,244,32234,2,0,P|164:232|124:240,1,80,4|0,0:3|3:0,0:0:0:0:
284,348,32550,2,0,L|372:340,1,80,8|2,0:0|0:0,0:0:0:0:
476,116,32866,6,0,B|452:152|452:152|464:268,1,160,4|8,3:2|0:0,0:0:0:0:
328,360,33342,1,0,0:0:0:0:
236,188,33500,2,0,L|320:184,1,80,0|0,3:0|3:0,0:0:0:0:
384,256,33818,1,8,0:0:0:0:
384,256,33977,1,2,0:0:0:0:
171,259,34135,6,0,P|141:188|173:117,1,160,0|8,3:0|0:0,0:0:0:0:
280,60,34606,1,2,0:0:0:0:
328,200,34763,2,0,L|248:192,1,80,0|0,3:0|3:0,0:0:0:0:
103,35,35077,2,0,P|50:27|41:80,1,120,8|0,0:0|0:0,0:0:0:0:
88,148,35391,6,0,B|172:136|156:204|240:196,1,160,0|8,3:0|0:0,0:0:0:0:
312,124,35862,1,2,0:0:0:0:
212,24,36019,2,0,L|220:108,1,80,0|0,3:0|3:0,0:0:0:0:
468,208,36333,2,0,L|460:124,1,80,8|2,0:0|0:3,0:0:0:0:
274,280,36648,5,0,3:0:0:0:
312,124,36805,1,2,0:3:0:0:
180,260,36962,6,0,L|192:316,2,53.3333333333333,8|0|0,0:0|0:0|0:0,0:0:0:0:
76,164,37276,2,0,L|191:139,1,80,2|0,0:0|3:0,0:0:0:0:
248,68,37590,2,0,L|133:43,1,80,8|4,0:0|0:0,0:0:0:0:
364,159,37904,6,0,P|385:83|371:5,1,160,4|8,3:2|0:0,0:0:0:0:
221,191,38372,1,0,0:0:0:0:
392,260,38529,2,0,L|480:248,1,80,0|0,3:0|3:0,0:0:0:0:
268,352,38841,2,0,L|184:344,1,80,8|2,0:0|0:3,0:0:0:0:
48,288,39154,6,0,B|72:232|48:168|48:168|80:192,1,160,2|8,3:2|0:0,0:0:0:0:
77,190,39622,1,0,3:0:0:0:
268,264,39779,2,0,L|184:256,1,80,4|0,0:3|3:0,0:0:0:0:
176,124,40091,1,8,0:0:0:0:
140,332,40247,1,2,0:3:0:0:
340,308,40404,6,0,B|360:256|336:212|336:212|376:224|400:212,1,160,4|8,0:0|0:0,0:0:0:0:
364,120,40870,1,2,0:0:0:0:
176,192,41025,2,0,P|160:232|160:272,1,80,0|2,3:0|3:2,0:0:0:0:
280,132,41336,2,0,P|252:96|212:76,1,80,8|0,0:0|0:0,0:0:0:0:
280,256,41647,6,0,L|440:240,1,160,0|8,3:0|0:0,0:0:0:0:
500,320,42113,1,0,3:0:0:0:
291,335,42269,1,0,1:0:0:0:
291,335,42347,1,0,1:0:0:0:
291,335,42424,2,0,L|279:255,1,80,0|8,3:0|0:0,0:0:0:0:
202,80,42735,2,0,L|190:120,1,40,0|0,1:0|1:0,0:0:0:0:
112,180,42891,6,0,B|56:184|16:132|16:132|24:180,1,160,4|8,1:2|0:0,0:0:0:0:
76,300,43345,1,0,0:0:0:0:
208,196,43497,2,0,P|200:144|188:112,1,80,0|0,3:0|3:0,0:0:0:0:
316,20,43800,2,0,L|304:104,1,80,8|2,0:0|0:3,0:0:0:0:
296,292,44103,6,0,P|374:288|436:337,1,160,2|8,3:2|0:0,0:0:0:0:
212,372,44557,2,0,B|184:320|184:320|204:216,1,160,0|0,0:0|3:0,0:0:0:0:
308,64,45012,2,0,L|328:152,1,80,8|2,0:0|0:3,0:0:0:0:
428,239,45315,6,0,P|469:173|459:95,1,160,2|8,3:2|0:0,0:0:0:0:
228,204,45767,2,0,B|176:196|176:196|120:220|120:220|64:208,1,160,0|0,0:0|3:0,0:0:0:0:
108,120,46219,1,8,0:0:0:0:
188,288,46370,1,2,0:3:0:0:
324,147,46521,6,0,P|316:70|252:28,1,160,2|8,3:2|0:0,0:0:0:0:
187,236,46973,2,0,P|195:313|259:355,1,160,0|0,3:0|3:0,0:0:0:0:
256,60,47425,1,8,0:0:0:0:
276,264,47576,1,2,0:3:0:0:
116,184,47727,6,0,B|84:244|112:292|112:292|88:296|68:272,1,160,2|8,3:2|0:0,0:0:0:0:
72,87,48172,2,0,P|148:74|208:123,1,160,0|0,0:0|3:0,0:0:0:0:
292,184,48618,2,0,P|312:144|308:104,1,80,8|2,0:0|0:3,0:0:0:0:
60,32,48915,6,0,L|73:191,1,160,2|8,3:2|0:0,0:0:0:0:
32,280,49356,1,2,3:0:0:0:
184,352,49503,2,0,P|224:360|264:352,1,80,4|0,0:3|3:0,0:0:0:0:
400,204,49797,2,0,L|316:196,1,80,8|0,3:2|3:0,0:0:0:0:
200,100,50091,6,0,P|216:177|200:255,1,160,2|8,3:2|0:0,0:0:0:0:
104,172,50536,1,0,0:0:0:0:
160,19,50685,2,0,P|198:12|238:19,1,80,4|2,0:3|0:3,0:0:0:0:
400,124,50982,2,0,P|360:131|321:123,1,80,8|0,0:0|3:0,0:0:0:0:
476,52,51279,6,0,P|504:124|474:197,1,160,2|8,3:2|0:0,0:0:0:0:
474,197,51724,1,0,0:0:0:0:
328,348,51873,2,0,L|248:344,1,80,4|0,0:3|3:0,0:0:0:0:
128,128,52164,2,0,L|208:132,1,80,8|2,0:0|0:3,0:0:0:0:
384,28,52455,6,0,B|360:64|360:64|376:184,1,160,4|8,0:0|0:0,0:0:0:0:
464,112,52896,1,0,0:0:0:0:
356,228,53043,2,0,P|320:236|280:224,1,80,0|0,3:0|3:0,0:0:0:0:
207,131,53337,1,8,0:0:0:0:
304,28,53484,1,2,0:0:0:0:
180,222,53631,6,0,P|109:253|41:215,1,160,2|8,3:0|0:0,0:0:0:0:
115,159,54065,1,0,3:0:0:0:
304,28,54210,2,0,P|312:68|304:108,1,80,4|0,0:3|3:0,0:0:0:0:
396,228,54500,2,0,P|388:188|396:149,1,80,8|2,0:0|0:0,0:0:0:0:
472,280,54790,6,0,L|312:264,1,160,2|8,3:0|0:0,0:0:0:0:
240,320,55225,1,4,0:3:0:0:
228,112,55370,2,0,L|240:192,1,80,0|0,3:0|3:0,0:0:0:0:
308,68,55659,2,0,P|284:36|248:24,1,80,8|2,0:0|0:0,0:0:0:0:
368,228,55949,6,0,P|442:245|498:192,1,160,2|8,3:0|0:0,0:0:0:0:
420,164,56394,1,4,0:3:0:0:
296,44,56543,1,2,0:0:0:0:
333,145,56691,1,0,3:0:0:0:
307,17,56840,1,8,0:0:0:0:
224,160,56988,1,4,0:0:0:0:
224,160,57062,1,0,0:0:0:0:
224,160,57137,6,0,L|136:152,1,80,6|2,3:0|0:3,0:0:0:0:
72,204,57425,1,8,0:0:0:0:
240,176,57569,1,0,0:0:0:0:
136,332,57713,2,0,L|148:244,1,80,0|0,3:0|3:0,0:0:0:0:
120,68,58002,1,8,0:0:0:0:
264,160,58146,5,2,0:0:0:0:
264,160,58218,1,0,0:0:0:0:
264,159,58290,2,0,P|302:152|342:159,1,80,2|2,3:3|0:3,0:0:0:0:
472,340,58579,2,0,P|433:347|393:340,1,80,8|0,0:0|0:0,0:0:0:0:
199,235,58867,2,0,P|171:162|196:88,1,160,4|8,0:3|0:0,0:0:0:0:
284,36,59300,1,6,0:0:0:0:
408,168,59444,6,0,P|368:176|320:164,1,80,6|2,3:0|0:3,0:0:0:0:
476,100,59729,2,0,P|504:168|468:248,1,160,8|0,0:0|3:0,0:0:0:0:
312,348,60158,1,0,3:0:0:0:
340,172,60301,1,8,0:0:0:0:
480,276,60444,1,2,3:2:0:0:
328,320,60586,6,0,L|240:312,1,80,2|2,1:2|0:0,0:0:0:0:
168,152,60873,2,0,L|80:144,1,80,8|0,0:0|1:0,0:0:0:0:
72,160,61088,1,0,0:0:0:0:
72,160,61160,1,2,1:2:0:0:
232,80,61303,1,0,1:0:0:0:
208,256,61447,1,8,0:0:0:0:
72,160,61590,1,0,1:0:0:0:
168,16,61734,6,0,L|188:176,1,160,6|8,0:0|0:0,0:0:0:0:
152,332,62162,1,2,0:2:0:0:
312,268,62305,2,0,P|352:260|392:272,1,80,0|0,3:0|3:0,0:0:0:0:
136,344,62591,2,0,P|88:344|72:276,1,120,8|0,0:0|0:0,0:0:0:0:
56,196,62876,6,0,L|41:274,1,80,2|0,3:2|0:0,0:0:0:0:
136,168,63162,2,0,P|116:128|84:112,1,80,8|2,0:0|3:2,0:0:0:0:
85,112,63376,1,0,0:0:0:0:
85,112,63448,1,4,0:3:0:0:
120,256,63591,1,0,3:0:0:0:
280,188,63734,1,8,0:0:0:0:
100,240,63876,1,0,3:0:0:0:
200,64,64019,6,0,P|192:108|204:144,1,80,2|0,3:2|0:0,0:0:0:0:
296,168,64302,1,8,0:0:0:0:
380,32,64443,1,2,3:0:0:0:
380,32,64514,1,0,0:0:0:0:
380,32,64585,2,0,L|300:24,1,80,4|0,3:0|1:0,0:0:0:0:
168,44,64797,2,0,L|212:48,1,40,0|8,0:0|0:0,0:0:0:0:
320,140,65009,1,0,0:0:0:0:
