osu file format v14

[General]
AudioFilename: audio.mp3
AudioLeadIn: 0
PreviewTime: 32155
Countdown: 0
SampleSet: Soft
StackLeniency: 0.7
Mode: 0
LetterboxInBreaks: 0
WidescreenStoryboard: 0

[Editor]
DistanceSpacing: 1.1
BeatDivisor: 4
GridSize: 4
TimelineZoom: 3.299999

[Metadata]
Title:Unknown Title
TitleUnicode:Unknown Title
Artist:Wan Ho-Kit, Lee Hon-Kam
ArtistUnicode:溫浩傑、李漢金
Creator:Monstrata
Version:Let's show them Forest's Easy stance.
Source:超級學校霸王
Tags:future cops underforest ezek armin a_r_m_i_n habiholic chaoslitz
BeatmapID:1002370
BeatmapSetID:468614

[Difficulty]
HPDrainRate:2
CircleSize:2.5
OverallDifficulty:2
ApproachRate:3
SliderMultiplier:0.9
SliderTickRate:1

[Events]
//Background and Video events
0,0,"ok.jpg",0,0
Video,-266,"chunlifuturecop.avi"
//Break Periods
//Storyboard Layer 0 (Background)
//Storyboard Layer 1 (Fail)
//Storyboard Layer 2 (Pass)
//Storyboard Layer 3 (Foreground)
//Storyboard Sound Samples

[TimingPoints]
2570,314.13612565445,4,2,2,70,1,0
5083,315.236979399263,4,2,2,70,1,0
10126,315.789473684211,4,2,2,70,1,0
11389,314.13612565445,4,2,2,70,1,0
12645,315.789473684211,4,2,2,70,1,0
16434,316.622691292876,4,2,2,70,1,0
18966,318.302387267905,4,2,2,70,1,0
20239,315.789473684211,4,2,2,70,1,0
25291,313.725490196078,4,2,2,70,1,0
26545,315.789473684211,4,2,2,70,1,0
29071,316.622691292876,4,2,2,70,1,0
31603,315.789473684211,4,2,2,70,1,0
32866,317.460317460317,4,2,2,70,1,0
34135,314.13612565445,4,2,2,70,1,0
37904,312.5,4,2,2,70,1,0
40404,310.880829015544,4,2,2,70,1,0
42891,303.030303030303,4,2,2,70,1,0
45315,301.507537688442,4,2,2,70,1,0
47727,297.029702970297,4,2,2,70,1,0
48915,294.117647058824,4,2,2,70,1,0
50091,297.029702970297,4,2,2,70,1,0
51873,291.26213592233,4,2,2,70,1,0
52455,294.117647058824,4,2,2,70,1,0
53631,289.855072463768,4,2,2,70,1,0
55949,297.029702970297,4,2,2,70,1,0
57137,288.461538461538,4,2,2,70,1,0
59444,285.714285714286,4,2,2,70,1,0
60586,287.081339712919,4,2,2,70,1,0
61734,285.714285714286,4,2,2,70,1,0
64019,283.018867924528,4,2,2,70,1,0
64868,-100,4,2,2,70,0,0
65009,-100,4,2,2,20,0,0
66778,-100,4,2,2,70,0,0

[Colours]
Combo1 : 255,64,64
Combo2 : 55,155,255
Combo3 : 128,128,255
Combo4 : 255,51,153

[HitObjects]
26,126,2569,6,0,L|210:112,1,180.000001192093,0|2,3:0|3:2,0:0:0:0:
305,107,3512,1,8,0:0:0:0:
380,43,3826,2,0,P|402:89|396:139,1,90.0000005960464,0|10,3:0|0:0,0:0:0:0:
372,222,4454,2,0,P|350:268|356:318,1,90.0000005960464,0|8,0:0|0:0,0:0:0:0:
435,358,5083,6,0,L|244:369,1,180.000001192093,2|0,3:2|3:0,0:0:0:0:
170,317,6028,1,8,0:0:0:0:
122,230,6343,2,0,P|61:230|0:173,2,135,2|0|8,3:0|3:0|0:0,0:0:0:0:
92,135,7604,6,0,B|115:91|99:55|99:55|152:76|197:54,1,180.000001192093,2|2,3:2|3:2,0:0:0:0:
276,109,8550,1,8,0:0:0:0:
372,129,8865,2,0,B|368:175|368:175|379:236,1,90.0000005960464,2|8,3:2|0:0,0:0:0:0:
469,249,9496,2,0,B|473:295|473:295|462:356,1,90.0000005960464,4|8,0:3|0:0,0:0:0:0:
366,337,10126,6,0,L|266:347,1,90.0000005960464,0|8,3:2|0:0,0:0:0:0:
193,291,10757,2,0,L|103:282,1,90.0000005960464,0|8,3:0|0:0,0:0:0:0:
26,345,11389,2,0,P|53:278|24:169,1,180.000001192093,4|0,3:0|0:0,0:0:0:0:
96,103,12331,1,8,0:0:0:0:
190,77,12645,6,0,B|228:60|228:60|275:79,2,90.0000005960464,2|8|2,3:2|0:0|3:0,0:0:0:0:
233,165,13592,1,8,0:0:0:0:
326,197,13908,2,0,P|383:169|482:219,1,180.000001192093,0|4,3:0|0:3,0:0:0:0:
395,266,14855,1,8,0:0:0:0:
314,323,15171,6,0,P|275:339|219:331,2,90.0000005960464,4|8|0,3:0|0:0|3:0,0:0:0:0:
444,174,16434,2,0,L|444:68,1,90.0000005960464,0|8,3:0|0:0,0:0:0:0:
356,39,17067,2,0,P|313:49|261:33,1,90.0000005960464,4|8,0:3|0:0,0:0:0:0:
194,102,17700,6,0,B|209:144|209:144|200:194,2,90.0000005960464,4|8|0,0:0|0:0|3:0,0:0:0:0:
95,88,18650,1,8,0:0:0:0:
61,180,18966,2,0,B|26:212|26:212|76:271|52:341,1,180.000001192093,4|2,0:3|0:3,0:0:0:0:
250,302,20239,6,0,P|308:318|355:307,2,90.0000005960464,4|8|0,3:2|0:0|3:0,0:0:0:0:
304,219,21186,1,8,0:0:0:0:
375,150,21502,2,0,P|380:89|383:47,2,90.0000005960464,0|0|0,3:0|1:0|1:0,0:0:0:0:
278,127,22449,1,8,0:0:0:0:
183,157,22765,6,0,L|77:171,1,90.0000005960464,4|8,3:2|0:0,0:0:0:0:
121,264,23396,2,0,L|210:251,1,90.0000005960464,0|8,3:0|0:0,0:0:0:0:
304,219,24028,2,0,P|305:257|331:307,2,90.0000005960464,4|8|4,3:0|0:0|0:3,0:0:0:0:
401,236,24975,1,8,0:0:0:0:
498,217,25291,6,0,P|508:171|497:122,1,90.0000005960464,0|8,3:0|0:0,0:0:0:0:
402,113,25918,2,0,P|392:67|403:18,1,90.0000005960464,4|8,3:0|0:0,0:0:0:0:
301,34,26545,2,0,B|194:72|233:2|126:36,1,180.000001192093,4|4,3:0|0:3,0:0:0:0:
44,89,27492,1,8,0:0:0:0:
110,164,27808,6,0,B|98:209|98:209|108:257,1,90.0000005960464,4|10,3:0|0:0,0:0:0:0:
204,265,28439,2,0,B|213:307|213:307|201:352,1,90.0000005960464,4|8,3:0|0:0,0:0:0:0:
299,355,29071,2,0,L|399:363,1,90.0000005960464,4|8,3:0|0:0,0:0:0:0:
437,275,29704,2,0,L|336:266,1,90.0000005960464,4|8,0:3|0:0,0:0:0:0:
288,186,30337,6,0,P|319:110|267:27,1,180.000001192093,4|0,3:0|3:0,0:0:0:0:
219,114,31287,1,8,0:0:0:0:
139,172,31603,2,0,P|86:130|18:80,2,135.00000089407,0|2|8,3:0|0:0|0:0,0:0:0:0:
174,264,32866,6,0,P|127:270|81:253,2,90,4|8|0,3:2|0:0|3:0,0:0:0:0:
251,201,33818,1,8,0:0:0:0:
346,230,34135,2,0,B|396:222|438:247|438:247|428:194|463:157,1,180.000001192093,0|0,3:0|3:0,0:0:0:0:
416,75,35077,1,8,0:0:0:0:
323,40,35391,6,0,P|257:27|217:37,2,90.0000005960464,0|8|0,3:0|0:0|3:0,0:0:0:0:
268,230,36648,1,0,3:0:0:0:
180,183,36962,1,8,0:0:0:0:
90,225,37276,2,0,P|93:296|94:321,1,90.0000005960464,2|8,0:0|0:0,0:0:0:0:
191,334,37904,6,0,B|233:348|233:348|297:329,2,90.0000005960464,4|8|0,3:2|0:0|3:0,0:0:0:0:
233,244,38841,1,8,0:0:0:0:
331,228,39154,2,0,B|349:144|349:144|325:94|336:52,1,180.000001192093,2|4,3:2|0:3,0:0:0:0:
136,61,40404,6,0,P|72:35|1:63,2,135.00000089407,4|2|8,0:0|0:0|0:0,0:0:0:0:
231,88,41647,2,0,P|294:112|365:86,2,135.00000089407,0|0|8,3:0|3:0|0:0,0:0:0:0:
160,161,42891,6,0,L|136:258,1,90.0000005960464,4|8,1:2|0:0,0:0:0:0:
302,359,43800,1,8,0:0:0:0:
394,324,44103,2,0,P|438:332|499:338,1,90.0000005960464,2|8,3:2|0:0,0:0:0:0:
488,238,44709,2,0,P|477:194|492:153,1,90.0000005960464,4|8,0:3|0:0,0:0:0:0:
439,68,45315,6,0,B|382:46|306:75|306:75|244:48|173:69,1,270.000001788139,2|8,3:2|0:0,0:0:0:0:
79,94,46521,2,0,B|90:141|90:141|83:182,1,90.0000005960464,2|8,3:2|0:0,0:0:0:0:
99,279,47124,2,0,B|142:288|142:288|189:279,1,90.0000005960464,4|8,0:3|0:0,0:0:0:0:
275,328,47727,6,0,P|324:369|310:256,1,270.000001788139,2|8,3:2|0:0,0:0:0:0:
362,162,48915,2,0,P|426:189|448:219,2,90.0000005960464,2|8|4,3:2|0:0|0:3,0:0:0:0:
263,171,49797,1,8,3:2:0:0:
169,141,50091,6,0,L|23:129,2,135.00000089407,2|0|8,3:2|0:0|0:0,0:0:0:0:
263,171,51279,2,0,P|253:214|264:257,1,90.0000005960464,2|8,3:2|0:0,0:0:0:0:
332,332,51873,2,0,P|376:344|419:334,1,90.0000005960464,4|8,0:3|0:0,0:0:0:0:
483,260,52455,6,0,L|474:165,1,90.0000005960464,4|8,0:0|0:0,0:0:0:0:
398,106,53043,1,0,3:0:0:0:
311,157,53337,1,8,0:0:0:0:
225,207,53631,2,0,P|209:163|228:106,2,90.0000005960464,2|8|4,3:0|0:0|0:3,0:0:0:0:
190,299,54500,1,8,0:0:0:0:
275,348,54790,6,0,B|315:291|315:291|361:328|419:307,1,180.000001192093,2|0,3:0|3:0,0:0:0:0:
377,218,55659,1,8,0:0:0:0:
470,192,55949,2,0,B|488:124|488:124|471:73|471:73|489:17,1,180.000001192093,2|2,3:0|0:0,0:0:0:0:
284,33,57137,6,0,P|196:49|181:43,1,90.0000005960464,6|8,3:0|0:0,0:0:0:0:
125,116,57713,2,0,P|146:160|141:201,1,90.0000005960464,0|8,3:0|0:0,0:0:0:0:
218,261,58290,2,0,P|197:283|129:296,2,90.0000005960464,2|8|4,3:3|0:0|0:3,0:0:0:0:
307,303,59156,1,8,0:0:0:0:
400,267,59444,6,0,B|364:175|425:193|397:91,1,180.000001192093,6|0,3:0|3:0,0:0:0:0:
308,47,60301,1,8,0:0:0:0:
210,55,60586,2,0,P|120:88|159:127,1,180.000001192093,2|2,1:2|1:2,0:0:0:0:
223,305,61734,6,0,P|164:321|137:317,1,90.0000005960464,6|8,0:0|0:0,0:0:0:0:
60,253,62305,2,0,P|68:186|46:157,1,90.0000005960464,0|8,3:0|0:0,0:0:0:0:
145,122,62876,2,0,B|174:105|174:105|235:105,1,90.0000005960464,2|8,3:2|0:0,0:0:0:0:
303,37,63448,2,0,B|332:53|332:53|393:53,1,90.0000005960464,4|8,0:3|0:0,0:0:0:0:
460,123,64019,6,0,P|484:83|482:30,2,90.0000005960464,2|8|4,3:2|0:0|3:0,0:0:0:0:
256,192,64868,12,8,66778,1:2:0:0:
