osu file format v14

[General]
AudioFilename: audio.mp3
AudioLeadIn: 0
PreviewTime: 32155
Countdown: 0
SampleSet: Soft
StackLeniency: 0.7
Mode: 0
LetterboxInBreaks: 0
WidescreenStoryboard: 0

[Editor]
Bookmarks: 10599,66743
DistanceSpacing: 0.9
BeatDivisor: 8
GridSize: 4
TimelineZoom: 3.299999

[Metadata]
Title:Unknown Title
TitleUnicode:Unknown Title
Artist:Wan Ho-Kit, Lee Hon-Kam
ArtistUnicode:溫浩傑、李漢金
Creator:Monstrata
Version:Let's show them Chaoz's Extra stance.
Source:超級學校霸王
Tags:future cops underforest ezek armin a_r_m_i_n habiholic chaoslitz
BeatmapID:1007077
BeatmapSetID:468614

[Difficulty]
HPDrainRate:6
CircleSize:4
OverallDifficulty:8.5
ApproachRate:9.2
SliderMultiplier:1.7
SliderTickRate:1

[Events]
//Background and Video events
Video,-266,"chunlifuturecop.avi"
0,0,"ok.jpg",0,0
//Break Periods
//Storyboard Layer 0 (Background)
//Storyboard Layer 1 (Fail)
//Storyboard Layer 2 (Pass)
//Storyboard Layer 3 (Foreground)
//Storyboard Sound Samples

[TimingPoints]
2570,314.13612565445,4,2,2,70,1,0
5083,315.236979399263,4,2,2,70,1,0
10126,315.789473684211,4,2,2,70,1,0
11389,314.13612565445,4,2,2,70,1,0
12645,315.789473684211,4,2,2,70,1,0
16434,316.622691292876,4,2,2,70,1,0
18966,318.302387267905,4,2,2,70,1,0
20239,315.789473684211,4,2,2,70,1,0
25291,313.725490196078,4,2,2,70,1,0
26545,315.789473684211,4,2,2,70,1,0
29071,316.622691292876,4,2,2,70,1,0
31603,315.789473684211,4,2,2,70,1,0
32866,317.460317460317,4,2,2,70,1,0
34135,314.13612565445,4,2,2,70,1,0
37904,312.5,4,2,2,70,1,0
40404,310.880829015544,4,2,2,70,1,0
42891,303.030303030303,4,2,2,70,1,0
45315,301.507537688442,4,2,2,70,1,0
47727,297.029702970297,4,2,2,70,1,0
48915,294.117647058824,4,2,2,70,1,0
50091,297.029702970297,4,2,2,70,1,0
51873,291.26213592233,4,2,2,70,1,0
52455,294.117647058824,4,2,2,70,1,0
53631,289.855072463768,4,2,2,70,1,0
55949,297.029702970297,4,2,2,70,1,0
57137,288.461538461538,4,2,2,70,1,0
59444,285.714285714286,4,2,2,70,1,0
60586,287.081339712919,4,2,2,70,1,0
61734,285.714285714286,4,2,2,70,1,0
64019,283.018867924528,4,2,2,70,1,0
64868,-133.333333333333,4,2,2,70,0,0
65009,-100,4,2,2,20,0,0
66778,-100,4,2,2,70,0,0

[Colours]
Combo1 : 255,64,64
Combo2 : 55,155,255
Combo3 : 128,128,255
Combo4 : 255,51,153

[HitObjects]
57,192,2569,6,0,P|139:194|195:134,1,170,0|8,3:0|0:0,0:0:0:0:
176,38,3041,1,0,0:0:0:0:
353,77,3198,2,0,L|269:68,1,85,2|0,3:2|3:0,0:0:0:0:
101,102,3512,1,8,0:0:0:0:
101,102,3669,1,0,1:0:0:0:
160,283,3826,6,0,P|165:325|169:367,1,85,0|0,3:0|3:0,0:0:0:0:
254,214,4140,2,0,L|301:208,1,42.5,10|0,0:0|0:0,0:0:0:0:
270,194,4297,2,0,L|317:188,1,42.5,2|0,3:2|0:0,0:0:0:0:
416,175,4454,1,0,0:0:0:0:
302,318,4611,2,0,L|349:312,1,42.5,2|0,3:2|0:0,0:0:0:0:
318,298,4768,2,0,L|365:292,1,42.5,8|0,0:0|0:0,0:0:0:0:
464,279,4925,1,0,1:0:0:0:
351,91,5083,5,2,3:2:0:0:
360,292,5240,1,0,0:0:0:0:
500,167,5398,2,0,P|458:171|416:174,1,85,8|2,0:0|0:0,0:0:0:0:
270,194,5713,2,0,P|273:216|275:236,1,42.5,0|0,3:0|0:0,0:0:0:0:
286,338,5871,1,0,3:0:0:0:
178,179,6028,2,0,P|183:221|187:263,1,85,8|0,0:0|1:0,0:0:0:0:
109,87,6343,6,0,L|173:92,1,42.5,2|0,3:0|0:0,0:0:0:0:
230,55,6501,1,2,0:0:0:0:
230,55,6580,1,0,0:0:0:0:
230,55,6659,2,0,P|276:59|315:63,1,85,8|0,0:0|3:0,0:0:0:0:
362,238,6974,2,0,P|360:216|356:195,1,42.5,4|0,0:3|0:0,0:0:0:0:
439,104,7132,2,0,P|417:107|396:109,1,42.5,0|0,3:0|0:0,0:0:0:0:
262,146,7289,1,8,0:0:0:0:
450,201,7447,1,0,1:0:0:0:
275,236,7604,6,0,P|278:258|280:278,1,42.5,2|0,3:2|0:0,0:0:0:0:
351,328,7762,2,0,P|347:351|345:370,1,42.5,0|0,0:0|0:0,0:0:0:0:
153,362,7920,2,0,P|195:358|238:355,1,85,8|0,0:0|0:0,0:0:0:0:
362,238,8235,1,2,3:2:0:0:
344,370,8392,1,8,3:0:0:0:
189,196,8550,2,0,P|180:239|191:279,1,85,8|0,0:0|3:0,0:0:0:0:
275,236,8865,5,2,3:2:0:0:
275,236,9023,1,0,0:0:0:0:
101,114,9181,2,0,L|104:156,1,42.5,8|0,0:0|0:0,0:0:0:0:
275,236,9338,2,0,L|278:193,1,42.5,0|0,3:0|0:0,0:0:0:0:
180,61,9496,2,0,L|183:103,1,42.5,4|0,0:3|0:0,0:0:0:0:
275,236,9653,1,0,3:0:0:0:
259,8,9811,2,0,L|262:50,1,42.5,8|0,0:0|0:0,0:0:0:0:
189,196,9969,1,0,1:0:0:0:
367,56,10126,6,0,P|444:28|512:74,1,170,0|8,3:2|0:0,0:0:0:0:
499,181,10599,2,0,P|421:208|353:162,1,170,0|0,0:0|3:0,0:0:0:0:
289,18,11073,2,0,P|284:42|280:74,1,42.5,8|0,0:0|0:0,0:0:0:0:
196,45,11231,2,0,P|198:66|202:94,1,42.5,2|0,0:0|0:0,0:0:0:0:
13,181,11389,6,0,P|90:208|158:162,1,170,4|8,3:0|0:0,0:0:0:0:
69,28,11860,1,2,0:0:0:0:
69,28,12017,2,0,P|75:68|80:113,1,85,0|0,0:0|3:0,0:0:0:0:
157,162,12331,1,8,0:0:0:0:
53,260,12488,2,0,P|76:258|97:256,1,42.5,0|0,1:0|0:0,0:0:0:0:
242,154,12645,6,0,L|157:162,1,85,2|2,3:2|0:3,0:0:0:0:
294,238,12960,2,0,L|209:245,1,85,8|0,0:0|0:0,0:0:0:0:
95,256,13276,2,0,P|81:321|188:365,1,170,2|8,3:0|0:0,0:0:0:0:
209,245,13750,2,0,L|204:297,1,42.5,2|0,0:3|0:0,0:0:0:0:
285,322,13908,6,0,L|294:237,1,85,0|2,3:0|0:3,0:0:0:0:
203,57,14223,1,8,0:0:0:0:
198,72,14302,2,0,P|228:100|270:107,1,85
289,102,14539,2,0,P|339:97|384:126,1,85,4|0,0:3|3:0,0:0:0:0:
416,176,14776,1,0,0:0:0:0:
416,176,14855,2,0,L|407:261,1,85,8|2,0:0|0:3,0:0:0:0:
136,231,15171,6,0,P|178:227|220:223,1,85,4|2,3:0|0:0,0:0:0:0:
255,360,15487,2,0,P|212:363|170:368,1,85,8|2,0:0|0:3,0:0:0:0:
137,367,15723,2,0,P|108:309|127:247,3,127.5,0|2|2|0,0:0|3:0|0:0|3:0,0:0:0:0:
220,222,16592,5,2,0:3:0:0:
316,192,16750,2,0,L|322:107,1,85,8|0,0:0|3:0,0:0:0:0:
256,36,17067,1,4,0:3:0:0:
209,126,17225,1,0,3:0:0:0:
116,139,17383,1,8,0:0:0:0:
52,82,17542,1,6,0:3:0:0:
127,153,17700,6,0,P|123:195|120:237,1,85,4|0,0:0|0:0,0:0:0:0:
104,340,18017,2,0,P|142:321|180:303,1,85,8|2,0:0|0:0,0:0:0:0:
350,193,18333,2,0,P|284:242|206:217,1,170,0|8,3:0|0:0,0:0:0:0:
270,154,18808,1,2,0:0:0:0:
350,193,18966,5,4,0:3:0:0:
206,217,19125,1,2,0:3:0:0:
182,72,19284,1,8,0:0:0:0:
327,48,19443,1,0,3:0:0:0:
350,192,19602,2,0,P|342:277|335:362,1,170,2|8,0:3|0:0,0:0:0:0:
429,255,20080,2,0,L|424:310,1,42.5,4|0,3:0|0:0,0:0:0:0:
500,187,20239,6,0,P|424:156|351:194,1,170,4|8,3:2|0:0,0:0:0:0:
256,288,20712,1,0,0:0:0:0:
161,194,20870,1,0,3:0:0:0:
161,194,21028,1,0,3:0:0:0:
256,99,21186,2,0,L|159:107,1,85,8|0,0:0|1:0,0:0:0:0:
76,200,21423,1,0,0:0:0:0:
76,200,21502,6,0,L|160:193,1,85,0|0,3:0|0:0,0:0:0:0:
350,194,21817,2,0,L|345:249,1,42.5,0|0,1:0|0:0,0:0:0:0:
256,288,21975,2,0,L|259:245,1,42.5,0|0,1:0|0:0,0:0:0:0:
352,256,22133,2,0,L|344:341,1,85,0|0,1:0|3:0,0:0:0:0:
156,281,22449,1,8,0:0:0:0:
165,369,22607,1,2,3:2:0:0:
344,341,22765,6,0,P|403:331|431:220,1,170,4|8,3:2|0:0,0:0:0:0:
377,172,23239,1,0,0:0:0:0:
269,248,23396,2,0,P|311:252|353:256,1,85,0|2,3:0|3:2,0:0:0:0:
160,130,23712,2,0,L|165:173,1,42.5,8|0,0:0|0:0,0:0:0:0:
180,263,23870,1,2,0:0:0:0:
260,72,24028,6,0,P|257:114|255:157,1,85,4|2,3:0|0:0,0:0:0:0:
353,256,24344,1,8,0:0:0:0:
126,341,24502,2,0,P|89:291|92:229,1,127.5,0|0,3:0|0:0,0:0:0:0:
92,229,24817,2,0,P|49:224|7:218,1,85,0|8,3:0|0:0,0:0:0:0:
160,130,25133,1,2,3:2:0:0:
340,276,25291,2,0,B|262:242|262:242|180:263,1,170,0|8,3:0|0:0,0:0:0:0:
251,363,25761,1,0,0:0:0:0:
352,139,25918,6,0,P|355:160|358:182,1,42.5,4|0,3:0|0:0,0:0:0:0:
422,329,26075,2,0,P|426:286|430:244,1,85,0|8,3:0|0:0,0:0:0:0:
339,275,26389,1,0,3:0:0:0:
496,159,26545,6,0,P|429:112|352:139,1,170,4|8,3:0|0:0,0:0:0:0:
256,61,27018,2,0,P|214:88|138:75,1,127.5,0|0,0:0|0:0,0:0:0:0:
127,68,27334,2,0,P|84:73|42:77,1,85,0|8,3:0|0:0,0:0:0:0:
179,180,27650,1,2,0:0:0:0:
179,180,27808,6,0,P|94:190|9:199,1,170,4|10,3:0|0:0,0:0:0:0:
75,371,28281,2,0,L|83:284,1,85,0|4,0:0|3:0,0:0:0:0:
82,286,28596,1,0,3:0:0:0:
179,180,28755,2,0,L|186:264,1,85,8|0,0:0|3:0,0:0:0:0:
255,355,29071,5,4,3:0:0:0:
255,355,29150,2,0,L|260:304,1,42.5,0|0,0:0|1:0,0:0:0:0:
256,112,29387,1,8,0:0:0:0:
473,165,29545,2,0,P|420:130|334:150,1,127.5,2|0,0:0|0:0,0:0:0:0:
337,148,29862,6,0,P|341:118|347:78,3,56.6666666666667,0|2|2|0,3:0|0:0|0:0|3:0,0:0:0:0:
173,118,30337,6,0,P|214:106|256:112,1,85,4|2,3:0|0:0,0:0:0:0:
384,234,30654,2,0,P|344:246|302:240,1,85,8|2,0:0|0:0,0:0:0:0:
256,112,30970,1,0,3:0:0:0:
256,112,31129,1,0,3:0:0:0:
101,210,31287,2,0,P|104:230|106:252,1,42.5,8|0,0:0|0:0,0:0:0:0:
96,333,31445,1,0,0:0:0:0:
313,330,31603,6,0,P|239:276|157:313,2,170,0|8|4,3:0|0:0|0:3,0:0:0:0:
231,365,32392,1,0,3:0:0:0:
221,191,32550,1,8,0:0:0:0:
401,252,32708,2,0,P|398:273|396:294,1,42.5,2|0,0:0|0:0,0:0:0:0:
313,330,32866,6,0,L|323:214,1,85,4|2,3:2|0:3,0:0:0:0:
353,164,33183,1,8,0:0:0:0:
426,110,33342,1,0,0:0:0:0:
341,147,33500,2,0,P|263:169|198:120,1,170,0|8,3:0|0:0,0:0:0:0:
123,32,33977,2,0,P|121:53|119:74,1,42.5,2|0,0:0|0:0,0:0:0:0:
36,171,34135,6,0,P|78:167|120:164,1,85,0|2,3:0|0:3,0:0:0:0:
195,262,34449,1,8,0:0:0:0:
182,373,34606,1,2,0:0:0:0:
71,360,34763,1,0,3:0:0:0:
84,249,34920,1,0,3:0:0:0:
182,373,35077,1,8,0:0:0:0:
330,373,35234,2,0,L|326:327,1,42.5,2|0,0:3|0:0,0:0:0:0:
256,174,35391,5,0,3:0:0:0:
291,260,35548,1,2,0:3:0:0:
368,295,35705,1,8,0:0:0:0:
448,269,35862,1,2,0:0:0:0:
487,203,36019,2,0,P|484:162|479:118,1,85,0|0,3:0|3:0,0:0:0:0:
479,118,36333,1,8,0:0:0:0:
256,174,36491,6,0,P|323:207|402:142,1,170,2|2,0:3|0:3,0:0:0:0:
390,129,36857,6,0,P|393:93|400:55,3,56.6666666666667,0|8|0|0,0:0|0:0|0:0|0:0,0:0:0:0:
324,25,37276,6,0,L|238:32,1,85,2|0,0:0|3:0,0:0:0:0:
219,117,37590,2,0,L|133:124,1,85,8|4,0:0|0:0,0:0:0:0:
29,215,37904,6,0,L|114:209,1,85,4|0,3:2|0:0,0:0:0:0:
291,317,38216,1,8,0:0:0:0:
208,370,38372,1,0,0:0:0:0:
143,295,38529,2,0,P|227:273|297:327,1,170,0|8,3:0|0:0,0:0:0:0:
385,306,38997,2,0,P|380:341|378:348,1,42.5,2|0,0:3|0:0,0:0:0:0:
328,230,39154,6,0,P|324:187|320:145,1,85,2|2,3:2|0:3,0:0:0:0:
444,47,39466,1,8,0:0:0:0:
431,158,39622,1,0,3:0:0:0:
320,145,39779,1,4,0:3:0:0:
333,34,39935,1,0,3:0:0:0:
431,158,40091,1,8,0:0:0:0:
333,34,40247,1,2,0:3:0:0:
179,34,40404,6,0,P|100:86|113:171,1,170,4|8,0:0|0:0,0:0:0:0:
161,246,40870,1,2,0:0:0:0:
38,297,41025,2,0,P|34:254|28:212,1,85,0|2,3:0|3:2,0:0:0:0:
161,246,41336,1,8,0:0:0:0:
29,213,41492,1,0,0:0:0:0:
110,346,41647,6,0,P|167:358|235:329,1,127.5,0|0,3:0|0:0,0:0:0:0:
248,319,41958,2,0,P|251:276|255:234,1,85,8|0,0:0|3:0,0:0:0:0:
442,339,42269,2,0,L|390:334,1,42.5,0|0,1:0|1:0,0:0:0:0:
323,371,42424,1,0,3:0:0:0:
390,251,42580,2,0,L|486:260,1,85,8|0,0:0|1:0,0:0:0:0:
499,241,42813,1,0,1:0:0:0:
499,241,42891,6,0,L|414:233,1,85,4|0,1:2|0:0,0:0:0:0:
313,152,43194,2,0,P|266:202|155:169,1,170,8|0,0:0|3:0,0:0:0:0:
104,112,43648,1,0,3:0:0:0:
84,227,43800,2,0,P|41:230|0:234,1,85,8|2,0:0|0:3,0:0:0:0:
19,119,44103,6,0,P|61:114|103:111,1,85,2|0,3:2|0:0,0:0:0:0:
173,36,44406,2,0,P|206:112|172:188,1,170,8|4,0:0|0:3,0:0:0:0:
84,227,44860,1,0,3:0:0:0:
170,367,45012,2,0,P|166:325|161:283,1,85,8|2,0:0|0:3,0:0:0:0:
332,232,45315,6,0,P|289:237|247:243,1,85,2|0,3:2|0:0,0:0:0:0:
511,367,45616,2,0,P|439:299|357:327,1,170,8|0,0:0|3:0,0:0:0:0:
306,371,46068,1,0,3:0:0:0:
332,232,46219,2,0,P|329:188|325:146,1,85,8|2,0:0|0:3,0:0:0:0:
460,105,46521,6,0,P|457:149|453:191,1,85,2|0,3:2|0:0,0:0:0:0:
325,147,46822,1,8,0:0:0:0:
334,43,46973,1,0,3:0:0:0:
201,80,47124,2,0,P|198:124|194:166,1,85,4|0,0:3|3:0,0:0:0:0:
110,262,47425,1,8,0:0:0:0:
11,198,47576,1,2,0:3:0:0:
192,179,47727,5,2,3:2:0:0:
96,126,47875,1,0,0:0:0:0:
11,198,48024,1,8,0:0:0:0:
44,341,48172,2,0,P|119:366|196:317,1,170,0|0,0:0|3:0,0:0:0:0:
276,172,48618,2,0,P|234:176|192:179,1,85,8|2,0:0|0:3,0:0:0:0:
110,262,48915,5,2,3:2:0:0:
192,322,49062,2,0,L|234:318,1,42.5,0|0,0:0|0:0,0:0:0:0:
311,368,49209,2,0,P|353:365|395:361,1,85,8|2,0:0|3:0,0:0:0:0:
366,135,49503,1,4,0:3:0:0:
366,135,49576,1,0,0:0:0:0:
366,135,49650,1,0,3:0:0:0:
366,135,49723,1,0,3:0:0:0:
366,135,49797,2,0,L|358:231,1,85,8|0,3:2|3:0,0:0:0:0:
492,268,50091,6,0,P|474:346|395:361,1,170,2|8,3:2|0:0,0:0:0:0:
351,239,50536,1,0,0:0:0:0:
192,322,50685,2,0,P|236:318|276:315,1,85,4|2,0:3|0:3,0:0:0:0:
351,239,50982,1,8,0:0:0:0:
432,371,51130,1,0,3:0:0:0:
339,227,51279,6,0,P|343:187|348:139,1,85,2|0,3:2|0:0,0:0:0:0:
507,60,51576,2,0,P|459:19|398:30,1,127.5,8|0,0:0|0:0,0:0:0:0:
387,44,51873,2,0,P|344:47|302:50,1,85,4|0,0:3|3:0,0:0:0:0:
263,148,52164,2,0,P|305:145|347:142,1,85,8|2,0:0|0:3,0:0:0:0:
308,239,52455,6,0,P|266:242|224:246,1,85,4|2,0:0|0:3,0:0:0:0:
36,325,52749,2,0,P|88:359|150:349,1,127.5,8|0,0:0|0:0,0:0:0:0:
167,338,53043,1,0,3:0:0:0:
99,189,53190,2,0,L|107:274,1,85,0|8,3:0|0:0,0:0:0:0:
167,338,53484,1,2,0:0:0:0:
305,224,53631,5,2,3:0:0:0:
295,335,53775,1,2,0:3:0:0:
184,326,53920,1,8,0:0:0:0:
193,214,54065,1,0,3:0:0:0:
294,335,54210,2,0,P|337:332|379:328,1,85,4|0,0:3|3:0,0:0:0:0:
496,234,54500,2,0,P|453:238|411:240,1,85,8|2,0:0|0:0,0:0:0:0:
318,94,54790,5,2,3:0:0:0:
286,191,54935,1,2,0:0:0:0:
203,234,55080,1,8,0:0:0:0:
123,214,55225,1,4,0:3:0:0:
72,153,55370,2,0,P|76:94|79:61,1,85,0|0,3:0|3:0,0:0:0:0:
78,68,55659,1,8,0:0:0:0:
209,149,55804,1,2,0:0:0:0:
209,149,55949,6,0,P|205:191|202:233,1,85,2|2,3:0|0:3,0:0:0:0:
40,240,56246,2,0,P|44:278|47:325,1,85,8|4,0:0|0:3,0:0:0:0:
131,371,56543,1,2,0:0:0:0:
131,371,56691,1,0,3:0:0:0:
202,233,56840,2,0,L|286:225,1,85,8|4,0:0|0:0,0:0:0:0:
492,173,57137,5,6,3:0:0:0:
480,283,57281,1,2,0:3:0:0:
369,272,57426,1,8,0:0:0:0:
380,161,57569,1,0,0:0:0:0:
480,283,57713,1,0,3:0:0:0:
284,356,57858,1,0,3:0:0:0:
284,356,57930,1,0,0:0:0:0:
284,356,58002,2,0,P|281:334|277:314,1,42.5,8|0,0:0|0:0,0:0:0:0:
365,314,58146,2,0,P|368:293|369:272,1,42.5,2|0,0:0|0:0,0:0:0:0:
202,233,58290,6,0,L|286:225,1,85,2|2,3:3|0:3,0:0:0:0:
409,174,58507,1,0,0:0:0:0:
409,174,58579,2,0,L|356:180,1,42.5,8|0,0:0|0:0,0:0:0:0:
292,47,58723,1,0,0:0:0:0:
292,47,58795,1,0,0:0:0:0:
292,47,58867,2,0,P|288:99|285:134,1,85,4|0,0:3|3:0,0:0:0:0:
111,188,59156,2,0,P|115:240|118:275,1,85,8|6,0:0|0:0,0:0:0:0:
45,128,59444,6,0,P|124:99|190:146,1,170,6|8,3:0|0:0,0:0:0:0:
111,188,59872,1,0,1:0:0:0:
195,34,60015,1,0,3:0:0:0:
286,225,60158,2,0,L|202:233,1,85,0|8,3:0|0:0,0:0:0:0:
29,247,60444,1,2,3:2:0:0:
87,364,60586,6,0,L|256:346,1,170,2|8,1:2|0:0,0:0:0:0:
430,266,61016,1,0,1:0:0:0:
272,356,61160,1,2,1:2:0:0:
324,140,61303,1,0,1:0:0:0:
448,268,61447,1,8,0:0:0:0:
196,242,61590,1,0,1:0:0:0:
358,370,61734,6,0,L|349:269,1,85,6|0,0:0|0:0,0:0:0:0:
273,213,61948,1,0,0:0:0:0:
273,213,62019,2,0,L|278:262,1,42.5,8|0,0:0|0:0,0:0:0:0:
179,367,62162,1,2,0:2:0:0:
179,367,62234,1,0,0:0:0:0:
179,367,62305,2,0,L|173:316,1,42.5,0|0,3:0|0:0,0:0:0:0:
196,242,62448,1,0,3:0:0:0:
11,303,62591,2,0,L|104:291,1,85,8|4,0:0|0:3,0:0:0:0:
208,151,62876,5,2,3:2:0:0:
208,151,62948,1,0,0:0:0:0:
208,151,63019,2,0,L|162:157,1,42.5,0|0,0:0|0:0,0:0:0:0:
19,220,63162,2,0,P|3:181|6:139,1,85,8|2,0:0|3:2,0:0:0:0:
100,43,63448,2,0,L|95:96,1,42.5,4|0,0:3|0:0,0:0:0:0:
87,168,63591,1,0,3:0:0:0:
280,232,63734,2,0,L|196:242,1,85,8|0,0:0|3:0,0:0:0:0:
95,292,64019,5,2,3:2:0:0:
193,253,64160,1,0,0:0:0:0:
178,355,64302,1,8,0:0:0:0:
208,151,64443,1,2,3:0:0:0:
275,315,64585,1,4,3:0:0:0:
285,330,64655,2,0,L|279:362,1,21.25,0|0,0:0|0:0,0:0:0:0:
296,339,64726,2,0,P|300:369|304:390,1,42.5,0|0,1:0|0:0,0:0:0:0:
208,151,64868,6,0,B|155:122|87:168|87:168|138:98|203:94|275:162|317:221|435:153|468:69|351:-19|239:0|238:202|309:242|309:242|318:228|332:215|332:215|338:233|338:233|349:215|349:215|358:225|358:225|381:213|405:216|426:221,1,860.62503283024,8|8,0:0|1:2,0:0:0:0:
