osu file format v14

[General]
AudioFilename: audio.mp3
AudioLeadIn: 0
PreviewTime: 32155
Countdown: 0
SampleSet: Soft
StackLeniency: 0.7
Mode: 0
LetterboxInBreaks: 0
WidescreenStoryboard: 0

[Editor]
Bookmarks: 27808
DistanceSpacing: 1.3
BeatDivisor: 4
GridSize: 4
TimelineZoom: 3.299999

[Metadata]
Title:Unknown Title
TitleUnicode:Unknown Title
Artist:Wan Ho-Kit, Lee Hon-Kam
ArtistUnicode:溫浩傑、李漢金
Creator:Monstrata
Version:Let's show them A r M i N's Light Insane stance.
Source:超級學校霸王
Tags:future cops underforest ezek armin a_r_m_i_n habiholic chaoslitz
BeatmapID:1002298
BeatmapSetID:468614

[Difficulty]
HPDrainRate:5
CircleSize:4
OverallDifficulty:8
ApproachRate:9
SliderMultiplier:1.50000000596046
SliderTickRate:1

[Events]
//Background and Video events
0,0,"ok.jpg",0,0
Video,-266,"chunlifuturecop.avi"
//Break Periods
//Storyboard Layer 0 (Background)
//Storyboard Layer 1 (Fail)
//Storyboard Layer 2 (Pass)
//Storyboard Layer 3 (Foreground)
//Storyboard Sound Samples

[TimingPoints]
2570,314.13612565445,4,2,2,70,1,0
5083,315.236979399263,4,2,2,70,1,0
10126,315.789473684211,4,2,2,70,1,0
11389,314.13612565445,4,2,2,70,1,0
12645,315.789473684211,4,2,2,70,1,0
16434,316.622691292876,4,2,2,70,1,0
18966,318.302387267905,4,2,2,70,1,0
20239,315.789473684211,4,2,2,70,1,0
25291,313.725490196078,4,2,2,70,1,0
26545,315.789473684211,4,2,2,70,1,0
29071,316.622691292876,4,2,2,70,1,0
31603,315.789473684211,4,2,2,70,1,0
32866,317.460317460317,4,2,2,70,1,0
34135,314.13612565445,4,2,2,70,1,0
37904,312.5,4,2,2,70,1,0
40404,310.880829015544,4,2,2,70,1,0
42891,303.030303030303,4,2,2,70,1,0
45315,301.507537688442,4,2,2,70,1,0
47727,297.029702970297,4,2,2,70,1,0
48915,294.117647058824,4,2,2,70,1,0
50091,297.029702970297,4,2,2,70,1,0
51873,291.26213592233,4,2,2,70,1,0
52455,294.117647058824,4,2,2,70,1,0
53631,289.855072463768,4,2,2,70,1,0
55949,297.029702970297,4,2,2,70,1,0
57137,288.461538461538,4,2,2,70,1,0
59444,285.714285714286,4,2,2,70,1,0
60586,287.081339712919,4,2,2,70,1,0
61734,285.714285714286,4,2,2,70,1,0
64019,283.018867924528,4,2,2,70,1,0
64868,-133.333333333333,4,2,2,70,0,0
65009,-133.333333333333,4,2,2,20,0,0
66778,-133.333333333333,4,2,2,70,0,0

[Colours]
Combo1 : 255,64,64
Combo2 : 55,155,255
Combo3 : 128,128,255
Combo4 : 255,51,153

[HitObjects]
70,210,2569,6,0,P|115:257|204:249,1,150.000000596046,2|2,0:0|0:0,0:0:0:0:
168,100,3041,1,0,0:0:0:0:
168,100,3198,2,0,L|152:184,1,75.000000298023,2|0,3:2|3:0,0:0:0:0:
285,234,3512,2,0,L|270:155,1,75.000000298023,8|0,0:0|1:0,0:0:0:0:
371,273,3826,6,0,P|321:322|237:316,1,150.000000596046,0|10,3:0|0:0,0:0:0:0:
178,238,4297,2,0,L|192:89,1,150.000000596046,2|2,3:2|3:2,0:0:0:0:
272,21,4768,1,8,0:0:0:0:
272,21,4926,1,0,1:0:0:0:
351,146,5083,6,0,L|425:139,1,75.000000298023,2|0,3:2|0:0,0:0:0:0:
335,241,5398,2,0,P|286:217|265:187,1,75.000000298023,8|2,0:0|0:0,0:0:0:0:
268,104,5713,1,0,3:0:0:0:
181,210,5871,2,0,B|142:227|142:227|32:210,1,150.000000596046,0|0,3:0|1:0,0:0:0:0:
166,60,6343,6,0,L|180:209,1,150.000000596046,0|8,3:0|0:0,0:0:0:0:
267,253,6816,2,0,P|317:205|402:209,1,150.000000596046,0|0,3:0|3:0,0:0:0:0:
355,296,7289,1,8,0:0:0:0:
355,296,7447,1,0,1:0:0:0:
476,219,7604,6,0,P|470:173|449:143,1,75.000000298023,2|0,3:2|0:0,0:0:0:0:
335,87,7920,2,0,P|341:41|362:11,1,75.000000298023,8|0,0:0|0:0,0:0:0:0:
431,78,8235,1,2,3:2:0:0:
319,168,8392,2,0,L|244:161,1,75.000000298023,8|8,3:0|0:0,0:0:0:0:
173,92,8708,1,0,3:0:0:0:
91,219,8865,6,0,L|77:70,1,150.000000596046,2|8,3:2|0:0,0:0:0:0:
173,92,9338,1,0,3:0:0:0:
242,22,9496,2,0,L|316:28,1,75.000000298023,4|0,0:3|3:0,0:0:0:0:
384,99,9811,1,8,0:0:0:0:
384,99,9969,1,0,1:0:0:0:
295,234,10126,6,0,P|297:271|315:303,1,75.000000298023,0|2,3:2|0:0,0:0:0:0:
348,170,10441,2,0,P|314:153|278:152,1,75.000000298023,8|0,0:0|0:0,0:0:0:0:
195,206,10757,1,0,3:0:0:0:
195,206,10915,1,0,3:0:0:0:
79,106,11073,2,0,L|86:31,1,75.000000298023,8|2,0:0|0:0,0:0:0:0:
106,222,11389,6,0,L|120:66,1,150.000000596046,4|8,3:0|0:0,0:0:0:0:
202,20,11860,1,2,0:0:0:0:
300,143,12017,2,0,L|374:136,1,75.000000298023,0|0,0:0|3:0,0:0:0:0:
269,67,12331,1,8,0:0:0:0:
212,214,12488,1,0,1:0:0:0:
120,72,12645,6,0,L|45:65,2,75.000000298023,2|2|8,3:2|0:3|0:0,0:0:0:0:
201,125,13118,1,0,0:0:0:0:
123,259,13276,2,0,P|173:307|258:303,1,150.000000596046,2|8,3:0|0:0,0:0:0:0:
350,174,13750,6,0,L|335:18,1,150.000000596046,2|2,0:3|0:3,0:0:0:0:
201,125,14223,2,0,L|275:132,1,75.000000298023,8|2,0:0|0:3,0:0:0:0:
157,215,14539,2,0,P|107:161|109:87,1,150.000000596046,4|8,0:3|0:0,0:0:0:0:
275,132,15013,6,0,L|260:281,1,150.000000596046,2|2,0:3|0:0,0:0:0:0:
362,345,15487,2,0,P|408:339|438:318,1,75.000000298023,8|2,0:0|0:3,0:0:0:0:
466,233,15802,1,0,3:0:0:0:
395,146,15960,2,0,L|402:72,1,75.000000298023,2|8,3:0|0:0,0:0:0:0:
256,28,16276,6,0,L|106:42,1,150.000000596046,2|2,0:3|0:3,0:0:0:0:
51,150,16750,2,0,L|125:157,1,75.000000298023,8|0,0:0|0:0,0:0:0:0:
197,223,17067,1,4,0:3:0:0:
286,103,17225,2,0,L|211:110,1,75.000000298023,0|8,3:0|0:0,0:0:0:0:
51,150,17542,1,6,0:3:0:0:
228,298,17700,6,0,P|274:292|304:271,1,75.000000298023,4|0,0:0|3:0,0:0:0:0:
386,168,18017,2,0,P|432:174|462:195,1,75.000000298023,8|0,0:0|0:0,0:0:0:0:
308,200,18333,2,0,P|304:148|395:83,1,150.000000596046,0|8,0:0|0:0,0:0:0:0:
455,188,18808,6,0,L|440:337,1,150.000000596046,2|2,0:0|0:3,0:0:0:0:
349,300,19284,2,0,L|274:307,1,75.000000298023,8|0,0:0|3:0,0:0:0:0:
149,377,19602,2,0,L|0:362,1,150.000000596046,2|8,0:3|0:0,0:0:0:0:
256,192,20080,12,8,22449,0:0:0:0:
136,160,22765,6,0,P|184:133|204:32,2,150.000000596046,4|8|0,3:2|0:0|3:0,0:0:0:0:
112,65,23554,1,2,3:2:0:0:
49,188,23712,6,0,P|69:222|96:244,2,50.000000198682,8|0|0,0:0|0:0|0:0,0:0:0:0:
167,259,24028,2,0,P|147:293|120:315,2,50.000000198682,4|0|0,3:0|0:0|0:0,0:0:0:0:
49,330,24344,1,8,0:0:0:0:
136,160,24502,2,0,L|285:175,1,150.000000596046,0|0,3:0|3:0,0:0:0:0:
360,237,24975,1,8,0:0:0:0:
432,109,25133,1,2,3:2:0:0:
482,300,25291,5,0,3:0:0:0:
482,300,25604,2,0,L|333:315,1,150.000000596046,8|4,0:0|3:0,0:0:0:0:
260,248,26075,1,0,3:0:0:0:
149,358,26232,2,0,L|74:351,1,75.000000298023,8|0,0:0|3:0,0:0:0:0:
59,201,26545,6,0,L|74:350,1,150.000000596046,4|8,3:0|0:0,0:0:0:0:
147,158,27018,2,0,P|97:110|11:115,1,150.000000596046,0|0,0:0|3:0,0:0:0:0:
59,201,27491,1,8,0:0:0:0:
59,201,27649,1,2,0:0:0:0:
201,66,27808,6,0,L|276:73,1,75.000000298023,4|0,3:0|0:0,0:0:0:0:
360,187,28123,2,0,L|435:180,1,75.000000298023,10|0,0:0|0:0,0:0:0:0:
355,102,28439,1,4,3:0:0:0:
260,180,28597,2,0,P|266:226|287:256,1,75.000000298023,0|8,3:0|0:0,0:0:0:0:
368,294,28913,1,0,3:0:0:0:
240,363,29071,6,0,L|165:356,1,75.000000298023,4|0,3:0|0:0,0:0:0:0:
117,229,29387,2,0,P|165:279|160:365,1,150.000000596046,8|4,0:0|0:3,0:0:0:0:
75,318,29862,1,0,3:0:0:0:
231,245,30020,2,0,L|280:249,2,50.000000198682,8|0|0,0:0|0:0|0:0,0:0:0:0:
110,154,30337,6,0,L|117:229,1,75.000000298023,4|2,3:0|0:0,0:0:0:0:
199,109,30654,2,0,P|149:61|63:66,1,150.000000596046,8|0,0:0|3:0,0:0:0:0:
110,154,31129,1,0,3:0:0:0:
259,31,31287,1,8,0:0:0:0:
297,124,31445,1,0,0:0:0:0:
214,258,31603,6,0,L|199:109,1,150.000000596046,0|8,3:0|0:0,0:0:0:0:
259,31,32076,1,2,0:0:0:0:
297,124,32234,1,4,0:3:0:0:
429,39,32392,2,0,L|354:46,1,75.000000298023,0|8,3:0|0:0,0:0:0:0:
297,124,32708,1,2,0:0:0:0:
409,271,32866,6,0,P|403:317|382:347,2,75.000000298023,4|2|8,3:2|0:3|0:0,0:0:0:0:
381,177,33342,1,0,0:0:0:0:
265,263,33500,2,0,L|116:248,1,150.000000596046,0|8,3:0|0:0,0:0:0:0:
68,121,33977,6,0,P|117:174|115:248,1,149,2|2,0:0|0:3,0:0:0:0:
26,210,34449,1,8,0:0:0:0:
142,78,34606,1,2,0:0:0:0:
245,224,34763,2,0,L|394:209,1,150.000000596046,0|8,3:0|0:0,0:0:0:0:
202,135,35234,6,0,P|152:188|154:262,1,150.000000596046,2|2,0:3|0:3,0:0:0:0:
319,230,35705,2,0,L|244:223,1,75.000000298023,8|2,0:0|0:0,0:0:0:0:
202,135,36019,1,0,3:0:0:0:
79,268,36176,2,0,L|154:261,1,75.000000298023,0|8,3:0|0:0,0:0:0:0:
278,152,36491,6,0,L|427:167,1,150.000000596046,2|2,0:3|0:3,0:0:0:0:
336,276,36962,2,0,P|324:253|318:229,2,50.000000198682,8|0|0,0:0|0:0|0:0,0:0:0:0:
427,167,37276,2,0,P|443:132|452:96,1,75.000000298023,2|0,0:0|0:0,0:0:0:0:
324,14,37590,2,0,P|333:50|349:84,1,75.000000298023,8|0,0:0|0:0,0:0:0:0:
278,152,37904,6,0,L|203:145,1,75.000000298023,4|0,3:2|0:0,0:0:0:0:
103,68,38216,2,0,L|28:75,1,75.000000298023,8|0,0:0|0:0,0:0:0:0:
87,217,38529,2,0,L|102:68,1,150.000000596046,0|8,3:0|0:0,0:0:0:0:
175,257,38997,6,0,P|122:307|48:305,1,150.000000596046,2|2,0:3|0:3,0:0:0:0:
87,217,39466,1,8,0:0:0:0:
212,336,39622,1,0,3:0:0:0:
300,177,39779,2,0,L|449:192,1,150.000000596046,4|8,0:3|0:0,0:0:0:0:
256,192,40247,12,8,42580,0:0:0:0:
353,234,42891,6,0,P|426:232|479:282,2,150.000000596046,4|8|0,1:2|0:0|3:0,0:0:0:0:
393,322,43648,1,0,3:0:0:0:
267,222,43800,2,0,L|274:147,1,75.000000298023,8|2,0:0|0:3,0:0:0:0:
180,262,44103,6,0,P|233:312|306:310,1,150.000000596046,2|8,3:2|0:0,0:0:0:0:
282,72,44557,2,0,L|267:221,1,150.000000596046,0|0,0:0|3:0,0:0:0:0:
191,158,45012,1,8,0:0:0:0:
362,103,45163,1,2,0:3:0:0:
377,252,45315,6,0,L|362:103,1,150.000000596046,2|8,3:2|0:0,0:0:0:0:
266,221,45767,2,0,B|227:238|227:238|117:221,1,150.000000596046,0|0,0:0|3:0,0:0:0:0:
66,140,46219,1,8,0:0:0:0:
66,140,46370,1,2,0:3:0:0:
210,19,46521,6,0,B|207:51|218:74|218:74|208:112|208:112|220:138|217:171,1,150.000000596046,2|8,3:2|0:0,0:0:0:0:
304,308,46973,2,0,P|354:254|352:181,1,150.000000596046,0|0,3:0|3:0,0:0:0:0:
284,110,47425,1,8,0:0:0:0:
450,62,47576,1,2,0:3:0:0:
435,226,47727,6,0,L|428:151,1,75.000000298023,2|0,3:2|0:0,0:0:0:0:
285,210,48024,2,0,L|433:224,1,150.000000596046,8|0,0:0|3:0,0:0:0:0:
371,302,48469,1,0,3:0:0:0:
316,131,48618,2,0,L|323:56,1,75.000000298023,8|2,0:0|0:3,0:0:0:0:
166,145,48915,6,0,L|315:130,1,150.000000596046,2|8,3:2|0:0,0:0:0:0:
128,58,49356,2,0,P|78:112|80:185,1,150.000000596046,2|0,3:0|3:0,0:0:0:0:
166,145,49797,1,8,3:2:0:0:
166,145,49944,1,0,3:0:0:0:
160,305,50091,6,0,L|153:230,1,75.000000298023,2|0,3:2|0:0,0:0:0:0:
286,353,50388,2,0,P|232:303|159:304,1,150.000000596046,8|4,0:0|0:3,0:0:0:0:
84,366,50833,1,2,0:3:0:0:
153,230,50982,1,8,0:0:0:0:
232,303,51130,1,0,3:0:0:0:
301,167,51279,6,0,L|376:174,1,75.000000298023,2|0,3:2|0:0,0:0:0:0:
194,92,51576,1,8,0:0:0:0:
155,255,51724,2,0,L|148:180,1,75.000000298023,0|4,0:0|0:3,0:0:0:0:
194,92,52018,1,0,3:0:0:0:
268,236,52164,1,8,0:0:0:0:
342,84,52309,1,2,0:3:0:0:
434,247,52455,6,0,P|432:293|415:325,2,75.000000298023,4|2|8,0:0|0:3|0:0,0:0:0:0:
372,171,52896,1,0,0:0:0:0:
309,309,53043,2,0,L|234:302,1,75.000000298023,0|0,3:0|3:0,0:0:0:0:
175,224,53337,1,8,0:0:0:0:
285,70,53484,6,0,L|270:219,1,149,2|2,0:0|0:3,0:0:0:0:
134,134,53920,2,0,L|209:127,1,75.000000298023,8|0,0:0|3:0,0:0:0:0:
345,226,54210,2,0,L|270:219,1,75.000000298023,4|0,0:3|3:0,0:0:0:0:
192,278,54500,1,8,0:0:0:0:
298,133,54645,6,0,L|447:148,1,150.000000596046,2|2,0:0|0:0,0:0:0:0:
351,300,55080,2,0,L|344:225,1,75.000000298023,8|4,0:0|0:3,0:0:0:0:
298,133,55370,1,0,3:0:0:0:
192,278,55515,2,0,L|267:271,1,75.000000298023,0|8,3:0|0:0,0:0:0:0:
446,215,55804,6,0,L|431:66,1,152,2|2,0:0|0:3,0:0:0:0:
344,18,56246,1,8,0:0:0:0:
272,156,56394,1,4,0:3:0:0:
256,59,56543,1,2,0:0:0:0:
398,134,56691,1,0,3:0:0:0:
290,251,56840,1,8,0:0:0:0:
326,97,56988,1,4,0:0:0:0:
447,217,57137,6,0,L|440:292,2,75.000000298023,6|2|8,3:0|0:3|0:0,0:0:0:0:
398,134,57569,1,0,0:0:0:0:
290,251,57713,2,0,P|216:252|163:202,1,150.000000596046,0|8,3:0|0:0,0:0:0:0:
262,14,58146,6,0,B|255:45|263:69|263:69|248:106|248:106|256:133|250:160,1,150.000000596046,2|2,0:0|0:3,0:0:0:0:
163,202,58579,1,8,0:0:0:0:
338,116,58723,1,0,0:0:0:0:
296,325,58867,2,0,L|289:250,1,75.000000298023,4|0,0:3|3:0,0:0:0:0:
338,116,59156,1,8,0:0:0:0:
256,192,59300,12,8,61447,0:0:0:0:
332,159,61734,6,0,L|481:144,2,150.000000596046,6|8|0,0:0|0:0|3:0,0:0:0:0:
277,240,62448,1,0,3:0:0:0:
213,89,62591,2,0,L|206:164,1,75.000000298023,8|4,0:0|0:3,0:0:0:0:
36,240,62876,6,0,L|185:255,1,150.000000596046,2|8,3:2|0:0,0:0:0:0:
332,159,63305,2,0,L|481:144,1,150.000000596046,2|0,3:2|3:0,0:0:0:0:
376,244,63734,1,8,0:0:0:0:
284,77,63876,1,0,3:0:0:0:
185,255,64019,6,0,P|111:256|58:206,2,150.000000596046,2|8|4,3:2|0:0|3:0,0:0:0:0:
147,164,64726,1,0,1:0:0:0:
256,192,64868,12,8,66778,1:2:0:0:
