osu file format v14

[General]
AudioFilename: audio.mp3
AudioLeadIn: 0
PreviewTime: 15140
Countdown: 0
SampleSet: Soft
StackLeniency: 0.3
Mode: 0
LetterboxInBreaks: 0
WidescreenStoryboard: 1

[Editor]
DistanceSpacing: 1.2
BeatDivisor: 6
GridSize: 32
TimelineZoom: 2.2

[Metadata]
Title:Family Guy Main Title (TV Size)
TitleUnicode:Family Guy Main Title (TV Size)
Artist:Walter Murphy feat. Family Guy Main Cast
ArtistUnicode:Walter Murphy feat. Family Guy Main Cast
Creator:Breaking Bad
Version:bluirre's Hard
Source:Family Guy
Tags:bluirre peter griffin lois meg Megatron chris stewie brian western opening theme english twentieth century fox adult swim Jazz Alex Borstein Seth MacFarlane Seth Green Mila Kunis ilay
BeatmapID:3895569
BeatmapSetID:1864162

[Difficulty]
HPDrainRate:5
CircleSize:3.5
OverallDifficulty:7
ApproachRate:7
SliderMultiplier:1.5
SliderTickRate:1

[Events]
//Background and Video events
0,0,"BG.jpg",0,0
Video,1036,"LeFamilyGuyOpeningXD.mp4"
//Break Periods
//Storyboard Layer 0 (Background)
//Storyboard Layer 1 (Fail)
//Storyboard Layer 2 (Pass)
//Storyboard Layer 3 (Foreground)
//Storyboard Layer 4 (Overlay)
//Storyboard Sound Samples

[TimingPoints]
1138,414.736987627013,4,2,1,40,1,0
1967,414.736987627013,4,2,1,45,1,0
1967,-80,4,2,1,45,0,0
11921,-100,4,2,1,55,0,0
13428,414.393259202984,4,2,1,60,1,0
13428,-80,4,2,1,60,0,0
14671,-72.992700729927,4,2,1,65,0,0
15210,414.651002073255,4,2,1,60,1,1
15210,-72.992700729927,4,2,1,60,0,1
17283,-72.992700729927,4,2,1,65,0,1
25141,414.794331144141,4,2,1,65,1,0
25141,-80,4,2,1,65,0,0
28459,-72.992700729927,4,2,1,65,0,0
30533,-100,4,2,1,65,0,0
30671,-100,4,2,1,5,0,0

[Colours]
Combo1 : 255,94,55
Combo2 : 173,255,95
Combo3 : 17,254,176
Combo4 : 255,88,100

[HitObjects]
99,38,1138,5,4,2:0:0:0:
184,115,1414,1,2,3:2:0:0:
184,115,1552,2,0,L|184:187,2,50,0|0|0,3:0|3:0|3:0,3:0:0:0:
238,63,1967,6,0,P|294:75|325:167,1,125,6|0,1:2|2:0,2:0:0:0:
316,203,2382,1,2,2:0:0:0:
246,335,2658,2,0,L|78:311,1,125,2|0,2:0|2:0,2:0:0:0:
51,292,3073,2,0,P|69:262|100:245,1,62.5,10|0,2:0|1:0,2:0:0:0:
10,120,3488,1,2,2:0:0:0:
66,169,3626,6,0,P|131:149|157:85,1,125,2|0,1:2|2:0,2:0:0:0:
155,26,4041,1,2,2:0:0:0:
215,162,4317,2,0,L|375:139,1,125,2|0,2:0|2:0,2:0:0:0:
410,120,4732,2,0,P|391:90|360:73,1,62.5,10|0,2:0|1:0,2:0:0:0:
283,199,5147,1,2,2:0:0:0:
332,255,5285,6,0,L|317:358,1,62.5,2|0,2:0|2:0,2:0:0:0:
382,370,5561,1,2,2:0:0:0:
382,370,5700,2,0,P|438:358|469:266,1,125,2|2,2:0|2:0,2:0:0:0:
446,233,6114,2,0,L|436:162,1,62.5,2|0,2:0|0:0,2:0:0:0:
465,101,6391,1,8,2:0:0:0:
425,37,6529,2,0,P|394:18|359:17,2,62.5,2|2|2,2:0|2:0|2:0,0:0:0:0:
374,92,6944,5,2,2:0:0:0:
230,133,7220,1,2,2:0:0:0:
186,276,7497,1,2,2:0:0:0:
42,317,7773,1,2,2:0:0:0:
81,172,8050,1,8,2:0:0:0:
35,112,8188,2,0,L|45:41,2,62.5,0|0|0,1:0|1:0|1:0,0:0:0:0:
110,107,8603,6,0,P|166:95|197:3,1,125,2|0,1:2|2:0,2:0:0:0:
272,17,9018,1,2,2:0:0:0:
448,156,9432,2,0,P|430:210|494:283,1,125,2|0,1:2|2:0,2:0:0:0:
456,342,9847,1,2,2:0:0:0:
353,232,10123,1,0,2:0:0:0:
315,297,10262,6,0,L|174:316,1,125,2|0,1:2|2:0,2:0:0:0:
34,152,10953,2,0,L|174:171,1,125,2|0,2:0|0:0,0:0:0:0:
217,122,11368,1,2,2:0:0:0:
278,164,11506,6,2,B|292:189|315:172|300:149,6,31.25,2|2|2|2|2|2|10,2:0|2:0|2:0|2:0|2:0|2:0|2:0,2:0:0:0:
303,172,13428,6,2,P|285:226|349:299,1,125,14|0,2:0|0:0,0:1:0:0:
388,295,13842,1,0,3:0:0:0:
445,246,13980,2,0,L|454:175,1,62.5,0|0,1:0|1:0,0:0:0:0:
459,109,14256,1,0,1:0:0:0:
400,62,14394,1,0,1:0:0:0:
230,160,14671,6,2,L|-18:125,1,205.50000580101,10|0,2:0|2:0,2:1:0:0:
54,46,15210,6,0,L|142:58,1,68.5000019336701,6|0,2:0|0:0,2:0:0:0:
200,31,15486,1,0,2:0:0:0:
258,88,15624,2,0,P|298:127|262:230,1,137.00000386734,10|0,2:0|2:0,0:0:0:0:
222,248,16039,2,0,P|278:238|341:327,1,137.00000386734,2|2,1:2|2:0,2:0:0:0:
260,318,16453,1,10,2:0:0:0:
98,351,16730,6,0,L|71:155,1,137.00000386734,2|0,2:0|2:0,2:0:0:0:
75,132,17145,2,2,L|298:162,1,205.50000580101,2|2,2:0|2:0,0:1:0:0:
338,103,17697,2,2,P|408:126|467:80,1,137.00000386734,2|2,1:2|2:0,2:1:0:0:
394,42,18112,1,8,2:0:0:0:
346,199,18388,1,0,2:0:0:0:
299,267,18527,6,0,P|228:243|169:289,1,137.00000386734,6|2,2:0|2:0,2:0:0:0:
243,323,18941,2,0,P|313:346|372:300,1,137.00000386734,10|0,2:0|2:0,0:0:0:0:
400,241,19356,1,2,1:2:0:0:
456,86,19632,2,0,L|225:117,1,205.50000580101,2|0,2:0|2:0,0:0:0:0:
182,158,20185,6,0,P|171:84|227:34,1,137.00000386734,2|0,1:2|2:0,2:0:0:0:
252,113,20600,2,0,P|262:186|206:236,1,137.00000386734,10|2,2:0|2:0,2:0:0:0:
140,234,21015,1,2,1:2:0:0:
256,349,21291,2,2,L|486:380,1,205.50000580101,2|0,2:0|2:0,0:1:0:0:
478,296,21844,6,0,L|455:127,1,137.00000386734,2|0,1:2|2:0,2:0:0:0:
459,77,22259,2,0,P|392:110|383:184,1,137.00000386734,10|0,2:0|2:0,0:0:0:0:
428,231,22673,1,2,1:2:0:0:
305,120,22950,2,0,L|74:151,1,205.50000580101,2|0,2:0|2:0,0:0:0:0:
41,204,23503,5,2,1:2:0:0:
101,147,24608,2,2,L|332:116,1,205.50000580101,2|0,2:0|2:0,2:1:0:0:
369,78,25141,6,0,P|276:79|299:-11,1,187.5,14|2,2:0|3:2,2:0:0:0:
453,144,25970,2,0,P|475:233|383:232,1,187.5,10|2,2:0|3:2,2:0:0:0:
193,335,26800,2,0,P|170:245|262:246,1,187.5,10|2,2:0|3:2,2:0:0:0:
166,17,27629,2,0,P|73:15|71:79,1,125,10|0,2:0|3:0,2:0:0:0:
73,104,28044,2,0,L|-26:104,2,62.5,2|0|0,1:2|1:0|1:0,0:0:0:0:
128,165,28459,6,2,P|184:175|247:86,1,137.00000386734,6|2,2:0|2:0,2:1:0:0:
166,95,28873,1,10,2:0:0:0:
305,182,29150,2,2,P|349:122|423:126,1,137.00000386734,2|0,2:0|2:0,2:1:0:0:
386,197,29564,1,2,1:2:0:0:
332,259,29703,6,0,L|332:358,2,68.5000019336701,10|0|0,2:0|1:0|1:0,2:0:0:0:
305,182,30118,6,0,L|74:150,1,205.50000580101,2|2,3:2|1:2,2:0:0:0:
256,192,30671,12,0,32192,0:0:0:0:
