osu file format v14

[General]
AudioFilename: audio.mp3
AudioLeadIn: 0
PreviewTime: 473
Countdown: 0
SampleSet: Normal
StackLeniency: 0.7
Mode: 1
LetterboxInBreaks: 0
WidescreenStoryboard: 0

[Editor]
Bookmarks: 1370,4542,7990,14611,21232
DistanceSpacing: 1
BeatDivisor: 3
GridSize: 32
TimelineZoom: 2

[Metadata]
Title:Family Guy Main Title
TitleUnicode:Family Guy Main Title
Artist:Walter Murphy
ArtistUnicode:Walter Murphy
Creator:strickluke
Version:Oni
Source:Family Guy
Tags:saturnalize zing yea shinsekai- astolfo xtrem3x vulkin seth macfarlane peter griffin brian stewie jeff god help me please meg chris lois intro
BeatmapID:1387123
BeatmapSetID:654385

[Difficulty]
HPDrainRate:6
CircleSize:4
OverallDifficulty:5
ApproachRate:9
SliderMultiplier:1.4
SliderTickRate:1

[Events]
//Background and Video events
0,0,"brain.jpg",0,80
//Break Periods
//Storyboard Layer 0 (Background)
//Storyboard Layer 1 (Fail)
//Storyboard Layer 2 (Pass)
//Storyboard Layer 3 (Foreground)
//Storyboard Layer 4 (Overlay)
//Storyboard Sound Samples

[TimingPoints]
-285,413.793103448276,4,1,0,60,1,0
542,-100,4,1,0,60,0,0
14611,-100,4,1,0,75,0,1
22887,-100,4,1,0,60,0,0
24542,-100,4,1,0,67,0,1
27852,-100,4,1,0,75,0,0
29921,-100,4,1,0,30,0,0

[HitObjects]
256,192,542,5,12,0:0:0:0:
256,192,818,1,0,0:0:0:0:
256,192,956,1,8,0:0:0:0:
256,192,1094,1,0,0:0:0:0:
256,192,1232,1,0,0:0:0:0:
256,192,1370,1,8,0:0:0:0:
256,192,1646,1,0,0:0:0:0:
256,192,1783,1,8,0:0:0:0:
256,192,1921,1,0,0:0:0:0:
256,192,2059,1,8,0:0:0:0:
256,192,2197,1,0,0:0:0:0:
256,192,2473,1,8,0:0:0:0:
256,192,2611,1,0,0:0:0:0:
256,192,2887,1,0,0:0:0:0:
256,192,3025,1,8,0:0:0:0:
256,192,3300,1,0,0:0:0:0:
256,192,3438,1,8,0:0:0:0:
256,192,3577,1,0,0:0:0:0:
256,192,3715,1,8,0:0:0:0:
256,192,3852,1,0,0:0:0:0:
256,192,4128,1,8,0:0:0:0:
256,192,4266,1,0,0:0:0:0:
256,192,4542,1,0,0:0:0:0:
256,192,4680,1,8,0:0:0:0:
256,192,4818,1,8,0:0:0:0:
256,192,4956,1,0,0:0:0:0:
256,192,5094,1,8,0:0:0:0:
256,192,5232,1,0,0:0:0:0:
256,192,5370,1,0,0:0:0:0:
256,192,5508,1,8,0:0:0:0:
256,192,5783,1,8,0:0:0:0:
256,192,5921,1,0,0:0:0:0:
256,192,6059,1,0,0:0:0:0:
256,192,6197,1,0,0:0:0:0:
256,192,6335,1,8,0:0:0:0:
256,192,6611,1,8,0:0:0:0:
256,192,6749,1,0,0:0:0:0:
256,192,6887,1,8,0:0:0:0:
256,192,7163,1,0,0:0:0:0:
256,192,7439,1,8,0:0:0:0:
256,192,7577,1,0,0:0:0:0:
256,192,7715,1,0,0:0:0:0:
256,192,7852,1,8,0:0:0:0:
256,192,7990,1,0,0:0:0:0:
256,192,8266,1,8,0:0:0:0:
256,192,8404,1,0,0:0:0:0:
256,192,8680,1,0,0:0:0:0:
256,192,8818,1,0,0:0:0:0:
256,192,9094,1,8,0:0:0:0:
256,192,9232,1,0,0:0:0:0:
256,192,9508,1,0,0:0:0:0:
256,192,9646,1,8,0:0:0:0:
256,192,9921,1,8,0:0:0:0:
256,192,10059,1,0,0:0:0:0:
256,192,10335,1,8,0:0:0:0:
256,192,10473,1,0,0:0:0:0:
256,192,10611,1,0,0:0:0:0:
256,192,10749,1,8,0:0:0:0:
256,192,10887,1,0,0:0:0:0:
256,192,10990,1,0,0:0:0:0:
256,192,11094,1,0,0:0:0:0:
256,192,11197,1,0,0:0:0:0:
256,192,11301,1,8,0:0:0:0:
256,192,12749,1,12,0:0:0:0:
256,192,13232,1,0,0:0:0:0:
256,192,13370,1,0,0:0:0:0:
256,192,13646,1,0,0:0:0:0:
256,192,13783,1,0,0:0:0:0:
256,192,14059,1,12,0:0:0:0:
256,192,14611,1,4,0:0:0:0:
256,192,14887,1,0,0:0:0:0:
256,192,15025,1,8,0:0:0:0:
256,192,15301,1,8,0:0:0:0:
256,192,15439,1,8,0:0:0:0:
256,192,15577,1,0,0:0:0:0:
256,192,15715,1,0,0:0:0:0:
256,192,15852,1,8,0:0:0:0:
256,192,16128,1,0,0:0:0:0:
256,192,16266,1,0,0:0:0:0:
256,192,16542,1,8,0:0:0:0:
256,192,16680,1,8,0:0:0:0:
256,192,16818,1,0,0:0:0:0:
256,192,16956,1,8,0:0:0:0:
256,192,17094,1,8,0:0:0:0:
256,192,17370,1,0,0:0:0:0:
256,192,17508,1,0,0:0:0:0:
256,192,17783,1,0,0:0:0:0:
256,192,17921,1,8,0:0:0:0:
256,192,18059,1,8,0:0:0:0:
256,192,18197,1,0,0:0:0:0:
256,192,18335,1,8,0:0:0:0:
256,192,18473,1,0,0:0:0:0:
256,192,18611,1,8,0:0:0:0:
256,192,18749,1,8,0:0:0:0:
256,192,19025,1,8,0:0:0:0:
256,192,19163,1,0,0:0:0:0:
256,192,19439,1,0,0:0:0:0:
256,192,19577,1,8,0:0:0:0:
256,192,19715,1,0,0:0:0:0:
256,192,19852,1,0,0:0:0:0:
256,192,19990,1,8,0:0:0:0:
256,192,20128,1,8,0:0:0:0:
256,192,20266,1,0,0:0:0:0:
256,192,20404,1,8,0:0:0:0:
256,192,20680,1,8,0:0:0:0:
256,192,20818,1,0,0:0:0:0:
256,192,20956,1,0,0:0:0:0:
256,192,21094,1,8,0:0:0:0:
256,192,21232,1,0,0:0:0:0:
256,192,21508,1,0,0:0:0:0:
256,192,21646,1,8,0:0:0:0:
256,192,21921,1,0,0:0:0:0:
256,192,22059,1,8,0:0:0:0:
256,192,22197,1,0,0:0:0:0:
256,192,22335,1,8,0:0:0:0:
256,192,22473,1,0,0:0:0:0:
256,192,22887,1,4,0:0:0:0:
256,192,23990,1,12,0:0:0:0:
256,192,24542,1,8,0:0:0:0:
256,192,24956,1,4,0:0:0:0:
256,192,25370,1,8,0:0:0:0:
256,192,25783,1,4,0:0:0:0:
256,192,26197,1,8,0:0:0:0:
256,192,26611,1,4,0:0:0:0:
256,192,27025,1,8,0:0:0:0:
256,192,27439,1,0,0:0:0:0:
256,192,27577,1,0,0:0:0:0:
256,192,27715,1,0,0:0:0:0:
256,192,27852,1,12,0:0:0:0:
256,192,28128,1,0,0:0:0:0:
256,192,28266,1,0,0:0:0:0:
256,192,28542,1,12,0:0:0:0:
256,192,28956,1,0,0:0:0:0:
256,192,29094,1,0,0:0:0:0:
256,192,29508,1,8,0:0:0:0:
256,192,29921,1,4,0:0:0:0:
256,192,31163,2,0,L|416:192,1,140
