osu file format v14

[General]
AudioFilename: audio.mp3
AudioLeadIn: 0
PreviewTime: 194533
Countdown: 0
SampleSet: Soft
StackLeniency: 0.7
Mode: 2
LetterboxInBreaks: 0
WidescreenStoryboard: 1

[Editor]
DistanceSpacing: 0.8
BeatDivisor: 4
GridSize: 8
TimelineZoom: 3.599998

[Metadata]
Title:Ikenai Borderline
TitleUnicode:いけないボーダーライン
Artist:Walkure
ArtistUnicode:ワルキューレ
Creator:noraRcat
Version:Dance
Source:Macross Δ
Tags:
BeatmapID:965341
BeatmapSetID:449909

[Difficulty]
HPDrainRate:6
CircleSize:4.3
OverallDifficulty:9.3
ApproachRate:9.3
SliderMultiplier:2.5
SliderTickRate:2

[Events]
//Background and Video events
0,0,"macrossd01_2.jpg",0,0
//Break Periods
//Storyboard Layer 0 (Background)
//Storyboard Layer 1 (Fail)
//Storyboard Layer 2 (Pass)
//Storyboard Layer 3 (Foreground)
//Storyboard Sound Samples

[TimingPoints]
558,372.670807453416,4,2,0,60,1,0
11924,-100,4,2,0,70,0,0
73601,-100,4,2,0,80,0,1
79564,-50,4,2,0,90,0,1
80123,-100,4,2,0,80,0,1
91489,-50,4,2,0,90,0,1
92048,-100,4,2,0,80,0,1
95961,-100,4,2,0,60,0,0
100061,372.670807453416,4,2,0,60,1,0
104905,-100,4,2,0,30,0,0
105464,-100,4,2,0,60,0,0
120930,-100,4,2,0,60,0,1
121116,-100,4,2,0,60,0,0
123772,-100,4,2,0,20,0,0
123911,-100,4,2,0,60,0,0
135837,-133.333333333333,4,2,0,60,0,0
149253,-133.333333333333,4,2,0,80,0,1
155216,-133.333333333333,4,2,0,30,0,1
155588,-133.333333333333,4,2,0,80,0,1
155868,-133.333333333333,4,2,0,5,0,1
155961,-133.333333333333,4,2,0,80,0,1
157452,-133.333333333333,4,2,0,80,0,1
171613,-50,4,2,0,70,0,0
173104,-133.333333333333,4,2,0,70,0,0
175526,-200,4,2,0,10,0,0
178321,-133.333333333333,4,2,0,70,0,0
180651,-133.333333333333,4,2,0,10,0,0
180744,-133.333333333333,4,2,0,70,0,0
181023,-133.333333333333,4,2,0,10,0,0
181116,-133.333333333333,4,2,0,70,0,0
183632,-133.333333333333,4,2,0,10,0,0
183725,-133.333333333333,4,2,0,70,0,0
184005,-133.333333333333,4,2,0,10,0,0
184098,-133.333333333333,4,2,0,70,0,0
186613,-133.333333333333,4,2,0,10,0,0
186706,-133.333333333333,4,2,0,70,0,0
187079,-133.333333333333,4,2,0,70,0,0
192483,-133.333333333333,4,2,0,10,0,0
193974,-133.333333333333,4,2,0,70,0,0
194952,-133.333333333333,4,2,0,5,0,0
195092,-133.333333333333,4,2,0,70,0,0
195464,-133.333333333333,4,2,0,80,0,1
201427,-133.333333333333,4,2,0,10,0,1
201800,-133.333333333333,4,2,0,80,0,1
213352,-50,4,2,0,10,0,1
213725,-133.333333333333,4,2,0,80,0,1
217824,-50,4,2,0,70,0,0
218942,372.670807453416,4,2,0,60,1,0
218942,-133.333333333333,4,2,0,80,0,0
221923,-133.333333333333,4,2,0,80,0,1
227886,-133.333333333333,4,2,0,10,0,1
228258,-50,4,2,0,80,0,1
228631,-133.333333333333,4,2,0,80,0,1
233848,-50,4,2,0,80,0,1
239811,-133.333333333333,4,2,0,10,0,1
240184,-133.333333333333,4,2,0,80,0,1
241302,-50,4,2,0,80,0,1
242792,-2000,4,2,0,80,0,1
244283,-100,4,2,0,80,0,1
245774,-100,4,2,0,70,0,1
266643,-66.6666666666667,4,2,0,70,0,1
269625,-133.333333333333,4,2,0,50,0,0

[HitObjects]
164,320,558,5,0,0:0:0:0:
244,264,744,1,0,0:0:0:0:
156,220,930,1,0,0:0:0:0:
76,280,1117,1,0,0:0:0:0:
244,264,1303,5,0,0:0:0:0:
324,208,1489,1,0,0:0:0:0:
236,164,1675,1,0,0:0:0:0:
156,224,1862,1,0,0:0:0:0:
324,208,2048,6,0,L|444:256,1,125
272,96,2421,2,0,L|388:140,1,125
188,208,2794,6,0,L|68:256,1,125
240,96,3167,2,0,L|124:140,1,125
320,308,3539,6,0,B|380:276|380:276|324:304,1,125
320,308,3912,2,0,B|380:276|380:276|324:304,1,125
160,304,4284,6,0,B|220:272|220:272|164:300,1,125
160,304,4657,2,0,B|220:272|220:272|164:300,1,125
320,308,5030,6,0,B|260:276|260:276|310:301,1,125
320,308,5403,2,0,B|260:276|260:276|310:301,1,125
160,304,5775,6,0,B|100:272|100:272|156:300,1,125
160,304,6148,2,0,B|100:272|100:272|156:300,1,125
452,192,6520,6,0,L|452:320,1,125
96,192,6893,2,0,L|96:320,1,125
384,192,7266,2,0,L|384:320,1,125
40,192,7638,2,0,L|40:320,1,125
344,192,8011,5,0,0:0:0:0:
248,192,8197,1,0,0:0:0:0:
344,192,8384,1,0,0:0:0:0:
440,192,8570,1,0,0:0:0:0:
344,192,8756,1,0,0:0:0:0:
248,192,8943,1,0,0:0:0:0:
344,192,9129,1,0,0:0:0:0:
440,192,9315,1,0,0:0:0:0:
256,192,9502,12,0,11738,0:0:0:0:
76,120,11924,5,0,0:0:0:0:
348,164,12110,2,0,L|380:164,6,31.25
144,292,12483,6,0,P|52:236|52:164,1,187.5
252,224,12856,2,0,L|348:136,1,125,8|0,0:0|0:0,0:0:0:0:
204,104,13228,2,0,L|92:176,1,125
152,136,13508,1,0,0:0:0:0:
360,288,13601,2,0,L|460:200,1,125,8|0,0:0|0:0,0:0:0:0:
264,172,13974,6,0,L|136:312,1,187.5
364,192,14346,2,0,L|472:260,1,125,8|0,0:0|0:0,0:0:0:0:
144,224,14719,2,0,L|92:108,1,125
312,192,14998,1,0,0:0:0:0:
360,220,15092,2,0,L|452:136,1,125,8|0,0:0|0:0,0:0:0:0:
128,296,15464,6,0,L|8:252,1,125
204,204,15837,2,0,L|324:152,1,125,8|0,0:0|0:0,0:0:0:0:
12,324,16210,1,0,0:0:0:0:
168,280,16396,1,0,0:0:0:0:
12,324,16582,1,8,0:0:0:0:
168,280,16769,1,0,0:0:0:0:
456,192,16955,6,0,L|504:232,1,62.5
272,252,17141,2,0,L|224:292,1,62.5
424,137,17328,6,0,L|456:193,1,62.5,8|0,0:0|0:0,0:0:0:0:
492,212,17514,2,0,L|488:280,1,62.5
392,82,17700,6,0,L|448:124,1,62.5
208,142,17886,2,0,L|148:172,1,62.5
452,232,18073,6,0,L|496:284,3,62.5,8|0|0|0,0:0|0:0|0:0|0:0,0:0:0:0:
208,92,18446,6,0,P|144:128|88:228,1,187.5
300,292,18818,2,0,L|404:220,1,125,8|0,0:0|0:0,0:0:0:0:
232,208,19191,2,0,L|340:280,2,125,0|0|8,0:0|0:0|0:0,0:0:0:0:
480,192,19750,2,0,L|376:112,1,125
88,264,20123,5,0,0:0:0:0:
208,192,20309,1,8,0:0:0:0:
88,264,20495,1,0,0:0:0:0:
416,192,20682,2,0,L|312:120,2,125,0|0|8,0:0|0:0|0:0,0:0:0:0:
360,192,21148,1,0,0:0:0:0:
160,96,21241,1,0,0:0:0:0:
24,192,21427,6,0,L|116:280,1,125
304,192,21800,2,0,L|192:124,1,125,8|0,0:0|0:0,0:0:0:0:
32,272,22172,6,0,L|124:360,1,125
312,272,22545,2,0,L|200:204,1,125,8|0,0:0|0:0,0:0:0:0:
376,192,22918,6,0,L|432:156,1,62.5
224,192,23104,2,0,L|168:164,1,62.5
44,236,23290,1,0,0:0:0:0:
40,288,23384,1,0,0:0:0:0:
88,284,23477,1,0,0:0:0:0:
152,260,23570,1,0,0:0:0:0:
360,156,23663,6,0,L|392:212,3,62.5
104,204,24036,2,0,L|36:224,1,62.5
248,312,24222,2,0,L|316:292,1,62.5
64,256,24408,6,0,P|40:172|120:144,1,187.5
307,294,24781,2,0,L|416:224,1,125
228,192,25154,1,0,0:0:0:0:
184,192,25247,1,0,0:0:0:0:
140,192,25340,1,0,0:0:0:0:
436,192,25526,2,0,L|380:304,1,125
88,192,25899,6,0,P|132:264|80:344,1,187.5
288,312,26272,2,0,L|404:264,1,125
88,244,26644,1,0,0:0:0:0:
232,192,26831,1,0,0:0:0:0:
384,192,27017,2,0,L|276:256,1,125
16,192,27390,5,0,0:0:0:0:
148,192,27576,1,0,0:0:0:0:
496,192,27762,1,0,0:0:0:0:
364,192,27948,1,0,0:0:0:0:
16,192,28135,1,0,0:0:0:0:
148,192,28321,1,0,0:0:0:0:
208,192,28415,1,0,0:0:0:0:
268,192,28508,1,0,0:0:0:0:
16,192,28694,1,0,0:0:0:0:
184,320,28880,6,0,L|236:276,1,62.5
52,264,29067,2,0,L|8:216,1,62.5
344,192,29253,2,0,L|392:152,3,62.5
132,108,29626,5,0,0:0:0:0:
96,128,29719,1,0,0:0:0:0:
84,188,29812,1,0,0:0:0:0:
164,216,29905,1,0,0:0:0:0:
432,192,29998,2,0,L|432:256,1,62.5
232,192,30185,2,0,L|208:256,1,62.5
52,324,30371,6,0,P|12:256|96:228,1,187.5
288,328,30744,2,0,L|376:236,1,125
104,192,31117,2,0,L|196:104,2,125
260,192,31676,2,0,L|328:188,1,62.5
488,192,31862,5,0,0:0:0:0:
352,296,32048,2,0,L|472:252,1,125
300,192,32421,1,0,0:0:0:0:
152,304,32607,2,0,L|260:236,2,125
92,304,33073,1,0,0:0:0:0:
320,284,33166,1,0,0:0:0:0:
464,192,33353,6,0,L|372:108,1,125
192,192,33725,2,0,L|300:272,1,125
464,192,34098,2,0,L|372:108,1,125
64,192,34471,1,0,0:0:0:0:
128,192,34564,1,0,0:0:0:0:
192,192,34657,1,0,0:0:0:0:
464,192,34843,6,0,B|300:192|300:192|392:192,1,250
36,328,35402,1,0,0:0:0:0:
364,192,35775,5,0,0:0:0:0:
384,208,35961,1,0,0:0:0:0:
356,216,36148,1,0,0:0:0:0:
196,268,36334,6,0,L|4:92,2,250
340,192,37266,2,0,L|444:116,2,125
64,192,37825,5,0,0:0:0:0:
220,192,38011,1,0,0:0:0:0:
184,192,38104,1,0,0:0:0:0:
148,192,38197,1,0,0:0:0:0:
416,192,38384,1,0,0:0:0:0:
156,300,38570,2,0,L|48:228,1,125
256,248,38943,2,0,L|360:320,1,125
168,340,39315,6,0,B|108:304|96:312|96:312|56:208,1,187.5
260,192,39688,2,0,L|368:260,1,125
204,272,40061,1,0,0:0:0:0:
368,188,40247,1,0,0:0:0:0:
204,272,40433,1,0,0:0:0:0:
368,188,40620,1,0,0:0:0:0:
204,272,40806,5,0,0:0:0:0:
480,192,40992,2,0,L|496:256,2,62.5
160,192,41365,2,0,L|144:256,2,62.5
324,192,41738,1,0,0:0:0:0:
132,284,41924,1,0,0:0:0:0:
324,192,42110,1,0,0:0:0:0:
132,284,42297,6,0,B|72:256|72:192|72:192|128:144,1,187.5
320,316,42669,2,0,L|408:216,1,125
232,192,43042,2,0,L|328:108,3,125
48,192,43787,5,0,0:0:0:0:
184,192,43974,1,0,0:0:0:0:
220,192,44036,1,0,0:0:0:0:
256,192,44098,1,0,0:0:0:0:
292,192,44160,1,0,0:0:0:0:
440,192,44346,1,0,0:0:0:0:
312,316,44533,2,0,P|232:284|180:200,1,187.5
380,192,44905,2,0,L|472:280,1,125
96,124,45278,6,0,P|68:216|136:284,1,187.5
296,248,45651,2,0,L|400:168,1,125
220,192,46023,2,0,L|108:120,1,125
168,160,46303,1,0,0:0:0:0:
376,240,46396,2,0,L|464:332,1,125
256,328,46769,5,0,0:0:0:0:
424,256,46955,1,0,0:0:0:0:
256,328,47141,1,0,0:0:0:0:
424,256,47328,1,0,0:0:0:0:
256,328,47514,1,0,0:0:0:0:
104,272,47700,2,0,L|80:332,2,62.5
408,272,48073,2,0,L|432:332,1,62.5
188,124,48259,6,0,L|12:304,2,250
13,302,49191,2,0,L|124:236,2,125
184,292,49750,6,0,B|240:232|240:232|256:184,1,125
216,156,50030,1,0,0:0:0:0:
12,204,50123,2,0,B|4:136|4:136|60:104,1,125
232,108,50495,2,0,L|128:36,1,125
288,280,50868,2,0,L|380:368,1,125
196,328,51241,6,0,P|120:280|116:176,1,187.5
340,268,51613,2,0,L|432:176,1,125
276,192,51986,1,0,0:0:0:0:
108,188,52172,1,0,0:0:0:0:
164,188,52266,1,0,0:0:0:0:
220,188,52359,1,0,0:0:0:0:
372,192,52545,1,0,0:0:0:0:
24,192,52731,5,0,0:0:0:0:
192,192,52918,2,0,L|204:232,3,41.6666666666667
372,192,53290,1,0,0:0:0:0:
228,304,53477,2,0,L|132:220,1,125
320,152,53849,2,0,L|420:236,1,125
116,88,54222,6,0,B|56:112|56:112|36:144|36:232,1,187.5
396,88,54595,2,0,B|456:112|456:112|476:144|476:232,1,187.5
200,320,54967,1,0,0:0:0:0:
76,252,55154,1,0,0:0:0:0:
248,208,55340,1,0,0:0:0:0:
392,128,55526,1,0,0:0:0:0:
72,128,55713,5,0,0:0:0:0:
224,120,55899,2,0,L|232:160,3,41.6666666666667
72,128,56272,1,0,0:0:0:0:
384,296,56458,1,0,0:0:0:0:
488,296,56644,1,0,0:0:0:0:
384,296,56831,1,0,0:0:0:0:
280,300,57017,1,0,0:0:0:0:
32,172,57203,6,0,P|48:92|144:108,1,187.5
344,248,57576,2,0,L|448:168,1,125
280,196,57949,2,0,L|168:132,1,125
224,164,58228,1,0,0:0:0:0:
424,304,58321,2,0,L|492:188,1,125
172,192,58694,5,0,0:0:0:0:
340,192,58880,1,0,0:0:0:0:
172,192,59067,1,0,0:0:0:0:
340,192,59253,1,0,0:0:0:0:
72,304,59439,5,0,0:0:0:0:
400,56,59626,1,0,0:0:0:0:
48,132,59812,1,0,0:0:0:0:
424,284,59998,1,0,0:0:0:0:
16,340,60185,5,0,0:0:0:0:
312,240,60557,1,0,0:0:0:0:
160,284,60744,2,0,P|100:216|200:120,1,250
336,192,61303,2,0,L|232:112,1,125
80,192,61676,6,0,L|184:120,1,125
236,116,61955,2,0,L|304:136,1,62.5
444,196,62235,2,0,L|336:124,2,125
128,192,62794,6,0,L|216:100,1,125
56,260,63166,2,0,L|152:340,1,125
416,284,63539,1,0,0:0:0:0:
292,196,63725,1,0,0:0:0:0:
416,284,63912,1,0,0:0:0:0:
120,280,64098,2,0,P|96:216|132:180,1,125
256,240,64471,1,0,0:0:0:0:
384,192,64657,6,0,B|456:192|456:192|388:192,1,125
252,192,65030,2,0,B|324:192|324:192|256:192,1,125
464,192,65402,1,0,0:0:0:0:
220,192,65589,1,0,0:0:0:0:
24,192,65775,1,0,0:0:0:0:
348,108,66148,5,0,0:0:0:0:
192,196,66334,2,0,B|152:144|152:144|116:160|192:324,1,250
356,192,66893,1,0,0:0:0:0:
304,192,66986,1,0,0:0:0:0:
252,192,67079,1,0,0:0:0:0:
96,192,67266,2,0,B|72:128|72:128|136:92,1,125
428,192,67638,6,0,P|408:272|248:304,1,250
76,192,68197,2,0,L|184:116,2,125
380,192,68756,2,0,L|456:296,1,125
132,192,69129,6,0,L|88:124,1,62.5
372,124,69315,2,0,B|440:168|440:168|412:220|412:220|308:168,1,250
132,196,69874,6,0,L|100:140,1,62.5
312,216,70061,2,0,L|360:164,1,62.5
104,320,70247,2,0,L|60:260,1,62.5
316,320,70433,2,0,L|368:264,1,62.5
416,308,70620,6,0,L|416:232,1,62.5
120,228,70806,2,0,L|120:296,1,62.5
356,124,70992,2,0,L|356:192,1,62.5
80,332,71179,2,0,L|80:264,1,62.5
472,192,71365,6,0,L|508:192,14,31.25
180,116,72110,1,0,0:0:0:0:
368,192,72856,5,0,0:0:0:0:
156,192,73042,1,0,0:0:0:0:
368,192,73228,1,0,0:0:0:0:
156,192,73415,1,0,0:0:0:0:
444,104,73601,6,0,B|472:192|428:240|428:240|320:212,1,250
156,192,74160,2,0,L|232:192,1,62.5
400,192,74346,1,0,0:0:0:0:
256,192,74533,1,0,0:0:0:0:
400,192,74719,2,0,L|496:296,1,125
152,192,75092,5,0,0:0:0:0:
24,192,75278,1,0,0:0:0:0:
324,292,75464,2,0,L|420:204,1,125
92,192,75837,2,0,L|184:104,2,125
256,192,76396,1,0,0:0:0:0:
296,192,76489,1,0,0:0:0:0:
484,192,76582,6,0,B|484:264|484:264|480:296|376:316,1,187.5
184,280,76955,2,0,L|68:220,1,125
256,168,77328,2,0,L|284:104,1,62.5
72,312,77607,2,0,L|52:252,1,62.5
448,192,77887,1,0,0:0:0:0:
284,288,78073,6,0,L|236:248,1,62.5
56,236,78259,2,0,L|12:188,1,62.5
324,168,78446,2,0,L|272:216,1,62.5
104,104,78632,2,0,L|48:144,1,62.5
384,332,78818,5,0,0:0:0:0:
432,312,78912,1,0,0:0:0:0:
480,264,79005,1,0,0:0:0:0:
484,192,79098,1,0,0:0:0:0:
304,96,79191,1,0,0:0:0:0:
232,100,79284,1,0,0:0:0:0:
184,148,79377,1,0,0:0:0:0:
164,196,79471,1,0,0:0:0:0:
4,192,79564,6,0,L|504:192,1,500
188,264,80309,5,0,0:0:0:0:
356,192,80495,1,0,0:0:0:0:
188,264,80682,1,0,0:0:0:0:
356,192,80868,1,0,0:0:0:0:
88,208,81054,6,0,B|48:160|48:160|64:128|160:108,1,187.5
344,284,81427,2,0,L|444:200,1,125
144,192,81800,2,0,L|248:120,3,125
428,192,82545,6,0,L|456:316,1,125
156,224,82918,2,0,L|120:344,1,125
424,200,83290,2,0,L|448:72,1,125
396,72,83570,1,0,0:0:0:0:
116,208,83663,2,0,L|88:332,1,125
376,264,84036,6,0,L|448:252,2,62.5
180,188,84315,2,0,L|108:176,2,62.5
396,104,84595,2,0,L|468:92,1,62.5
200,288,84781,5,0,0:0:0:0:
32,220,84967,1,0,0:0:0:0:
312,288,85154,1,0,0:0:0:0:
480,220,85340,1,0,0:0:0:0:
152,92,85526,6,0,B|96:136|96:200|96:200|164:204,1,187.5
84,304,85899,2,0,L|192:232,1,125
368,200,86272,2,0,L|384:132,1,62.5
156,204,86458,2,0,L|136:144,1,62.5
368,200,86644,2,0,L|452:84,1,125
120,296,87017,6,0,B|80:248|80:248|152:136,1,187.5
348,264,87390,1,0,0:0:0:0:
400,264,87483,1,0,0:0:0:0:
452,264,87576,1,0,0:0:0:0:
104,228,87762,1,0,0:0:0:0:
376,128,87949,1,0,0:0:0:0:
96,80,88135,2,0,L|76:144,3,62.5
396,212,88508,6,0,P|428:304|356:312,1,187.5
168,264,88880,2,0,L|88:164,1,125
304,128,89253,2,0,L|312:60,1,62.5
124,244,89439,2,0,L|116:180,1,62.5
356,252,89626,2,0,B|360:328|360:328|376:280,1,125
216,272,89998,5,0,0:0:0:0:
384,164,90185,1,0,0:0:0:0:
216,272,90371,1,0,0:0:0:0:
384,164,90557,1,0,0:0:0:0:
64,192,90744,2,0,L|72:232,5,41.6666666666667
304,192,91117,2,0,L|312:232,5,41.6666666666667
168,140,91489,6,0,B|32:140|32:140|400:140,1,500
160,192,92235,5,0,0:0:0:0:
440,120,92421,1,0,0:0:0:0:
88,276,92607,1,0,0:0:0:0:
160,264,92700,1,0,0:0:0:0:
232,248,92794,1,0,0:0:0:0:
428,192,92980,2,0,L|336:104,2,125
256,192,93539,2,0,L|348:104,2,125
112,196,94098,1,0,0:0:0:0:
140,172,94191,1,0,0:0:0:0:
168,152,94284,1,0,0:0:0:0:
480,256,94471,6,0,L|456:132,1,125
32,256,94843,2,0,L|56:132,1,125
480,128,95216,2,0,L|456:252,1,125
32,128,95589,2,0,L|56:252,1,125
512,192,95961,5,0,0:0:0:0:
256,192,96334,1,0,0:0:0:0:
0,192,96707,1,0,0:0:0:0:
256,192,97266,12,0,99315,0:0:0:0:
148,192,99502,5,0,0:0:0:0:
456,192,99688,2,0,L|496:136,1,62.5
296,188,99874,2,0,L|336:132,1,62.5
180,292,100061,6,0,B|104:264|104:264|76:156,1,187.5
396,224,100433,2,0,L|404:96,1,125
216,192,100806,1,0,0:0:0:0:
256,184,100899,1,0,0:0:0:0:
296,176,100992,1,0,0:0:0:0:
336,168,101085,1,0,0:0:0:0:
176,204,101179,2,0,L|68:116,1,125
416,112,101551,6,0,L|440:248,1,125
96,112,101924,2,0,L|72:248,1,125
256,192,102297,1,0,0:0:0:0:
116,192,102483,1,0,0:0:0:0:
400,192,102669,2,0,L|464:304,1,125
116,192,103042,6,0,L|96:268,2,62.5
292,192,103415,2,0,L|272:268,2,62.5
468,192,103787,2,0,L|428:140,1,62.5
256,192,103974,2,0,L|216:140,1,62.5
24,312,104160,2,0,L|64:260,1,62.5
236,312,104347,2,0,L|276:260,1,62.5
468,196,104533,6,0,B|484:256|484:256|448:312,1,125
288,192,104905,1,0,0:0:0:0:
264,196,104952,1,0,0:0:0:0:
240,200,104998,1,0,0:0:0:0:
216,208,105045,1,0,0:0:0:0:
192,216,105092,1,0,0:0:0:0:
168,224,105138,1,0,0:0:0:0:
144,236,105185,1,0,0:0:0:0:
124,248,105231,1,0,0:0:0:0:
100,260,105278,5,0,0:0:0:0:
124,268,105324,1,0,0:0:0:0:
148,276,105371,1,0,0:0:0:0:
172,284,105418,1,0,0:0:0:0:
372,264,105464,2,0,L|488:200,2,125
196,280,106023,6,0,L|64:144,1,187.5
200,192,106396,2,0,L|112:104,1,125
364,192,106769,1,0,0:0:0:0:
424,160,106862,1,0,0:0:0:0:
484,120,106955,1,0,0:0:0:0:
160,300,107141,1,0,0:0:0:0:
324,240,107328,6,0,L|220:164,1,125
76,252,107700,2,0,L|180:324,2,125
384,192,108259,2,0,L|484:108,1,125
192,192,108632,1,0,0:0:0:0:
232,152,108725,1,0,0:0:0:0:
272,112,108818,1,0,0:0:0:0:
144,324,109005,6,0,L|40:248,1,125
212,208,109377,2,0,L|104:136,1,125
380,60,109750,2,0,L|480:144,1,125
112,72,110123,2,0,L|48:112,1,62.5
232,176,110309,2,0,L|284:216,1,62.5
472,200,110495,6,0,B|508:256|508:256|488:296|340:208,1,250
68,52,111054,2,0,B|16:204|16:204|72:348,1,312.5
336,320,111613,2,0,L|468:184,1,187.5
132,192,111986,6,0,L|296:4,1,250
27,123,112545,1,0,0:0:0:0:
132,192,112731,2,0,L|28:124,1,125
132,192,113104,2,0,L|28:268,1,125
192,192,113477,5,0,0:0:0:0:
328,192,113663,1,0,0:0:0:0:
376,192,113725,1,0,0:0:0:0:
424,192,113787,1,0,0:0:0:0:
184,328,113849,2,0,L|80:252,1,125
272,192,114222,1,0,0:0:0:0:
116,192,114408,1,0,0:0:0:0:
448,112,114595,2,0,L|472:184,2,62.5
152,312,114967,6,0,L|64:140,1,187.5
344,276,115340,2,0,L|364:80,1,187.5
156,312,115713,1,0,0:0:0:0:
20,208,115899,1,0,0:0:0:0:
212,240,116085,1,0,0:0:0:0:
76,136,116271,1,0,0:0:0:0:
456,192,116458,5,0,0:0:0:0:
292,132,116644,1,0,0:0:0:0:
248,144,116706,1,0,0:0:0:0:
204,160,116769,1,0,0:0:0:0:
36,268,116831,2,0,B|8:324|8:324|72:324,1,125
396,272,117203,2,0,L|304:180,1,125
116,272,117576,2,0,L|208:180,1,125
388,88,117949,6,0,P|436:144|424:256,1,187.5
172,280,118321,2,0,L|68:204,1,125
244,240,118694,1,0,0:0:0:0:
388,152,118880,1,0,0:0:0:0:
204,192,119067,1,0,0:0:0:0:
348,104,119253,1,0,0:0:0:0:
32,304,119439,5,0,0:0:0:0:
176,252,119626,1,0,0:0:0:0:
156,228,119688,1,0,0:0:0:0:
136,204,119750,1,0,0:0:0:0:
312,312,119812,2,0,L|416:232,1,125
216,212,120185,2,0,L|320:132,1,125
120,112,120557,2,0,L|224:32,1,125
468,192,120930,5,0,0:0:0:0:
256,192,121116,12,0,122048,0:0:0:0:
176,300,122421,6,0,L|188:272,1,31.25,0|0,0:0|2:0,0:0:0:0:
344,228,122607,2,0,L|324:196,1,31.25,0|0,0:0|2:0,0:0:0:0:
128,160,122793,2,0,L|144:132,1,31.25,0|0,0:0|2:0,0:0:0:0:
400,128,122980,2,0,L|376:96,1,31.25,0|0,0:0|2:0,0:0:0:0:
72,260,123352,6,0,B|172:224|172:224|148:224,2,125
104,272,123772,1,0,0:0:0:0:
136,280,123818,1,0,0:0:0:0:
168,276,123865,1,0,0:0:0:0:
432,256,123911,6,0,P|460:216|392:112,1,187.5
84,196,124284,2,0,P|61:112|137:69,1,187.5
364,192,124657,2,0,L|392:328,1,125
208,312,125029,1,0,0:0:0:0:
388,308,125216,1,0,0:0:0:0:
108,312,125402,6,0,P|88:276|96:192,1,125
120,168,125651,1,0,0:0:0:0:
152,152,125713,1,0,0:0:0:0:
384,152,125775,2,0,L|372:280,1,125
76,244,126334,5,0,0:0:0:0:
260,232,126520,1,0,0:0:0:0:
444,196,126706,1,0,0:0:0:0:
76,244,126893,6,0,P|48:176|128:104,1,187.5
292,116,127265,2,0,P|304:192|272:296,1,187.5
467,192,127638,2,0,L|374:98,1,125
200,192,128011,2,0,L|293:98,1,125
36,192,128383,5,0,0:0:0:0:
200,192,128570,2,0,L|248:192,1,41.6666666666667
284,192,128694,1,0,0:0:0:0:
448,232,128756,1,0,0:0:0:0:
392,164,128942,1,0,0:0:0:0:
64,232,129315,5,0,0:0:0:0:
88,164,129501,1,0,0:0:0:0:
132,96,129688,1,0,0:0:0:0:
328,136,129874,2,0,L|428:212,1,125
244,228,130247,2,0,L|136:316,1,125
444,328,130620,5,0,0:0:0:0:
360,280,130806,1,0,0:0:0:0:
100,200,130992,1,0,0:0:0:0:
380,148,131179,1,0,0:0:0:0:
196,148,131365,2,0,P|160:96|200:60,1,125
460,212,131738,6,0,P|392:160|356:120,1,125
88,260,132110,2,0,P|156:208|192:168,1,125
488,216,132483,1,0,0:0:0:0:
200,100,132669,1,0,0:0:0:0:
444,128,132856,5,0,0:0:0:0:
476,200,133042,1,0,0:0:0:0:
464,252,133228,1,0,0:0:0:0:
440,276,133415,1,0,0:0:0:0:
24,256,133601,1,0,0:0:0:0:
272,232,133787,1,0,0:0:0:0:
248,160,133974,1,0,0:0:0:0:
176,108,134160,1,0,0:0:0:0:
436,104,134346,5,0,0:0:0:0:
352,152,134533,1,0,0:0:0:0:
216,192,134719,1,0,0:0:0:0:
64,216,134905,1,0,0:0:0:0:
324,244,135092,1,0,0:0:0:0:
476,268,135278,1,0,0:0:0:0:
184,264,135464,1,0,0:0:0:0:
32,288,135650,1,0,0:0:0:0:
344,312,135837,6,0,P|388:252|380:144,1,187.500007152558
324,92,136396,1,0,0:0:0:0:
64,160,136582,2,0,P|164:212|188:288,1,187.500007152558
128,320,137141,1,0,0:0:0:0:
408,332,137328,6,0,P|376:280|416:156,1,187.500007152558
484,116,137887,1,0,0:0:0:0:
152,120,138073,2,0,P|220:152|272:248,1,187.500007152558
208,316,138632,1,0,0:0:0:0:
488,284,138818,6,0,P|472:240|376:124,1,187.500007152558
80,144,139377,1,0,0:0:0:0:
328,144,139564,2,0,B|288:184|240:280|240:280|200:272,1,187.500007152558
104,144,140123,2,0,P|80:184|80:244,1,93.7500035762788
408,144,140495,5,0,0:0:0:0:
256,224,140682,1,0,0:0:0:0:
104,156,140868,1,0,0:0:0:0:
408,156,141054,1,0,0:0:0:0:
256,152,141241,1,0,0:0:0:0:
104,156,141427,2,0,P|80:116|136:36,1,140.625005364418
408,156,141800,6,0,P|440:312|468:352,1,187.500007152558
364,296,142359,1,0,0:0:0:0:
96,328,142545,2,0,P|104:280|148:136,1,187.500007152558
40,92,143104,1,0,0:0:0:0:
340,120,143290,2,0,P|384:176|496:248,1,187.500007152558
424,300,143849,1,0,0:0:0:0:
328,320,144036,1,0,0:0:0:0:
64,312,144222,6,0,P|36:256|56:196,1,93.7500035762788
344,152,144595,1,0,0:0:0:0:
16,184,144781,2,0,P|32:136|164:84,1,187.500007152558
496,184,145340,2,0,P|480:136|348:84,1,187.500007152558
120,192,145899,1,0,0:0:0:0:
392,192,146085,1,0,0:0:0:0:
120,192,146272,6,0,L|172:192,1,46.8750017881394
228,136,146458,2,0,L|176:136,1,46.8750017881394
284,136,146644,2,0,L|336:136,1,46.8750017881394
392,192,146831,2,0,L|340:192,1,46.8750017881394
284,248,147017,2,0,L|336:248,1,46.8750017881394
120,248,147203,2,0,L|172:248,1,46.8750017881394
392,192,147390,2,0,L|440:192,1,46.8750017881394
392,192,147576,2,0,L|340:192,1,46.8750017881394
52,192,147762,6,0,P|104:172|16:40,1,281.250010728836
336,192,148508,5,0,0:0:0:0:
176,192,148694,1,0,0:0:0:0:
420,192,148880,1,0,0:0:0:0:
92,192,149067,1,0,0:0:0:0:
336,192,149253,6,0,L|440:192,1,93.7500035762788
184,112,149626,2,0,L|84:112,1,93.7500035762788
280,192,149998,2,0,L|312:280,1,93.7500035762788
120,192,150371,2,0,L|88:280,1,93.7500035762788
336,304,150744,5,0,0:0:0:0:
432,256,150930,1,0,0:0:0:0:
288,192,151116,1,0,0:0:0:0:
32,144,151303,1,0,0:0:0:0:
280,144,151489,2,0,L|472:144,1,187.500007152558
192,192,152048,6,0,L|0:192,1,187.500007152558
160,288,152607,2,0,L|224:368,1,93.7500035762788
384,240,152980,2,0,L|480:184,1,93.7500035762788
272,128,153352,2,0,L|160:128,1,93.7500035762788
464,192,153725,5,0,0:0:0:0:
384,192,153911,1,0,0:0:0:0:
296,192,154098,1,0,0:0:0:0:
152,192,154284,1,0,0:0:0:0:
408,192,154470,2,0,P|448:240|360:296,1,187.500007152558
120,192,155029,1,0,0:0:0:0:
392,184,155216,5,0,0:0:0:0:
369,181,155262,1,0,0:0:0:0:
346,179,155309,1,0,0:0:0:0:
323,177,155355,1,0,0:0:0:0:
320,152,155402,1,0,0:0:0:0:
344,136,155448,1,0,0:0:0:0:
376,120,155495,1,0,0:0:0:0:
128,112,155588,6,0,P|72:144|88:224,1,140.625005364418
376,280,155961,5,0,0:0:0:0:
464,224,156147,1,0,0:0:0:0:
464,136,156334,1,0,0:0:0:0:
384,80,156520,1,0,0:0:0:0:
136,96,156706,6,0,P|144:144|256:208,1,187.500007152558
72,296,157265,2,0,P|16:240|88:176,1,187.500007152558
216,224,157824,1,0,0:0:0:0:
352,216,158011,1,0,0:0:0:0:
64,240,158197,6,0,L|120:160,1,93.7500035762788
120,240,158570,2,0,L|88:152,1,93.7500035762788
416,96,158942,2,0,L|360:176,1,93.7500035762788
360,96,159315,2,0,L|392:184,1,93.7500035762788
128,280,159688,6,0,L|160:192,1,93.7500035762788
408,200,160060,2,0,L|376:112,1,93.7500035762788
208,192,160433,5,0,0:0:0:0:
368,192,160619,1,0,0:0:0:0:
124,192,160805,1,0,0:0:0:0:
452,192,160992,1,0,0:0:0:0:
124,192,161179,6,0,L|16:192,1,93.7500035762788
304,192,161551,2,0,L|408:192,1,93.7500035762788
216,112,161924,2,0,L|320:112,1,93.7500035762788
128,192,162297,2,0,L|32:192,1,93.7500035762788
320,272,162669,5,0,0:0:0:0:
416,208,162856,1,0,0:0:0:0:
256,168,163042,1,0,0:0:0:0:
416,128,163228,1,0,0:0:0:0:
168,80,163415,2,0,L|136:168,1,93.7500035762788
384,192,163787,1,0,0:0:0:0:
136,192,163974,6,0,P|96:184|128:64,1,187.500007152558
352,192,164533,1,0,0:0:0:0:
200,192,164719,1,0,0:0:0:0:
448,192,164905,2,0,P|480:152|464:96,1,93.7500035762788
320,272,165278,2,0,P|280:240|224:256,1,93.7500035762788
408,232,165651,5,0,0:0:0:0:
264,184,165837,1,0,0:0:0:0:
448,128,166023,1,0,0:0:0:0:
192,72,166210,1,0,0:0:0:0:
440,88,166396,5,0,0:0:0:0:
504,136,166489,1,0,0:0:0:0:
392,168,166582,2,0,L|328:168,1,46.8750017881394
232,168,166769,5,0,0:0:0:0:
168,216,166862,1,0,0:0:0:0:
360,256,166955,2,0,L|424:256,1,46.8750017881394
192,288,167141,2,0,B|256:256|256:256|336:256,1,140.625005364418
88,240,167514,6,0,B|184:240|184:240|184:192,1,140.625005364418
384,200,167887,1,0,0:0:0:0:
464,160,168073,1,0,0:0:0:0:
280,104,168259,1,0,0:0:0:0:
360,72,168446,1,0,0:0:0:0:
104,80,168632,6,0,L|48:264,1,187.500007152558
296,320,169191,2,0,L|241:140,1,187.500007152558
488,120,169750,1,0,0:0:0:0:
336,72,169936,1,0,0:0:0:0:
80,136,170123,5,0,0:0:0:0:
24,216,170309,1,0,0:0:0:0:
72,280,170495,1,0,0:0:0:0:
136,312,170682,1,0,0:0:0:0:
416,240,170868,2,0,L|320:232,1,93.7500035762788
112,184,171241,2,0,L|184:120,1,93.7500035762788
456,312,171613,6,0,P|480:248|320:24,1,375
16,104,171986,2,0,B|24:248|128:320|128:320|224:224,1,375
8,336,172359,2,0,B|264:152|24:32|24:32|312:32|312:32|496:32,1,875
256,192,173104,12,0,175340,0:0:0:0:
176,208,175526,6,0,L|184:208,1,7.8125
272,176,175620,2,0,L|280:176,1,7.8125
488,256,175713,5,0,0:0:0:0:
490,240,175759,5,0,0:0:0:0:
490,224,175806,5,0,0:0:0:0:
490,209,175852,5,0,0:0:0:0:
489,193,175899,5,0,0:0:0:0:
487,178,175945,5,0,0:0:0:0:
483,163,175992,5,0,0:0:0:0:
479,148,176039,5,0,0:0:0:0:
474,133,176085,5,0,0:0:0:0:
467,119,176132,5,0,0:0:0:0:
460,105,176178,5,0,0:0:0:0:
451,92,176225,5,0,0:0:0:0:
442,79,176272,5,0,0:0:0:0:
432,67,176318,5,0,0:0:0:0:
421,56,176365,5,0,0:0:0:0:
409,46,176411,5,0,0:0:0:0:
397,36,176458,5,0,0:0:0:0:
384,27,176504,5,0,0:0:0:0:
371,20,176551,5,0,0:0:0:0:
356,13,176598,5,0,0:0:0:0:
342,7,176644,5,0,0:0:0:0:
327,2,176691,5,0,0:0:0:0:
312,0,176737,5,0,0:0:0:0:
297,0,176784,5,0,0:0:0:0:
281,0,176831,5,0,0:0:0:0:
265,0,176877,5,0,0:0:0:0:
250,0,176924,5,0,0:0:0:0:
234,0,176970,5,0,0:0:0:0:
219,0,177017,5,0,0:0:0:0:
204,3,177063,5,0,0:0:0:0:
189,8,177110,5,0,0:0:0:0:
174,13,177157,5,0,0:0:0:0:
160,20,177203,5,0,0:0:0:0:
147,28,177250,5,0,0:0:0:0:
134,37,177296,5,0,0:0:0:0:
122,46,177343,5,0,0:0:0:0:
110,57,177390,5,0,0:0:0:0:
99,68,177436,5,0,0:0:0:0:
89,80,177483,5,0,0:0:0:0:
80,93,177529,5,0,0:0:0:0:
72,106,177576,5,0,0:0:0:0:
64,120,177622,5,0,0:0:0:0:
58,134,177669,5,0,0:0:0:0:
53,149,177716,5,0,0:0:0:0:
48,164,177762,5,0,0:0:0:0:
45,179,177809,5,0,0:0:0:0:
43,194,177855,5,0,0:0:0:0:
42,210,177902,5,0,0:0:0:0:
42,226,177949,5,0,0:0:0:0:
43,241,177995,5,0,0:0:0:0:
45,257,178042,5,0,0:0:0:0:
48,272,178088,5,0,0:0:0:0:
52,287,178135,5,0,0:0:0:0:
57,302,178181,5,0,0:0:0:0:
64,316,178228,5,0,0:0:0:0:
71,330,178275,5,0,0:0:0:0:
312,336,178321,5,0,0:0:0:0:
400,304,178415,1,0,0:0:0:0:
488,256,178508,1,0,0:0:0:0:
40,80,178694,2,0,L|72:176,1,93.7500035762788
400,208,179067,5,0,0:0:0:0:
144,208,179253,2,0,P|112:168|192:88,1,187.500007152558
440,144,179812,1,0,0:0:0:0:
376,232,179998,1,0,0:0:0:0:
416,320,180185,1,0,0:0:0:0:
168,320,180371,6,0,L|312:320,1,140.625005364418
376,232,180744,2,0,L|232:232,1,140.625005364418
40,192,181116,1,0,0:0:0:0:
352,144,181303,2,0,L|336:40,1,93.7500035762788
24,96,181675,1,0,0:0:0:0:
176,192,182048,5,0,0:0:0:0:
424,256,182234,2,0,P|456:208|376:128,1,187.500007152558
128,160,182793,1,0,0:0:0:0:
224,208,182980,1,0,0:0:0:0:
336,240,183166,1,0,0:0:0:0:
88,264,183352,6,0,P|56:216|120:176,1,140.625005364418
424,160,183725,2,0,P|456:112|392:72,1,140.625005364418
352,80,184098,1,0,0:0:0:0:
40,144,184284,1,0,0:0:0:0:
168,192,184470,1,0,0:0:0:0:
472,192,184657,1,0,0:0:0:0:
168,192,185029,5,0,0:0:0:0:
472,192,185216,2,0,P|416:136|304:136,1,187.500007152558
88,192,185775,1,0,0:0:0:0:
256,192,185961,1,0,0:0:0:0:
424,192,186147,1,0,0:0:0:0:
88,192,186334,6,0,B|184:192|184:192|184:144,1,140.625005364418
424,192,186706,2,0,B|328:192|328:192|328:144,1,140.625005364418
88,192,187079,1,0,0:0:0:0:
232,192,187265,2,0,B|336:192|336:192|152:192,1,281.250010728836
432,296,188011,6,0,P|480:272|368:184,1,281.250010728836
128,192,188756,1,0,0:0:0:0:
208,192,188942,1,0,0:0:0:0:
288,192,189129,1,0,0:0:0:0:
368,192,189315,1,0,0:0:0:0:
80,296,189501,6,0,P|32:272|144:184,1,281.250010728836
440,192,190246,1,0,0:0:0:0:
344,192,190432,1,0,0:0:0:0:
200,192,190619,1,0,0:0:0:0:
104,192,190805,1,0,0:0:0:0:
432,296,190992,6,0,P|480:272|368:184,1,281.250010728836
24,192,191737,1,0,0:0:0:0:
176,192,191923,1,0,0:0:0:0:
336,192,192110,1,0,0:0:0:0:
488,192,192297,1,0,0:0:0:0:
56,312,192483,5,0,0:0:0:0:
42,293,192529,1,0,0:0:0:0:
32,272,192576,1,0,0:0:0:0:
26,249,192622,1,0,0:0:0:0:
25,225,192669,1,0,0:0:0:0:
29,202,192715,1,0,0:0:0:0:
37,180,192762,1,0,0:0:0:0:
49,161,192809,1,0,0:0:0:0:
66,144,192855,1,0,0:0:0:0:
85,130,192902,1,0,0:0:0:0:
106,121,192948,1,0,0:0:0:0:
129,116,192995,1,0,0:0:0:0:
153,116,193042,1,0,0:0:0:0:
175,120,193088,1,0,0:0:0:0:
197,129,193135,1,0,0:0:0:0:
432,320,193228,5,0,0:0:0:0:
438,297,193274,1,0,0:0:0:0:
440,274,193321,1,0,0:0:0:0:
439,250,193367,1,0,0:0:0:0:
434,227,193414,1,0,0:0:0:0:
425,206,193460,1,0,0:0:0:0:
413,186,193507,1,0,0:0:0:0:
392,160,193554,1,0,0:0:0:0:
368,136,193600,1,0,0:0:0:0:
336,120,193647,1,0,0:0:0:0:
296,104,193693,1,0,0:0:0:0:
248,88,193740,1,0,0:0:0:0:
200,80,193787,1,0,0:0:0:0:
152,80,193833,1,0,0:0:0:0:
104,104,193880,1,0,0:0:0:0:
488,296,193974,6,0,P|496:240|320:160,1,281.250010728836
8,192,194719,5,0,0:0:0:0:
176,192,194905,1,0,0:0:0:0:
464,192,194952,2,0,P|488:160|472:128,1,70.3125026822091
120,104,195278,1,0,0:0:0:0:
392,288,195464,6,0,L|336:200,1,93.7500035762788
152,192,195837,2,0,L|208:104,1,93.7500035762788
448,128,196210,2,0,L|392:40,1,93.7500035762788
64,128,196582,2,0,L|120:40,1,93.7500035762788
384,192,196955,5,0,0:0:0:0:
128,192,197141,1,0,0:0:0:0:
384,192,197328,2,0,L|416:104,1,93.7500035762788
96,192,197700,1,0,0:0:0:0:
256,192,197887,1,0,0:0:0:0:
416,192,198073,1,0,0:0:0:0:
96,192,198259,6,0,P|48:216|104:304,1,187.500007152558
288,256,198818,2,0,L|368:192,1,93.7500035762788
176,144,199191,2,0,L|72:120,1,93.7500035762788
336,112,199564,2,0,L|440:112,1,93.7500035762788
128,192,199936,5,0,0:0:0:0:
384,192,200122,1,0,0:0:0:0:
128,192,200309,2,0,L|96:104,1,93.7500035762788
416,192,200681,1,0,0:0:0:0:
256,192,200868,1,0,0:0:0:0:
96,192,201054,1,0,0:0:0:0:
416,192,201241,1,0,0:0:0:0:
256,192,201427,5,0,0:0:0:0:
243,172,201473,1,0,0:0:0:0:
240,149,201520,1,0,0:0:0:0:
247,127,201566,1,0,0:0:0:0:
263,111,201613,1,0,0:0:0:0:
285,103,201659,1,0,0:0:0:0:
308,106,201706,1,0,0:0:0:0:
32,112,201800,6,0,P|56:144|96:240,1,140.625005364418
392,320,202172,5,0,0:0:0:0:
512,264,202359,1,0,0:0:0:0:
256,208,202545,1,0,0:0:0:0:
504,144,202731,1,0,0:0:0:0:
112,88,202918,6,0,P|168:136|160:248,1,187.500007152558
456,336,203477,2,0,P|440:280|512:176,1,187.500007152558
256,152,204036,1,0,0:0:0:0:
8,144,204222,1,0,0:0:0:0:
384,328,204408,5,0,0:0:0:0:
328,256,204595,1,0,0:0:0:0:
272,176,204781,1,0,0:0:0:0:
216,96,204967,1,0,0:0:0:0:
88,328,205154,1,0,0:0:0:0:
144,256,205340,1,0,0:0:0:0:
200,192,205526,1,0,0:0:0:0:
256,144,205713,1,0,0:0:0:0:
8,192,205899,5,0,0:0:0:0:
64,120,206085,1,0,0:0:0:0:
504,192,206272,1,0,0:0:0:0:
448,120,206458,1,0,0:0:0:0:
176,192,206644,5,0,0:0:0:0:
336,192,206831,1,0,0:0:0:0:
88,192,207017,1,0,0:0:0:0:
424,192,207203,1,0,0:0:0:0:
8,192,207390,6,0,L|40:104,1,93.7500035762788
504,192,207762,2,0,L|472:104,1,93.7500035762788
88,192,208135,2,0,L|120:104,1,93.7500035762788
424,192,208508,2,0,L|392:104,1,93.7500035762788
88,192,208880,5,0,0:0:0:0:
256,192,209067,1,0,0:0:0:0:
88,192,209253,1,0,0:0:0:0:
424,192,209439,1,0,0:0:0:0:
88,192,209626,2,0,L|280:192,1,187.500007152558
24,192,210185,6,0,L|224:192,1,187.500007152558
400,296,210744,2,0,L|296:296,1,93.7500035762788
496,192,211116,2,0,L|384:192,1,93.7500035762788
152,192,211489,2,0,L|248:192,1,93.7500035762788
0,192,211862,5,0,0:0:0:0:
208,192,212048,1,0,0:0:0:0:
456,192,212234,1,0,0:0:0:0:
208,192,212421,1,0,0:0:0:0:
400,192,212607,2,0,P|464:168|408:88,1,187.500007152558
88,184,213166,1,0,0:0:0:0:
248,192,213352,5,0,0:0:0:0:
272,216,213398,1,0,0:0:0:0:
272,256,213445,1,0,0:0:0:0:
248,288,213491,1,0,0:0:0:0:
200,296,213538,1,0,0:0:0:0:
144,288,213584,1,0,0:0:0:0:
96,256,213631,1,0,0:0:0:0:
384,304,213725,6,0,P|440:280|440:208,1,140.625005364418
112,208,214098,5,0,0:0:0:0:
216,160,214284,1,0,0:0:0:0:
80,120,214470,1,0,0:0:0:0:
248,72,214657,1,0,0:0:0:0:
0,168,214843,6,0,P|16:216|144:280,1,187.500007152558
448,288,215402,2,0,P|456:256|336:192,1,187.500007152558
96,168,215961,1,0,0:0:0:0:
256,168,216147,1,0,0:0:0:0:
504,304,216334,5,0,0:0:0:0:
464,248,216520,1,0,0:0:0:0:
424,192,216706,1,0,0:0:0:0:
384,112,216893,1,0,0:0:0:0:
136,240,217079,5,0,0:0:0:0:
176,184,217265,1,0,0:0:0:0:
216,128,217451,1,0,0:0:0:0:
152,88,217638,1,0,0:0:0:0:
512,56,217824,6,0,B|480:136|368:224|368:224|248:104,1,375
0,136,218197,2,0,B|200:256|200:256|304:144,1,375
512,304,218570,2,0,L|128:304,1,375
8,224,218942,6,0,P|0:136|80:96,1,187.500007152558
160,144,219501,1,0,0:0:0:0:
424,192,219687,2,0,L|320:192,2,93.7500035762788
176,192,220246,2,0,L|368:192,1,187.500007152558
64,192,220805,1,0,0:0:0:0:
480,192,220991,1,0,0:0:0:0:
128,192,221178,5,0,0:0:0:0:
384,192,221364,1,0,0:0:0:0:
128,192,221550,1,0,0:0:0:0:
384,192,221737,1,0,0:0:0:0:
128,192,221923,6,0,L|96:104,1,93.7500035762788
280,192,222296,2,0,L|248:104,1,93.7500035762788
48,192,222668,2,0,L|80:104,1,93.7500035762788
464,192,223041,2,0,L|432:104,1,93.7500035762788
128,192,223414,5,0,0:0:0:0:
384,192,223600,1,0,0:0:0:0:
128,192,223786,2,0,L|160:104,1,93.7500035762788
488,192,224159,2,0,L|288:192,1,187.500007152558
24,192,224718,6,0,L|224:192,1,187.500007152558
504,192,225277,2,0,L|504:96,1,93.7500035762788
256,192,225650,2,0,L|256:80,1,93.7500035762788
8,192,226022,2,0,L|8:96,1,93.7500035762788
488,192,226395,6,0,L|488:136,1,46.8750017881394
384,192,226581,2,0,L|384:136,1,46.8750017881394
280,192,226768,2,0,L|280:136,1,46.8750017881394
384,192,226954,2,0,L|384:136,1,46.8750017881394
168,144,227140,6,0,L|120:144,1,46.8750017881394
88,152,227327,2,0,L|152:152,1,46.8750017881394
304,280,227513,2,0,L|256:280,1,46.8750017881394
496,288,227699,1,0,0:0:0:0:
448,224,227792,1,0,0:0:0:0:
200,96,227886,5,0,0:0:0:0:
176,120,227932,1,0,0:0:0:0:
176,160,227979,1,0,0:0:0:0:
200,192,228025,1,0,0:0:0:0:
248,200,228072,1,0,0:0:0:0:
304,192,228118,1,0,0:0:0:0:
352,160,228165,1,0,0:0:0:0:
0,192,228258,6,0,B|24:344|24:344|376:344,1,500
448,288,228817,1,0,0:0:0:0:
480,200,229004,1,0,0:0:0:0:
400,120,229190,1,0,0:0:0:0:
136,144,229376,6,0,B|32:208|32:208|192:208|192:208,1,281.250010728836
96,208,229749,1,0,0:0:0:0:
448,288,230122,2,0,L|448:272,1,11.7187504470349
376,232,230308,2,0,L|376:216,1,11.7187504470349
480,208,230494,2,0,L|480:192,1,11.7187504470349
368,168,230681,2,0,L|368:152,1,11.7187504470349
256,192,230867,12,0,232171,0:0:0:0:
256,192,232358,5,0,0:0:0:0:
256,192,232544,1,0,0:0:0:0:
256,192,232730,1,0,0:0:0:0:
256,192,232917,1,0,0:0:0:0:
144,192,233103,6,0,L|144:144,1,46.8750017881394
368,192,233289,2,0,L|368:136,1,46.8750017881394
144,192,233476,6,0,L|144:136,1,46.8750017881394
368,145,233662,2,0,L|368:201,1,46.8750017881394
64,32,233848,6,0,B|24:152|32:328|32:328|88:64|88:64|64:304|64:304|32:88|32:88|80:376|80:376|16:0|16:0|96:288|96:288|352:280|352:280|128:232|128:232|360:264|360:264|104:240|104:240|72:-8|72:-8|232:176|232:176|16:224|16:224|512:232|512:232|488:16|488:16|496:120|496:120|256:16|256:16|464:104|464:104|256:24|256:24|480:112|480:112|248:16|248:16|480:192|480:192|224:192|224:192|424:208|424:208|408:120|408:120|416:16|416:16|424:128|424:128|184:128|184:128|144:168|144:168|0:240|0:240|360:248|360:248,1,7500
120,248,239625,1,0,0:0:0:0:
472,176,239811,5,0,0:0:0:0:
496,200,239857,1,0,0:0:0:0:
496,240,239904,1,0,0:0:0:0:
472,272,239950,1,0,0:0:0:0:
424,280,239997,1,0,0:0:0:0:
368,272,240043,1,0,0:0:0:0:
320,240,240090,1,0,0:0:0:0:
0,280,240184,6,0,B|24:240|24:240|120:192,1,140.625005364418
400,176,240556,5,0,0:0:0:0:
440,136,240743,1,0,0:0:0:0:
160,176,240929,1,0,0:0:0:0:
112,128,241115,1,0,0:0:0:0:
416,200,241302,6,0,B|504:184|504:184|320:176|320:176|424:152|424:152|304:88|304:88,1,500
40,272,241861,2,0,B|-8:208|-8:208|176:200|176:200|64:112|64:112|192:112|192:112,1,500
408,200,242420,2,0,B|496:96|496:96|360:96,1,250
48,200,242792,6,0,L|48:112,1,87.5
432,296,244283,6,0,L|240:136,1,250
440,192,244842,1,0,0:0:0:0:
96,288,245028,1,0,0:0:0:0:
344,152,245215,1,0,0:0:0:0:
96,288,245401,1,0,0:0:0:0:
344,152,245587,1,0,0:0:0:0:
184,312,245774,5,0,0:0:0:0:
144,312,245867,1,0,0:0:0:0:
112,296,245960,1,0,0:0:0:0:
72,272,246053,2,0,L|16:160,1,125
256,224,246333,2,0,L|320:208,1,62.5
480,272,246519,6,0,L|496:144,1,125
256,272,246799,2,0,L|184:160,1,125
40,272,247078,2,0,L|96:240,1,62.5
336,312,247264,5,0,0:0:0:0:
392,296,247358,1,0,0:0:0:0:
432,272,247451,1,0,0:0:0:0:
464,240,247544,1,0,0:0:0:0:
280,216,247637,2,0,L|208:200,1,62.5
440,144,247823,2,0,L|504:136,1,62.5
208,280,248010,6,0,L|128:288,1,62.5
368,168,248196,2,0,L|432:160,1,62.5
128,232,248382,2,0,L|72:280,1,62.5
312,256,248569,2,0,L|264:304,1,62.5
464,320,248755,6,0,L|496:200,1,125
232,280,249035,2,0,L|160:168,1,125
400,128,249314,2,0,L|432:192,1,62.5
144,296,249501,5,0,0:0:0:0:
80,280,249594,1,0,0:0:0:0:
40,224,249687,1,0,0:0:0:0:
112,240,249780,1,0,0:0:0:0:
384,192,249873,1,0,0:0:0:0:
104,200,250060,1,0,0:0:0:0:
368,288,250246,6,0,L|440:256,1,62.5
216,208,250432,2,0,L|280:176,1,62.5
24,192,250619,2,0,L|152:192,1,125
392,192,250991,6,0,L|424:128,1,62.5
200,192,251178,2,0,L|144:128,1,62.5
416,248,251364,2,0,B|480:280|480:280|416:296,1,125
368,272,251643,1,0,0:0:0:0:
80,304,251737,6,0,L|40:184,1,125
240,224,252016,2,0,L|312:120,1,125
472,192,252296,2,0,L|408:216,1,62.5
176,280,252482,6,0,L|112:240,1,62.5
384,264,252668,2,0,L|320:240,1,62.5
120,208,252855,2,0,L|56:168,1,62.5
328,192,253041,2,0,L|264:168,1,62.5
96,280,253227,6,0,L|48:320,2,62.5
256,192,253507,1,0,0:0:0:0:
416,280,253600,2,0,L|464:320,2,62.5
256,192,253879,1,0,0:0:0:0:
48,320,253973,6,0,L|96:280,1,62.5
464,320,254159,2,0,L|416:280,1,62.5
48,320,254345,2,0,L|96:280,1,62.5
464,320,254531,2,0,L|416:280,1,62.5
192,128,254718,5,0,0:0:0:0:
144,168,254811,1,0,0:0:0:0:
96,208,254904,1,0,0:0:0:0:
64,264,254997,1,0,0:0:0:0:
320,128,255091,5,0,0:0:0:0:
368,168,255184,1,0,0:0:0:0:
416,208,255277,1,0,0:0:0:0:
448,264,255370,1,0,0:0:0:0:
184,264,255463,6,0,L|120:288,2,62.5
368,272,255743,1,0,0:0:0:0:
448,248,255836,2,0,L|496:208,1,62.5
320,168,256022,2,0,L|272:112,1,62.5
112,304,256209,6,0,L|48:304,1,62.5
248,304,256395,2,0,L|320:304,1,62.5
128,232,256581,2,0,L|64:232,1,62.5
264,232,256767,2,0,L|336:232,1,62.5
88,192,256954,6,0,L|64:192,1,15.625
368,144,257140,2,0,L|392:144,1,15.625
72,336,257327,2,0,L|48:336,1,15.625
440,328,257513,2,0,L|464:328,1,15.625
144,296,257699,6,0,L|88:264,1,62.5
320,232,257886,2,0,L|344:168,1,62.5
88,112,258072,1,0,0:0:0:0:
40,160,258165,1,0,0:0:0:0:
80,224,258258,1,0,0:0:0:0:
152,208,258351,1,0,0:0:0:0:
416,160,258445,6,0,L|464:216,1,62.5
272,288,258631,2,0,L|208:304,1,62.5
416,320,258817,1,0,0:0:0:0:
472,304,258910,1,0,0:0:0:0:
496,248,259004,1,0,0:0:0:0:
424,256,259097,1,0,0:0:0:0:
160,256,259190,6,0,L|104:288,2,62.5
384,192,259469,1,0,0:0:0:0:
216,296,259563,2,0,L|161:265,2,62.5
368,128,259842,1,0,0:0:0:0:
432,312,259935,6,0,L|496:312,1,62.5
248,272,260122,2,0,L|312:272,1,62.5
480,224,260308,1,0,0:0:0:0:
488,152,260401,1,0,0:0:0:0:
400,176,260494,1,0,0:0:0:0:
312,200,260587,1,0,0:0:0:0:
96,304,260681,6,0,L|48:256,1,62.5
248,216,260867,1,0,0:0:0:0:
304,224,260960,1,0,0:0:0:0:
496,296,261053,2,0,L|472:360,2,62.5
472,256,261333,1,0,0:0:0:0:
320,144,261426,6,0,L|248:120,2,62.5
480,192,261705,1,0,0:0:0:0:
80,280,261799,2,0,L|40:224,1,62.5
232,224,261985,2,0,L|264:160,1,62.5
416,304,262171,6,0,L|480:280,1,62.5
248,240,262358,2,0,L|208:304,1,62.5
24,256,262544,2,0,L|88:288,1,62.5
344,208,262730,2,0,L|384:152,1,62.5
120,176,262917,6,0,L|72:216,2,62.5
432,160,263196,1,0,0:0:0:0:
232,272,263289,2,0,L|168:272,1,62.5
128,208,263476,2,0,L|64:208,1,62.5
416,312,263662,6,0,L|480:312,1,62.5
272,240,263848,2,0,L|336:240,1,62.5
416,240,264035,2,0,L|480:240,1,62.5
272,168,264221,2,0,L|336:168,1,62.5
416,168,264407,6,0,L|480:168,1,62.5
272,96,264593,2,0,L|336:96,1,62.5
416,96,264780,2,0,L|480:96,1,62.5
272,24,264966,2,0,L|336:24,1,62.5
96,312,265153,6,0,L|32:312,1,62.5
240,240,265339,2,0,L|176:240,1,62.5
96,240,265526,2,0,L|32:240,1,62.5
240,168,265712,2,0,L|176:168,1,62.5
96,168,265898,6,0,L|32:168,1,62.5
240,96,266084,2,0,L|176:96,1,62.5
96,96,266271,2,0,L|32:96,1,62.5
240,24,266457,2,0,L|176:24,1,62.5
376,264,266643,6,0,L|480:264,1,93.7500035762788
168,304,266830,2,0,L|72:304,1,93.7500035762788
400,200,267016,2,0,L|504:200,1,93.7500035762788
192,240,267203,2,0,L|96:240,1,93.7500035762788
376,120,267389,6,0,L|480:120,1,93.7500035762788
168,80,267576,2,0,L|72:80,1,93.7500035762788
400,184,267762,2,0,L|504:184,1,93.7500035762788
192,144,267949,2,0,L|96:144,1,93.7500035762788
376,264,268134,5,0,0:0:0:0:
512,192,268320,1,0,0:0:0:0:
104,288,268507,1,0,0:0:0:0:
448,192,268693,1,0,0:0:0:0:
64,192,268879,2,0,L|256:192,1,187.500007152558
448,192,269252,2,0,L|256:192,1,187.500007152558
120,288,269625,5,0,0:0:0:0:
88,312,269811,1,0,0:0:0:0:
128,328,269997,1,0,0:0:0:0:
432,192,270184,1,0,0:0:0:0:
160,96,270370,6,0,L|72:128,1,93.7500035762788
248,208,270743,2,0,L|152:248,1,93.7500035762788
368,136,271115,2,0,L|472:152,1,93.7500035762788
144,304,271488,2,0,L|48:328,1,93.7500035762788
456,88,271861,5,0,0:0:0:0:
