osu file format v14

[General]
AudioFilename: PO.mp3
AudioLeadIn: 0
PreviewTime: 52893
Countdown: 0
SampleSet: None
StackLeniency: 0.7
Mode: 0
LetterboxInBreaks: 0
WidescreenStoryboard: 1

[Editor]
DistanceSpacing: 0.8
BeatDivisor: 4
GridSize: 4
TimelineZoom: 2.28

[Metadata]
Title:Hametsu no Junjou
TitleUnicode:破滅の純情
Artist:Walkure
ArtistUnicode:ワルキューレ
Creator:Sadism-Bread
Version:Insane
Source:マクロスΔ
Tags:
BeatmapID:1426321
BeatmapSetID:674035

[Difficulty]
HPDrainRate:5.5
CircleSize:4.3
OverallDifficulty:7.5
ApproachRate:8.8
SliderMultiplier:1.6
SliderTickRate:1

[Events]
//Background and Video events
0,0,"BG.jpg",0,0
//Break Periods
//Storyboard Layer 0 (Background)
//Storyboard Layer 1 (Fail)
//Storyboard Layer 2 (Pass)
//Storyboard Layer 3 (Foreground)
//Storyboard Sound Samples

[TimingPoints]
845,361.44578313253,4,2,1,50,1,0
5905,-100,4,2,1,60,0,1
16567,-100,4,2,1,60,0,0
17110,-100,4,2,1,20,0,0
17652,-100,4,2,1,60,0,0
29760,-100,4,2,1,40,0,0
41326,-142.857142857143,4,2,1,50,0,0
50001,-125,4,2,1,60,0,0
52893,-125,4,2,1,40,0,0
54158,-100,4,2,1,60,0,0
54338,-83.3333333333333,4,2,1,80,0,1
65724,-83.3333333333333,4,2,1,80,0,0
65905,-83.3333333333333,4,2,1,80,0,1
72953,-83.3333333333333,4,2,1,80,0,0
74128,-83.3333333333333,4,2,1,80,0,0
75844,-83.3333333333333,4,2,1,80,0,1
76025,-83.3333333333333,4,2,1,80,0,0
77471,-71.4285714285714,4,2,1,80,0,1
84519,-100,4,2,1,80,0,0
85784,-71.4285714285714,4,2,1,80,0,0
86146,-55.5555555555556,4,2,1,80,0,1
87411,-55.5555555555556,4,2,1,40,0,0

[Colours]
Combo1 : 255,128,192
Combo2 : 255,60,60
Combo3 : 128,0,255
Combo4 : 255,162,77
Combo5 : 128,255,128

[HitObjects]
76,152,844,5,0,1:0:0:0:
52,228,1025,2,0,L|132:236,1,80,2|8,0:0|0:1,0:0:0:0:
224,172,1386,1,2,0:0:0:0:
248,248,1567,1,0,1:0:0:0:
224,172,1748,2,0,L|304:164,1,80,2|8,0:0|0:1,0:0:0:0:
452,224,2109,6,0,B|472:168|472:168|440:72,1,160,2|2,1:2|3:0,0:0:0:0:
368,216,2651,2,0,L|376:296,1,80,8|0,0:1|0:0,0:0:0:0:
304,164,3013,2,0,L|312:84,1,80,0|0,1:0|1:0,0:0:0:0:
248,248,3374,1,8,0:1:0:0:
76,152,3736,5,0,1:0:0:0:
128,236,3916,2,0,L|48:228,1,80,2|8,0:0|0:1,0:0:0:0:
224,172,4278,1,2,0:0:0:0:
248,248,4459,1,0,1:0:0:0:
300,164,4639,2,0,L|220:172,1,80,2|8,0:0|0:1,0:0:0:0:
192,304,5001,2,0,B|248:288|248:288|344:320,1,160,2|0,1:2|1:0,0:0:0:0:
420,344,5543,1,8,1:0:0:0:
496,168,5904,6,0,P|504:132|504:88,1,80,0|2,1:0|0:0,0:0:0:0:
396,204,6266,1,8,1:0:0:0:
300,164,6447,2,0,L|220:172,1,80,2|4,0:0|1:2,0:0:0:0:
60,188,6808,5,2,0:0:0:0:
140,180,6989,2,0,B|143:140|143:140|139:100,1,80,8|0,0:1|0:0,0:0:0:0:
120,260,7350,2,0,B|116:299|116:299|120:339,1,80,0|0,1:0|0:0,0:0:0:0:
219,172,7712,2,0,B|222:132|222:132|218:92,1,80,8|0,0:1|0:0,0:0:0:0:
199,252,8073,2,0,B|195:291|195:291|199:331,2,80,0|0|8,1:0|1:0|0:1,0:0:0:0:
300,164,8615,5,2,0:0:0:0:
300,164,8706,1,2,0:0:0:0:
300,164,8796,1,0,1:0:0:0:
304,276,8977,1,0,1:0:0:0:
400,216,9157,1,8,0:1:0:0:
464,308,9338,2,0,B|488:276|488:276|496:236,1,80,2|0,0:0|1:0,0:0:0:0:
508,108,9700,1,2,0:0:0:0:
400,216,9880,6,0,B|396:176|396:176|376:140,1,80,8|0,0:1|0:0,0:0:0:0:
304,276,10242,2,0,B|300:316|300:316|280:352,1,80,0|0,1:0|0:0,0:0:0:0:
216,212,10603,2,0,B|212:172|212:172|192:136,1,80,8|0,0:1|0:0,0:0:0:0:
120,272,10965,2,0,B|116:312|116:312|96:348,2,80,0|0|8,1:0|1:0|0:1,0:0:0:0:
80,124,11507,5,2,0:0:0:0:
60,204,11688,2,0,L|140:196,1,80,0|0,1:0|0:0,0:0:0:0:
248,76,12049,1,8,0:1:0:0:
300,136,12230,2,0,L|380:144,1,80,2|4,0:0|1:2,0:0:0:0:
492,224,12591,1,2,0:0:0:0:
492,224,12772,6,0,B|488:184|488:184|464:152,1,80,8|0,0:1|0:0,0:0:0:0:
392,268,13133,2,0,B|368:236|368:236|332:220,1,80,0|0,1:0|0:0,0:0:0:0:
324,356,13495,2,0,B|288:340|288:340|248:344,1,80,8|0,0:1|0:0,0:0:0:0:
136,264,13856,2,0,L|128:344,2,80,0|0|8,1:0|1:0|0:1,0:0:0:0:
192,204,14398,5,2,0:0:0:0:
192,204,14489,1,2,0:0:0:0:
192,204,14579,1,0,1:0:0:0:
64,224,14760,1,2,0:0:0:0:
152,132,14941,1,8,0:1:0:0:
72,144,15121,2,0,B|36:124|36:124|20:88,1,80,2|0,0:0|1:0,0:0:0:0:
192,204,15483,1,2,0:0:0:0:
256,92,15663,6,0,L|296:20,1,80,8|0,0:1|0:0,0:0:0:0:
380,116,16025,2,0,L|420:188,1,80,0|0,1:0|0:0,0:0:0:0:
484,116,16386,1,0,1:0:0:0:
324,188,16567,2,0,B|300:264|300:264|324:340,1,160,4|0,1:2|0:0,0:0:0:0:
384,264,17109,6,0,L|396:304,2,40
224,288,17471,1,0,0:0:0:0:
224,288,17561,1,0,0:0:0:0:
224,288,17651,2,0,L|248:364,2,80,0|8|0,1:0|0:1|1:0,0:0:0:0:
192,196,18194,5,4,1:2:0:0:
140,256,18374,1,2,0:0:0:0:
88,196,18555,1,8,0:1:0:0:
36,256,18736,2,0,P|12:220|12:176,1,80,2|0,0:0|1:0,0:0:0:0:
120,44,19097,2,0,P|96:80|96:124,1,80,0|8,0:0|0:1,0:0:0:0:
192,196,19459,6,0,P|228:136|304:92,1,160,2|2,0:0|0:0,0:0:0:0:
448,140,20001,1,8,1:0:0:0:
396,80,20181,2,0,P|376:116|368:156,1,80,2|0,0:0|1:0,0:0:0:0:
388,264,20543,1,0,1:0:0:0:
316,232,20724,1,8,0:1:0:0:
256,284,20904,2,0,P|256:324|248:364,1,80,2|0,0:0|1:0,0:0:0:0:
148,312,21266,5,0,0:0:0:0:
76,344,21447,1,8,0:1:0:0:
16,292,21627,2,0,P|8:252|8:212,1,80,2|0,0:0|1:0,0:0:0:0:
40,60,21989,2,0,P|24:100|16:136,1,80,2|8,0:0|0:1,0:0:0:0:
116,184,22350,2,0,P|136:108|184:44,1,160,2|0,0:0|0:0,0:0:0:0:
256,80,22892,1,8,0:1:0:0:
76,344,23254,6,0,P|108:324|148:312,1,80,0|0,1:0|0:0,0:0:0:0:
256,284,23615,2,0,P|288:304|328:316,1,80,8|0,0:1|0:0,0:0:0:0:
436,344,23977,2,0,P|424:304|420:264,1,80,0|0,1:0|0:0,0:0:0:0:
492,124,24338,1,8,0:1:0:0:
432,176,24519,2,0,B|368:200|328:148|328:148|288:96|216:120,1,240,2|8,0:0|1:0,0:0:0:0:
156,172,25242,5,2,0:0:0:0:
96,120,25422,2,0,P|92:80|96:40,1,80,0|0,1:0|0:0,0:0:0:0:
48,236,25784,1,0,1:0:0:0:
128,248,25965,2,0,B|208:252|180:320|260:324,1,160,2|0,0:0|0:0,0:0:0:0:
352,352,26507,2,0,P|344:316|340:272,1,80,8|0,0:1|0:0,0:0:0:0:
476,324,26868,6,0,P|492:248|496:164,1,160,0|8,1:0|0:1,0:0:0:0:
392,212,27410,1,2,0:0:0:0:
332,116,27591,1,0,1:0:0:0:
256,200,27772,1,0,0:0:0:0:
180,116,27953,1,8,0:1:0:0:
120,212,28133,2,0,P|104:304|80:368,1,160
40,196,28675,1,8,0:1:0:0:
256,60,29037,5,2,0:0:0:0:
252,76,29127,1,2,0:0:0:0:
256,92,29218,1,2,0:0:0:0:
252,108,29308,1,2,0:0:0:0:
256,124,29398,2,0,B|256:204,1,80,8|2,0:1|0:0,0:0:0:0:
192,332,29760,5,4,1:2:0:0:
320,252,29941,1,0,0:0:0:0:
192,252,30121,1,8,0:1:0:0:
320,332,30302,2,0,B|360:328|360:328|388:300,1,80,2|0,0:0|1:0,0:0:0:0:
192,332,30663,2,0,B|152:336|152:336|124:364,1,80,0|8,0:0|0:1,0:0:0:0:
320,252,31025,2,0,B|336:220|336:220|332:176,1,80,2|0,0:0|1:0,0:0:0:0:
192,252,31386,5,0,0:0:0:0:
332,176,31567,1,8,0:1:0:0:
192,100,31748,2,0,L|112:100,1,80,2|0,0:0|1:0,0:0:0:0:
320,100,32109,5,0,0:0:0:0:
180,176,32290,1,8,0:1:0:0:
332,176,32471,2,0,L|412:176,1,80,2|0,0:0|1:0,0:0:0:0:
192,252,32832,5,0,0:0:0:0:
320,252,33013,1,8,0:1:0:0:
180,328,33194,2,0,L|100:328,1,80,0|0,0:0|1:0,0:0:0:0:
332,328,33555,2,0,L|412:328,1,80,2|8,0:0|0:1,0:0:0:0:
256,196,33916,2,0,B|248:148|248:148|264:92|264:92|256:40,1,160,0|0,1:0|1:0,0:0:0:0:
192,88,34459,1,8,0:1:0:0:
316,256,34820,6,0,B|336:280|336:280|332:328,1,80,0|0,1:0|0:0,0:0:0:0:
180,328,35181,2,0,B|176:280|176:280|196:256,1,80,8|0,0:1|0:0,0:0:0:0:
344,176,35543,2,0,L|424:176,1,80,0|0,1:0|0:0,0:0:0:0:
256,136,35904,1,8,0:1:0:0:
168,176,36085,2,0,B|72:176|72:176|20:212,1,160,0|2,0:0|0:0,0:0:0:0:
88,252,36627,1,0,0:0:0:0:
168,96,36808,5,2,0:0:0:0:
168,96,36989,2,0,L|88:96,1,80,0|0,1:0|0:0,0:0:0:0:
256,136,37350,1,8,0:1:0:0:
344,96,37531,2,0,B|440:96|440:96|492:132,1,160,2|0,0:0|0:0,0:0:0:0:
424,176,38073,2,0,L|344:176,1,80,8|0,0:1|0:0,0:0:0:0:
256,136,38434,6,0,B|248:176|248:176|264:252|264:252|256:292,1,160,0|8,1:0|0:1,0:0:0:0:
256,372,38977,1,2,0:0:0:0:
188,332,39158,1,0,0:0:0:0:
324,332,39338,2,0,L|340:252,1,80,0|8,0:0|0:1,0:0:0:0:
172,252,39700,2,0,L|156:172,1,80,2|0,0:0|1:0,0:0:0:0:
168,96,40061,5,2,0:0:0:0:
256,136,40242,1,8,0:1:0:0:
340,60,40423,1,2,0:0:0:0:
356,172,40604,1,0,1:0:0:0:
356,172,40694,1,0,0:0:0:0:
356,172,40784,1,2,0:0:0:0:
480,144,40965,2,0,L|472:228,1,80,8|2,0:1|0:0,0:0:0:0:
424,312,41326,6,0,P|392:268|336:256,1,111.999996582031,4|8,1:2|0:1,0:0:0:0:
288,316,41869,1,0,3:0:0:0:
288,316,41959,1,0,3:0:0:0:
288,316,42049,1,0,1:0:0:0:
212,296,42230,1,0,3:0:0:0:
136,276,42411,2,0,L|64:284,1,55.9999982910157,8|0,0:1|0:0,0:0:0:0:
44,188,42772,6,0,B|96:168|96:168|152:176,1,111.999996582031,0|8,1:0|0:1,0:0:0:0:
252,192,43314,1,0,3:0:0:0:
252,192,43405,1,0,3:0:0:0:
252,192,43495,2,0,L|260:136,1,55.9999982910157,2|2,1:2|1:2,0:0:0:0:
332,208,43857,1,8,0:1:0:0:
372,148,44037,1,2,1:2:0:0:
480,208,44218,6,0,P|452:216|432:232,1,55.9999982910157,0|0,1:0|0:0,0:0:0:0:
336,312,44579,2,0,P|308:304|288:288,1,55.9999982910157,8|0,0:1|0:0,0:0:0:0:
252,192,44941,1,0,0:0:0:0:
216,256,45122,1,0,0:0:0:0:
132,200,45302,1,8,0:1:0:0:
120,272,45483,6,0,P|100:328|68:372,1,111.999996582031,2|0,0:0|0:0,0:0:0:0:
24,280,46025,2,0,P|12:228|8:168,1,111.999996582031,8|0,0:1|1:0,0:0:0:0:
28,100,46567,1,0,3:0:0:0:
80,152,46748,1,8,0:1:0:0:
164,96,46929,5,2,0:0:0:0:
164,96,47110,2,0,B|208:88|228:124|272:116,1,111.999996582031,4|8,1:2|0:1,0:0:0:0:
492,156,47832,5,0,0:0:0:0:
420,144,48013,1,2,0:0:0:0:
468,88,48194,1,8,0:1:0:0:
492,156,48375,2,0,P|500:220|476:280,1,130.666662679037
424,332,48917,1,8,0:1:0:0:
424,332,49098,2,0,P|380:296|324:288,1,111.999996582031,2|0,0:0|0:0,0:0:0:0:
216,300,49640,1,8,0:1:0:0:
312,216,49820,5,0,0:0:0:0:
312,216,50001,2,0,P|324:192|324:156,1,64,2|0,1:3|0:0,0:0:0:0:
188,155,50363,2,0,P|188:188|200:216,1,64,2|0,1:3|0:0,0:0:0:0:
328,288,50724,2,0,L|392:296,1,64,2|0,1:3|0:0,0:0:0:0:
184,364,51085,2,0,L|120:372,1,64,2|0,1:3|0:0,0:0:0:0:
328,364,51447,6,0,L|392:372,1,64,2|0,1:3|0:0,0:0:0:0:
184,288,51808,2,0,L|120:296,1,64,2|0,1:3|0:0,0:0:0:0:
312,216,52170,2,0,L|376:208,1,64,2|0,1:3|0:0,0:0:0:0:
188,155,52531,5,2,1:2:0:0:
256,324,52712,1,2,1:2:0:0:
396,72,53254,5,0,0:0:0:0:
328,108,53616,1,0,0:0:0:0:
256,80,53977,1,0,0:0:0:0:
100,116,54158,6,0,L|96:136,1,20,0|0,1:0|1:0,0:0:0:0:
68,108,54248,2,0,L|64:128,1,20,0|0,1:0|1:0,0:0:0:0:
36,100,54338,2,0,L|16:196,1,95.9999970703126,4|0,1:2|0:0,0:0:0:0:
100,300,54700,2,0,L|196:280,1,95.9999970703126,8|0,1:0|0:0,0:0:0:0:
328,252,55061,5,0,1:0:0:0:
256,368,55242,1,2,0:0:0:0:
256,176,55423,1,8,1:0:0:0:
352,348,55604,2,0,P|448:348|500:276,1,191.999994140625,0|0,1:0|1:0,0:0:0:0:
448,152,56146,6,0,L|352:164,1,95.9999970703126,8|0,1:0|0:0,0:0:0:0:
256,56,56507,2,0,L|352:44,1,95.9999970703126,0|0,1:0|0:0,0:0:0:0:
208,124,56869,2,0,L|112:136,1,95.9999970703126,8|0,1:0|0:0,0:0:0:0:
0,256,57230,5,0,1:0:0:0:
44,148,57411,1,2,0:0:0:0:
76,336,57591,1,8,1:0:0:0:
120,228,57772,1,0,0:0:0:0:
256,348,57953,5,0,1:0:0:0:
196,272,58134,2,0,P|164:312|160:356,1,95.9999970703126,2|8,0:0|1:0,0:0:0:0:
316,272,58495,2,0,P|364:352|456:364,1,191.999994140625,0|0,1:0|1:0,0:0:0:0:
476,232,59037,2,0,L|380:216,1,95.9999970703126,8|0,1:0|0:0,0:0:0:0:
348,124,59399,2,0,L|256:160,1,95.9999970703126,0|2,1:0|0:0,0:0:0:0:
184,96,59760,2,0,L|124:172,1,95.9999970703126,0|0,1:0|0:0,0:0:0:0:
28,152,60122,6,0,B|12:248|12:248|48:336,1,191.999994140625,0|8,1:0|1:0,0:0:0:0:
160,260,60664,1,2,0:0:0:0:
160,260,60844,2,0,L|124:172,1,95.9999970703126,0|0,1:0|0:0,0:0:0:0:
44,60,61206,2,0,L|140:80,1,95.9999970703126,8|0,1:0|0:0,0:0:0:0:
308,116,61567,6,0,L|212:136,1,95.9999970703126,0|2,1:0|0:0,0:0:0:0:
356,36,61929,1,8,1:0:0:0:
348,200,62110,1,0,0:0:0:0:
452,72,62290,1,0,1:0:0:0:
440,236,62471,1,2,0:0:0:0:
440,236,62652,2,0,P|432:288|412:328,1,95.9999970703126,8|0,1:0|0:0,0:0:0:0:
284,284,63013,6,0,P|248:320|208:340,1,95.9999970703126,0|0,1:0|0:0,0:0:0:0:
28,224,63375,2,0,P|64:260|104:280,1,95.9999970703126,8|0,1:0|0:0,0:0:0:0:
248,152,63736,1,0,1:0:0:0:
208,260,63917,1,2,0:0:0:0:
48,96,64098,1,8,1:0:0:0:
104,196,64278,2,0,P|152:112|216:40,1,191.999994140625,0|8,1:0|0:0,0:0:0:0:
248,152,64820,2,0,P|284:188|324:208,1,95.9999970703126,8|0,1:2|0:0,0:0:0:0:
476,88,65182,6,0,B|484:140|484:140|472:176|472:176|480:228,2,143.999995605469,2|2|2,1:0|0:1|0:1,0:0:0:0:
408,268,65905,6,0,L|400:364,1,95.9999970703126,4|0,1:2|0:0,0:0:0:0:
324,208,66266,2,0,L|316:304,1,95.9999970703126,8|0,1:0|0:0,0:0:0:0:
236,356,66628,1,0,1:0:0:0:
212,244,66808,1,0,0:0:0:0:
140,356,66989,1,8,1:0:0:0:
112,244,67170,2,0,P|100:152|104:52,1,191.999994140625,0|0,1:0|1:0,0:0:0:0:
12,188,67712,6,0,P|16:236|28:284,1,95.9999970703126,8|0,1:0|0:0,0:0:0:0:
192,148,68073,1,0,1:0:0:0:
192,148,68254,2,0,P|192:80|196:52,2,95.9999970703126,2|8|2,0:0|1:0|0:0,0:0:0:0:
236,356,68796,5,0,1:0:0:0:
320,204,68977,1,2,0:0:0:0:
404,356,69158,1,8,1:0:0:0:
488,204,69338,1,0,0:0:0:0:
488,356,69519,5,0,1:0:0:0:
404,252,69700,2,0,P|400:204|408:156,1,95.9999970703126,2|8,0:0|1:0,0:0:0:0:
320,328,70061,2,0,P|252:268|164:304,1,191.999994140625,0|0,1:0|1:0,0:0:0:0:
80,380,70604,2,0,P|60:340|52:288,1,95.9999970703126,8|0,1:0|0:0,0:0:0:0:
28,176,70965,2,0,L|120:204,1,95.9999970703126,0|0,1:0|0:0,0:0:0:0:
116,48,71326,2,0,L|28:84,1,95.9999970703126,8|0,1:0|0:0,0:0:0:0:
176,124,71688,6,0,B|272:148|256:64|356:88,1,191.999994140625,0|8,1:0|1:0,0:0:0:0:
408,272,72230,1,2,0:0:0:0:
444,132,72411,2,0,P|448:84|440:36,1,95.9999970703126,0|0,1:0|0:0,0:0:0:0:
324,164,72772,1,8,1:0:0:0:
488,220,72953,1,4,1:2:0:0:
24,76,73495,5,4,1:2:0:0:
48,208,73676,1,4,1:2:0:0:
444,132,74218,5,4,1:2:0:0:
192,340,74579,6,0,P|100:356|36:292,1,191.999994140625,2|0,1:0|0:0,0:0:0:0:
320,340,75122,6,0,P|412:356|476:292,1,191.999994140625,2|0,1:0|0:0,0:0:0:0:
444,132,75664,5,2,1:0:0:0:
256,244,75844,6,0,P|164:260|100:196,1,191.999994140625,4|0,1:2|3:0,0:0:0:0:
92,88,76387,1,8,1:0:0:0:
168,160,76567,1,2,0:0:0:0:
232,32,76748,1,0,1:0:0:0:
256,144,76929,1,0,0:0:0:0:
380,40,77110,1,8,1:0:0:0:
344,160,77290,6,0,L|352:184,1,23.9999992675781,0|0,1:0|1:0,0:0:0:0:
376,152,77381,2,0,L|384:176,1,23.9999992675781,0|0,1:0|1:0,0:0:0:0:
408,144,77471,2,0,B|420:180|420:180|404:252,1,111.999996582031,4|0,1:2|0:0,0:0:0:0:
376,360,77832,1,8,1:0:0:0:
256,244,78013,5,0,3:0:0:0:
256,244,78103,1,0,3:0:0:0:
256,244,78194,1,0,1:0:0:0:
172,348,78375,1,0,1:0:0:0:
320,296,78555,1,8,1:0:0:0:
176,236,78736,6,0,L|116:232,1,55.9999982910157,2|2,3:2|3:2,0:0:0:0:
40,284,78917,2,0,P|8:252|0:188,1,111.999996582031,0|0,1:0|1:0,0:0:0:0:
32,80,79278,1,8,1:0:0:0:
152,160,79459,1,0,3:0:0:0:
152,160,79549,1,0,3:0:0:0:
152,160,79640,1,0,1:0:0:0:
256,40,79820,5,0,3:0:0:0:
260,84,79911,1,0,3:0:0:0:
284,120,80001,1,0,1:0:0:0:
324,140,80091,1,0,3:0:0:0:
368,144,80182,2,0,L|424:136,1,55.9999982910157,2|0,3:0|0:0,0:0:0:0:
480,212,80363,6,0,P|432:244|380:248,1,111.999996582031,0|0,1:0|1:0,0:0:0:0:
256,192,80724,1,8,1:0:0:0:
320,336,80905,1,0,3:0:0:0:
320,336,80995,1,0,3:0:0:0:
320,336,81085,2,0,P|268:312|212:308,1,111.999996582031,0|0,1:0|1:0,0:0:0:0:
24,288,81447,6,0,L|32:364,2,74.6666643880209,8|8|4,1:0|3:0|3:0,0:0:0:0:
132,260,81808,2,0,L|124:336,2,74.6666643880209,4|8|4,1:3|3:0|3:0,0:0:0:0:
52,180,82170,2,0,L|36:64,1,111.999996582031,8|0,1:0|0:0,0:0:0:0:
144,168,82531,1,0,1:0:0:0:
224,48,82712,1,2,1:2:0:0:
300,172,82893,5,2,1:2:0:0:
320,132,82983,1,2,3:2:0:0:
356,104,83073,1,2,3:2:0:0:
400,96,83164,1,0,3:0:0:0:
444,108,83254,2,0,P|484:144|496:200,1,111.999996582031,0|2,1:0|1:2,0:0:0:0:
448,348,83616,5,8,1:0:0:0:
396,200,83796,1,2,1:2:0:0:
312,332,83977,1,0,1:0:0:0:
224,152,84158,1,0,1:0:0:0:
224,152,84248,1,0,1:0:0:0:
224,152,84338,1,8,1:0:0:0:
156,340,84519,6,0,L|80:316,1,80,4|4,1:2|1:3,0:0:0:0:
236,364,85061,5,4,1:2:0:0:
60,236,85242,1,4,1:2:0:0:
376,368,85784,6,0,B|452:344|452:344|496:268,1,167.999994873047,4|0,1:2|0:0,0:0:0:0:
356,228,86146,6,0,L|80:316,1,287.999991210938,4|0,1:2|0:0,0:0:0:0:
12,96,86688,2,0,L|288:8,1,287.999991210938,4|0,1:2|0:0,0:0:0:0:
460,164,87230,2,0,L|320:120,1,143.999995605469,4|0,1:2|0:0,0:0:0:0:
264,256,87591,6,0,L|356:228,3,95.9999970703126,0|2|2|0,3:0|3:2|3:2|3:0,0:0:0:0:
