osu file format v14

[General]
AudioFilename: audio.mp3
AudioLeadIn: 0
PreviewTime: 30171
Countdown: 1
SampleSet: Normal
StackLeniency: 0.6
Mode: 0
LetterboxInBreaks: 0
WidescreenStoryboard: 1

[Editor]
Bookmarks: 8900,31679,34635,34741
DistanceSpacing: 0.8
BeatDivisor: 8
GridSize: 4
TimelineZoom: 1.8

[Metadata]
Title:Furare Uta
TitleUnicode:ふられ うた
Artist:Wakusei Abnormal
ArtistUnicode:惑星アブノーマル
Creator:Atsuro
Version:Du du dudu
Source:
Tags:atsuro rock jrock japanese experimental
BeatmapID:1271978
BeatmapSetID:602193

[Difficulty]
HPDrainRate:5
CircleSize:4
OverallDifficulty:8
ApproachRate:9.8
SliderMultiplier:2.2
SliderTickRate:1

[Events]
//Background and Video events
0,0,"Untitled-1.png",0,0
//Break Periods
//Storyboard Layer 0 (Background)
//Storyboard Layer 1 (Fail)
//Storyboard Layer 2 (Pass)
//Storyboard Layer 3 (Foreground)
//Storyboard Sound Samples

[TimingPoints]
83,424.028268551237,4,1,1,45,1,0
1779,-133.333333333333,4,1,1,45,0,0
2132,-57.1428571428571,4,1,1,45,0,0
3475,-133.333333333333,4,1,1,45,0,0
3828,-57.1428571428571,4,1,1,45,0,0
4959,-100,4,1,1,45,0,0
5171,-133.333333333333,4,1,1,45,0,0
5595,-100,4,1,1,45,0,0
5807,-83.3333333333333,4,1,1,45,0,0
6019,-76.9230769230769,4,1,1,45,0,0
7503,430.10752688172,4,1,1,45,1,0
8578,-71.4285714285714,4,1,1,45,0,0
9223,430.10752688172,4,1,1,45,1,0
10298,-71.4285714285714,4,1,1,45,0,0
10943,-100,4,1,1,45,0,0
12018,-71.4285714285714,4,1,1,45,0,0
12663,-83.3333333333333,4,1,1,45,0,0
14384,485.82995951417,4,1,1,45,1,0
18270,495.867768595041,4,1,1,45,1,0
21245,-50,4,1,1,45,0,0
21741,-200,4,1,1,45,0,0
22236,497.92531120332,4,1,1,45,1,0
22236,-83.3333333333333,4,1,1,45,0,0
29206,-50,4,1,1,45,0,0
29704,-142.857142857143,4,1,1,45,0,0
30202,422.237860661506,4,1,1,45,1,1
30202,-58.8235294117647,4,1,1,45,0,1
36957,-90.9090909090909,4,1,1,45,0,0
42024,437.956204379562,4,1,1,45,1,0
42024,-76.9230769230769,4,1,1,45,0,0
44943,-100,4,1,1,45,0,0
45308,-66.6666666666667,4,1,1,45,0,0
45527,447.761194029851,4,1,1,45,1,0
46721,-100,4,1,1,45,0,0
47094,-66.6666666666667,4,1,1,45,0,0
48213,456.273764258555,4,1,1,45,1,0
48213,-66.6666666666667,4,1,1,45,0,0
48441,-111.111111111111,4,1,1,45,0,0
48897,-83.3333333333333,4,1,1,45,0,0
49126,428.571428571429,4,1,1,45,1,0
49126,-76.9230769230769,4,1,1,45,0,0
50840,439.56043956044,4,1,1,45,1,0
51938,-71.4285714285714,4,1,1,45,0,0
52598,-100,4,1,1,45,0,0
53697,-71.4285714285714,4,1,1,45,0,0
54905,-100,4,1,1,45,0,0
55455,-71.4285714285714,4,1,1,45,0,0
56114,-83.3333333333333,4,1,1,45,0,0
57872,371.517027863777,4,1,1,45,1,0
57872,-166.666666666667,4,1,1,45,0,0
61587,389.61038961039,4,1,1,45,1,0
61587,-166.666666666667,4,1,1,45,0,0
63145,375,4,1,1,45,1,0
63518,-100,4,1,1,45,0,0
63895,389.61038961039,4,1,1,45,1,0
63895,-200,4,1,1,45,0,0
64284,-125,4,1,1,45,0,0
64674,-200,4,1,1,45,0,0
65063,377.358490566038,4,1,1,45,1,0
65063,-200,4,1,1,45,0,0
65817,-125,4,1,1,45,0,0
66195,-200,4,1,1,45,0,0
66572,-125,4,1,1,45,0,0
66949,375,4,1,1,45,1,0
66949,-125,4,1,1,45,0,0
68449,-76.9230769230769,4,1,1,45,0,0
69199,-66.6666666666667,4,1,1,45,0,0
75985,370.37037037037,4,1,1,45,1,0
81170,800,4,1,1,45,1,0
81970,428.571428571429,4,1,1,45,1,0
82398,428.571428571429,4,1,1,45,1,1
89014,419.58041958042,4,1,1,45,1,1
95727,413.793103448276,4,1,1,45,1,0
99037,398.671096345515,4,1,1,45,1,0
102226,413.793103448276,4,1,1,45,1,0
113812,428.571428571429,4,1,1,45,1,0
115526,431.654676258993,4,1,1,45,1,1
120705,413.793103448276,4,1,1,45,1,1
122153,423.280423280423,4,1,1,45,1,1

[Colours]
Combo1 : 226,211,29
Combo2 : 0,51,255
Combo3 : 141,188,239
Combo4 : 201,20,20

[HitObjects]
144,160,1779,6,0,L|108:280,1,110.000004196167,0|0,0:0|2:0,0:0:0:0:
71,124,2132,2,0,P|105:89|189:93,1,128.333334557215,0|0,0:0|2:0,0:0:0:0:
144,160,3475,6,0,L|108:280,1,110.000004196167,0|0,0:0|2:0,0:0:0:0:
70,124,3828,2,0,P|117:83|181:88,1,128.333334557215,0|0,0:0|2:0,0:0:0:0:
144,160,4959,6,0,L|127:215,1,55,0|0,0:0|2:0,0:0:0:0:
332,96,5171,6,0,L|214:131,1,123.750004720688,0|0,0:0|2:2,0:0:0:0:
387,153,5595,2,0,P|411:97|403:65,1,55,0|0,0:0|2:2,0:0:0:0:
167,0,5807,2,0,L|189:64,1,65.9999979858399,0|0,0:0|2:0,0:0:0:0:
254,357,6019,6,0,L|274:288,1,71.4999967269899,0|0,0:0|2:0,0:0:0:0:
332,96,6231,1,0,0:0:0:0:
133,247,6443,1,0,0:0:0:0:
204,268,6549,1,0,0:0:0:0:
275,289,6655,1,0,0:0:0:0:
21,341,6867,5,0,0:0:0:0:
89,308,6973,1,0,0:0:0:0:
133,247,7079,1,0,0:0:0:0:
142,173,7185,1,0,0:0:0:0:
115,103,7291,2,0,P|72:72|57:64,1,60.5000018463135
275,289,7503,5,0,0:0:0:0:
306,281,7610,1,0,0:0:0:0:
338,274,7718,1,0,0:0:0:0:
401,327,7825,1,0,0:0:0:0:
433,320,7933,1,0,0:0:0:0:
464,312,8040,2,0,P|478:287|461:234,1,82.5,0|0,0:0|2:0,0:0:0:0:
307,119,8255,2,0,P|321:142|376:154,1,82.5,0|0,0:0|2:0,0:0:0:0:
369,84,8470,1,0,0:0:0:0:
272,294,8578,6,0,B|199:315|199:315|123:294,1,153.999995300293
123,145,8900,2,0,B|144:218|144:218|123:294,1,153.999995300293
48,129,9223,1,0,0:0:0:0:
66,92,9330,1,0,0:0:0:0:
101,71,9438,1,0,0:0:0:0:
186,130,9545,5,0,0:0:0:0:
154,137,9653,1,0,0:0:0:0:
123,145,9760,2,0,B|100:223|100:223,1,82.5,0|0,0:0|2:0,0:0:0:0:
121,375,9975,2,0,B|99:297|98:295,1,82.5,0|0,0:0|2:0,0:0:0:0:
37,259,10190,1,0,0:0:0:0:
248,261,10298,6,0,P|316:241|364:152,1,153.999995300293
226,0,10620,2,0,P|210:74|245:142,1,153.999995300293
420,312,10943,5,0,0:0:0:0:
428,281,11050,1,0,0:0:0:0:
435,249,11158,1,0,0:0:0:0:
361,174,11266,2,0,L|347:237,1,55,0|0,0:0|2:0,0:0:0:0:
151,174,11481,2,0,L|165:237,1,55,0|0,0:0|2:1,0:0:0:0:
256,40,11696,2,0,L|256:132,1,82.5,0|0,0:0|2:0,0:0:0:0:
256,200,11911,1,0,0:0:0:0:
64,340,12018,6,0,P|124:324|236:304,1,153.999995300293
448,340,12341,2,0,P|388:324|276:304,1,153.999995300293
90,199,12663,6,0,P|121:189|150:173,1,65.9999979858399,0|0,0:0|2:0,0:0:0:0:
422,199,12878,2,0,P|390:189|361:173,1,65.9999979858399,0|0,0:0|2:0,0:0:0:0:
207,56,13093,2,0,P|256:47|305:56,1,98.9999969787599,0|0,0:0|2:0,0:0:0:0:
256,128,13309,1,0,0:0:0:0:
92,200,13416,6,0,L|80:84,1,98.9999969787599,0|0,0:0|2:0,0:0:0:0:
16,244,13631,2,0,L|5:145,1,98.9999969787599,0|0,0:0|2:0,0:0:0:0:
0,60,13846,1,0,0:0:0:0:
88,288,13954,2,0,L|94:353,1,65.9999979858399,0|0,0:0|1:0,0:0:0:0:
256,160,14169,2,0,L|256:232,1,65.9999979858399,0|0,0:0|1:0,0:0:0:0:
424,288,14384,5,0,0:0:0:0:
444,212,14626,1,0,0:0:0:0:
403,211,14747,1,0,0:0:0:0:
367,231,14868,1,0,0:0:0:0:
347,266,14990,1,0,0:0:0:0:
328,358,15112,1,0,0:0:0:0:
287,351,15233,1,0,0:0:0:0:
246,344,15354,5,0,0:0:0:0:
248,87,15537,1,0,0:0:0:0:
246,344,15720,1,0,0:0:0:0:
247,215,15841,1,0,0:0:0:0:
222,182,15962,1,0,0:0:0:0:
183,170,16083,1,0,0:0:0:0:
144,182,16205,1,0,0:0:0:0:
178,247,16327,6,0,L|155:316,1,55,0|0,0:0|2:0,0:0:0:0:
59,151,16570,2,0,P|70:127|92:110,1,55,0|0,0:0|2:0,0:0:0:0:
300,223,16813,2,0,B|272:225|272:225|247:215,1,55,0|0,0:0|2:0,0:0:0:0:
212,19,17056,2,0,L|230:72,1,55,0|0,0:0|2:0,2:0:0:0:
496,184,17298,6,0,L|443:202,1,55,0|0,0:0|2:0,2:0:0:0:
213,256,17541,2,0,P|224:232|246:215,1,55,0|0,0:0|2:0,0:0:0:0:
429,124,17784,1,0,0:0:0:0:
429,124,17906,2,0,P|381:152|374:242,1,137.5,0|0,0:0|2:0,0:0:0:0:
443,201,18270,5,0,0:0:0:0:
446,241,18393,1,0,0:0:0:0:
428,278,18517,1,0,0:0:0:0:
396,303,18641,2,0,L|279:300,1,110
117,291,19013,2,0,L|186:294,1,55
344,195,19261,5,0,0:0:0:0:
252,193,19385,2,0,L|197:190,1,55
64,89,19633,2,0,L|173:91,1,110
401,92,20005,1,0,0:0:0:0:
346,91,20128,1,0,0:0:0:0:
403,153,20253,6,0,L|464:154,1,55,0|0,0:0|2:0,0:0:0:0:
384,360,20501,2,0,L|329:360,1,55,0|0,0:0|2:0,0:0:0:0:
109,153,20749,2,0,L|54:153,1,55,0|0,0:0|2:0,0:0:0:0:
128,360,20997,2,0,L|183:360,1,55,0|0,0:0|2:0,0:0:0:0:
120,74,21245,6,0,P|71:105|53:163,1,110,0|0,0:0|2:0,0:0:0:0:
458,152,21493,2,0,P|438:102|391:73,1,110,0|0,0:0|2:0,0:0:0:0:
256,256,21741,2,0,B|248:304|264:304|256:352,1,96.25,0|0,0:0|2:0,0:0:0:0:
256,256,22236,5,0,0:0:0:0:
233,216,22360,1,0,0:0:0:0:
256,176,22484,1,0,0:0:0:0:
233,136,22609,1,0,0:0:0:0:
292,73,22733,2,0,P|328:120|342:183,1,98.9999969787599,0|0,0:0|2:0,0:0:0:0:
256,176,22982,1,0,0:0:0:0:
233,136,23107,1,0,0:0:0:0:
145,109,23231,6,0,L|76:97,1,65.9999979858399
165,274,23480,2,0,L|234:262,1,65.9999979858399
404,168,23729,2,0,L|335:156,1,65.9999979858399
406,346,23978,1,0,0:0:0:0:
480,303,24102,1,0,0:0:0:0:
405,259,24227,6,0,P|373:264|346:282,1,65.9999979858399,0|0,0:0|2:0,0:0:0:0:
105,296,24476,2,0,P|137:291|164:273,1,65.9999979858399,0|0,0:0|2:0,0:0:0:0:
67,78,24725,2,0,B|51:109|51:109|51:140,1,65.9999979858399,0|0,0:0|2:0,0:0:0:0:
148,336,24974,2,0,B|164:305|164:305|164:273,1,65.9999979858399,0|0,0:0|2:0,0:0:0:0:
36,19,25223,6,0,L|74:93,1,65.9999979858399,0|0,0:0|2:0,0:0:0:0:
319,19,25472,2,0,L|281:93,1,65.9999979858399,0|0,0:0|2:0,0:0:0:0:
0,178,25721,2,0,L|52:242,1,65.9999979858399,0|0,0:0|2:0,0:0:0:0:
355,178,25970,2,0,L|312:228,1,65.9999979858399,0|0,0:0|2:0,0:0:0:0:
178,20,26219,5,0,0:0:0:0:
161,56,26343,1,0,0:0:0:0:
178,92,26468,1,0,0:0:0:0:
161,128,26592,2,0,P|147:210|165:282,1,131.99999597168
242,369,26966,2,0,P|246:336|256:304,1,65.9999979858399
355,178,27215,5,0,0:0:0:0:
359,223,27339,1,0,0:0:0:0:
316,205,27464,1,0,0:0:0:0:
427,117,27713,1,0,0:0:0:0:
431,166,27837,1,0,0:0:0:0:
436,215,27961,1,0,0:0:0:0:
441,264,28086,1,0,0:0:0:0:
340,234,28211,6,0,L|333:165,1,65.9999979858399,0|0,0:0|2:0,0:0:0:0:
190,40,28460,2,0,L|183:105,1,65.9999979858399,0|0,0:0|2:0,0:0:0:0:
107,311,28709,2,0,P|143:295|167:267,1,65.9999979858399,0|0,0:0|2:0,0:0:0:0:
107,9,28957,2,0,L|100:74,1,65.9999979858399,0|0,0:0|2:0,0:0:0:0:
284,348,29206,6,0,B|319:285|319:285|319:234,1,110,0|0,0:0|2:0,0:0:0:0:
498,16,29455,2,0,B|463:79|463:79|463:130,1,110,0|0,0:0|2:0,0:0:0:0:
162,261,29704,2,0,B|203:249|203:270|238:263,1,76.9999976501466,0|4,0:0|2:0,0:0:0:0:
50,33,30202,6,0,B|20:68|28:98|28:98|90:66|141:108,1,187.000003566742
192,174,30518,1,0,0:0:0:0:
78,333,30624,2,0,P|37:253|78:174,1,187.000003566742
136,104,30940,1,0,0:0:0:0:
248,244,31046,5,0,0:0:0:0:
262,118,31152,1,0,0:0:0:0:
388,132,31257,2,0,L|480:142,1,93.500001783371,0|0,0:0|2:0,0:0:0:0:
248,244,31468,1,0,0:0:0:0:
262,118,31574,1,0,0:0:0:0:
374,258,31679,1,0,0:0:0:0:
200,32,31890,6,0,B|152:72|158:132|158:132|120:143|75:122,1,187.000003566742
27,41,32207,1,0,0:0:0:0:
262,118,32313,2,0,B|342:132|386:87|386:87|373:69|340:56,1,187.000003566742
200,32,32629,1,0,0:0:0:0:
172,209,32735,5,0,0:0:0:0:
241,265,32840,2,0,P|168:299|99:165,1,187.000003566742
262,118,33157,1,0,0:0:0:0:
172,209,33263,1,0,0:0:0:0:
115,96,33368,1,0,0:0:0:0:
412,331,33579,6,0,B|361:300|361:300|369:157,1,187.000003566742
435,99,33896,1,0,0:0:0:0:
214,33,34002,2,0,B|265:64|265:64|257:207,1,187.000003566742
191,265,34319,1,0,0:0:0:0:
84,108,34424,6,0,L|182:115,1,93.500001783371
504,131,34635,1,0,0:0:0:0:
373,218,34741,1,0,0:0:0:0:
427,68,34846,1,0,0:0:0:0:
468,220,34952,1,0,0:0:0:0:
345,122,35057,2,0,B|321:111|297:123|297:123|353:159|341:219,1,140.250002675057,0|0,0:0|2:0,0:0:0:0:
206,279,35268,6,0,P|223:236|255:202,1,93.500001783371
427,68,35479,1,0,0:0:0:0:
504,131,35585,1,0,0:0:0:0:
345,122,35691,2,0,P|299:116|257:94,1,93.500001783371,0|0,0:0|2:0,0:0:0:0:
19,12,35902,1,0,0:0:0:0:
3,133,36007,1,0,0:0:0:0:
116,87,36113,5,0,0:0:0:0:
310,237,36324,1,0,0:0:0:0:
197,283,36430,1,0,0:0:0:0:
213,162,36535,1,0,0:0:0:0:
372,285,36641,1,0,0:0:0:0:
399,85,36746,2,0,L|410:-11,1,93.500001783371,0|0,0:0|2:0,0:0:0:0:
318,83,36957,6,0,P|336:139|390:165,1,121.000003692627,0|0,0:0|3:0,0:0:0:0:
478,263,37274,2,0,P|420:251|371:284,1,121.000003692627,0|0,0:0|3:0,0:0:0:0:
242,311,37591,2,0,P|267:292|281:266,1,60.5000018463135,0|0,1:0|2:0,3:0:0:0:
198,121,37802,6,0,L|206:242,1,121.000003692627,0|0,0:0|3:0,0:0:0:0:
112,93,38118,2,0,L|119:213,1,121.000003692627,0|0,0:0|3:0,0:0:0:0:
25,64,38435,2,0,L|28:124,1,60.5000018463135,0|0,0:0|2:0,0:0:0:0:
38,291,38646,5,0,3:0:0:0:
38,291,38857,2,0,L|136:278,1,60.5000018463135,0|0,3:0|3:0,3:0:0:0:
236,266,39068,1,0,3:0:0:0:
236,266,39280,2,0,L|334:253,1,60.5000018463135,0|0,3:0|3:0,3:0:0:0:
434,241,39491,6,0,B|495:232|471:193|471:193|407:181|397:117,1,181.500005538941,0|0,3:0|2:0,3:0:0:0:
483,116,39860,1,0,3:0:0:0:
483,116,39966,1,0,3:0:0:0:
483,116,40071,1,0,3:0:0:0:
483,116,40335,6,0,P|408:88|368:88,1,121.000003692627,0|0,0:0|3:0,0:0:0:0:
316,176,40652,2,0,P|241:204|201:204,1,121.000003692627,0|0,0:0|3:0,0:0:0:0:
128,136,40969,2,0,P|101:121|72:111,1,60.5000018463135,0|0,0:0|2:0,0:0:0:0:
33,263,41180,2,0,P|108:291|148:291,1,121.000003692627,0|0,0:0|3:0,0:0:0:0:
200,203,41496,2,0,P|275:175|315:175,1,121.000003692627,0|0,0:0|3:0,0:0:0:0:
388,243,41814,2,0,P|414:257|443:267,1,60.5000018463135,0|0,0:0|2:0,0:0:0:0:
477,100,42024,5,0,0:0:0:0:
388,100,42133,2,0,P|400:144|424:172,1,71.4999967269899,0|0,0:0|2:0,0:0:0:0:
287,239,42352,2,0,P|299:195|323:167,1,71.4999967269899,0|0,0:0|2:0,0:0:0:0:
240,56,42571,5,0,0:0:0:0:
240,56,42680,1,0,0:0:0:0:
144,76,42790,2,0,L|68:92,1,71.4999967269899,0|0,0:0|2:0,0:0:0:0:
314,174,43009,2,0,L|244:188,1,71.4999967269899,0|0,0:0|2:0,0:0:0:0:
35,224,43228,5,0,0:0:0:0:
136,208,43337,1,0,0:0:0:0:
108,300,43447,2,0,L|32:316,1,71.4999967269899,0|0,0:0|2:0,0:0:0:0:
200,280,43666,1,0,0:0:0:0:
200,280,43775,5,0,0:0:0:0:
200,280,44943,6,0,P|264:276|300:196,1,146.666666666667,0|0,0:0|2:0,0:0:0:0:
142,222,45308,2,0,P|120:256|121:299,1,82.5000031471254,0|0,0:0|2:0,0:0:0:0:
225,208,45527,1,0,0:0:0:0:
225,208,46721,6,0,P|289:204|325:124,1,146.666666666667,0|0,0:0|2:0,0:0:0:0:
167,150,47094,2,0,P|144:184|145:226,1,82.5000031471254,0|0,0:0|2:0,0:0:0:0:
250,136,47318,1,0,0:0:0:0:
249,135,48213,6,0,P|290:141|328:126,1,82.5000031471254,0|0,0:0|2:0,0:0:0:0:
220,70,48441,6,0,P|250:135|220:200,1,148.49999546814,0|0,0:0|2:0,0:0:0:0:
138,301,48897,2,0,L|47:281,1,65.9999979858399,0|0,0:0|2:0,0:0:0:0:
26,108,49126,2,0,L|6:199,1,71.4999967269899,0|0,0:0|2:0,0:0:0:0:
155,377,49340,6,0,P|192:358|212:323,1,71.4999967269899,0|0,0:0|2:0,0:0:0:0:
418,191,49554,2,0,P|381:172|361:137,1,71.4999967269899,0|0,0:0|2:0,0:0:0:0:
500,32,49768,1,0,0:0:0:0:
487,113,49876,1,0,0:0:0:0:
424,64,49983,1,0,0:0:0:0:
132,148,50197,5,0,0:0:0:0:
197,197,50304,1,0,0:0:0:0:
208,113,50411,1,0,0:0:0:0:
141,64,50519,1,0,0:0:0:0:
63,95,50626,2,0,P|43:145|48:178,1,71.4999967269899
151,326,50840,5,0,0:0:0:0:
118,357,50949,1,0,0:0:0:0:
74,361,51059,1,0,0:0:0:0:
83,275,51169,1,0,0:0:0:0:
116,244,51278,1,0,0:0:0:0:
160,240,51389,2,0,L|242:259,1,82.5,0|0,0:0|2:0,0:0:0:0:
408,295,51609,2,0,P|359:318|343:363,1,82.5,0|0,0:0|2:0,0:0:0:0:
415,368,51829,1,0,0:0:0:0:
512,122,51938,6,0,B|453:140|453:140|359:112,1,153.999995300293
144,79,52268,2,0,B|203:61|203:61|296:88,1,153.999995300293
377,275,52598,5,0,0:0:0:0:
340,265,52707,1,0,0:0:0:0:
303,255,52817,1,0,0:0:0:0:
353,349,52927,1,0,0:0:0:0:
396,351,53037,1,0,0:0:0:0:
434,326,53147,2,0,P|452:266|437:230,1,82.5,0|0,0:0|2:0,0:0:0:0:
223,232,53367,2,0,L|302:254,1,82.5,0|0,0:0|2:0,0:0:0:0:
377,275,53587,1,0,0:0:0:0:
222,91,53697,6,0,P|248:150|218:238,1,153.999995300293
23,350,54026,2,0,P|61:297|152:279,1,153.999995300293,0|0,0:3|0:3,0:0:0:0:
353,349,54356,5,0,0:0:0:0:
396,351,54466,1,0,0:0:0:0:
434,326,54576,1,0,0:0:0:0:
377,275,54686,1,0,0:0:0:0:
334,277,54796,1,0,0:0:0:0:
296,252,54905,2,0,P|275:219|263:163,1,82.5,0|0,0:0|2:0,0:0:0:0:
230,18,55125,2,0,P|251:51|263:107,1,82.5,0|0,0:0|2:0,0:0:0:0:
171,176,55345,1,0,0:0:0:0:
406,138,55455,6,0,B|342:177|342:177|258:177,1,153.999995300293
123,331,55785,2,0,B|187:292|187:292|271:292,1,153.999995300293
488,337,56114,6,0,P|450:309|438:279,1,65.9999979858399,0|0,0:0|2:0,0:0:0:0:
256,192,56334,2,0,L|324:192,1,65.9999979858399,0|0,0:0|2:0,0:0:0:0:
488,46,56554,2,0,P|459:63|441:90,1,65.9999979858399,0|0,0:0|2:0,0:0:0:0:
512,120,56774,1,0,0:0:0:0:
344,264,56883,6,0,P|372:247|396:188,1,98.9999969787599,0|0,0:0|2:0,0:0:0:0:
232,120,57103,2,0,P|203:136|180:196,1,98.9999969787599,0|0,0:0|2:0,0:0:0:0:
256,192,57323,1,0,0:0:0:0:
149,301,57433,1,0,0:0:0:0:
110,280,57542,1,0,0:0:0:0:
82,247,57652,1,0,0:0:0:0:
70,205,57762,1,0,0:0:0:0:
180,195,57872,6,0,B|211:230|211:230|270:238,1,98.9999969787599
359,240,58243,2,0,P|346:202|362:145,1,98.9999969787599
432,195,58615,1,0,0:0:0:0:
475,40,58893,1,0,0:0:0:0:
475,40,58986,2,0,L|368:49,1,98.9999969787599
269,54,59358,5,0,0:0:0:0:
359,240,59636,1,0,0:0:0:0:
421,197,59729,2,0,P|371:164|331:168,1,98.9999969787599
195,228,60101,1,0,0:0:0:0:
195,228,60379,1,0,0:0:0:0:
195,228,60472,2,0,P|146:227|108:197,1,98.9999969787599
172,154,60844,5,0,0:0:0:0:
404,53,61215,2,0,P|361:86|355:139,1,98.9999969787599
427,124,61587,1,0,0:0:0:0:
263,349,61976,2,0,L|245:244,1,98.9999969787599,0|0,0:0|1:0,0:0:0:0:
302,193,62366,5,0,0:0:0:0:
149,41,62658,1,0,0:0:0:0:
204,99,62755,2,0,L|187:196,1,98.9999969787599,0|0,0:0|1:0,0:0:0:0:
247,252,63145,1,0,0:0:0:0:
465,160,63379,5,0,0:0:0:0:
462,82,63473,2,0,P|398:116|424:232,1,192.5,0|0,0:0|2:0,0:0:0:0:
510,345,63895,6,0,P|480:336|456:344,1,55
328,224,64284,2,0,P|369:236|409:222,1,88
236,128,64674,2,0,P|205:118|181:126,1,55
208,216,65063,1,0,0:0:0:0:
426,44,65251,1,0,0:0:0:0:
466,118,65393,6,0,P|429:128|384:115,1,82.5,0|0,0:0|2:0,0:0:0:0:
176,60,65817,2,0,P|229:40|287:70,1,110
69,172,66195,2,0,L|65:111,1,55
81,341,66572,2,0,L|75:253,1,88
60,39,66949,5,0,0:0:0:0:
437,140,67324,2,0,P|392:132|348:55,1,132,0|0,0:0|2:0,0:0:0:0:
430,57,67699,1,0,0:0:0:0:
430,327,67980,1,0,0:0:0:0:
437,244,68074,2,0,P|392:252|348:329,1,132,0|0,0:0|2:0,0:0:0:0:
169,339,68449,6,0,L|347:320,1,178.749991817475,0|0,0:0|2:0,0:0:0:0:
387,315,68730,1,0,0:0:0:0:
196,255,68824,2,0,L|302:243,1,107.249995090485,0|0,0:0|2:0,0:0:0:0:
410,231,69011,2,0,L|338:239,1,71.4999967269899,0|0,0:0|2:0,0:0:0:0:
84,46,69199,6,0,B|118:91|85:141|85:141|118:188|82:244,1,206.250007867813,0|0,0:0|2:0,0:0:0:0:
20,189,69480,1,0,0:0:0:0:
169,142,69574,1,0,0:0:0:0:
