osu file format v14

[General]
AudioFilename: audio.mp3
AudioLeadIn: 0
PreviewTime: 59303
Countdown: 0
SampleSet: Normal
StackLeniency: 0.7
Mode: 1
LetterboxInBreaks: 0
WidescreenStoryboard: 1

[Editor]
Bookmarks: 550,5447,9121,14018,18916,21365,23813,28711,33608,38506,43404,48302,50751,55648,64220,67894,72791,76465,81362,83814,88711
DistanceSpacing: 1
BeatDivisor: 4
GridSize: 32
TimelineZoom: 1.9

[Metadata]
Title:Viewtiful Days! (TV Size)
TitleUnicode:Viewtiful Days! (TV Size)
Artist:Waki Azumi
ArtistUnicode:和氣あず未
Creator:Tyistiana
Version:Oni
Source:スライム倒して300年、知らないうちにレベルMAXになってました
Tags:Slime Taoshite 300-nen, Shiranai Uchi ni Level Max ni Nattemashita I've Been Killing Slimes for 300 Years and Maxed Out My Level ending ed anime japanese pop j-pop
BeatmapID:2956372
BeatmapSetID:1436872

[Difficulty]
HPDrainRate:5.5
CircleSize:5
OverallDifficulty:5.5
ApproachRate:8
SliderMultiplier:1.4
SliderTickRate:1

[Events]
//Background and Video events
0,0,"N.jpg",0,0
Video,-115,"ending.mp4"
//Break Periods
//Storyboard Layer 0 (Background)
//Storyboard Layer 1 (Fail)
//Storyboard Layer 2 (Pass)
//Storyboard Layer 3 (Foreground)
//Storyboard Layer 4 (Overlay)
//Storyboard Sound Samples

[TimingPoints]
550,612.244897959184,4,1,0,60,1,0
550,-62.5,4,1,0,60,0,0
9121,612.244897959184,4,1,0,60,1,0
9121,-62.5,4,1,0,60,0,0
19835,-58.8235294117647,4,1,0,60,0,0
20141,-55.5555555555556,4,1,0,60,0,0
20294,-54.054054054054,4,1,0,60,0,0
21365,612.244897959184,4,1,0,90,1,8
21365,-50,4,1,0,90,0,8
21366,306.122448979592,4,1,0,90,1,0
23814,306.122448979592,4,1,0,90,1,8
23815,306.122448979592,4,1,0,90,1,0
23891,-100,4,1,0,70,0,0
26187,-100,4,1,0,80,0,0
28636,-100,4,1,0,90,0,0
40957,-97.0873786407767,4,1,0,90,0,0
41110,-95.6937799043062,4,1,0,90,0,0
41263,-94.3396226415094,4,1,0,90,0,0
41417,-93.0232558139535,4,1,0,90,0,0
41570,-91.743119266055,4,1,0,90,0,0
41723,-90.4977375565611,4,1,0,90,0,0
41876,-89.2857142857143,4,1,0,90,0,0
42029,-88.1057268722467,4,1,0,90,0,0
42182,-86.9565217391304,4,1,0,90,0,0
42335,-85.8369098712446,4,1,0,90,0,0
42488,-84.7457627118644,4,1,0,90,0,0
42641,-83.6820083682008,4,1,0,90,0,0
42794,-82.6446280991736,4,1,0,90,0,0
43559,-100,4,1,0,90,0,0
50753,306.122448979592,4,1,0,90,1,8
50754,306.122448979592,4,1,0,90,1,0
58100,-94.3396226415094,4,1,0,90,0,0
58254,-89.2857142857143,4,1,0,90,0,0
58407,-84.7457627118644,4,1,0,90,0,0
58560,-80.6451612903226,4,1,0,90,0,0
58866,-76.9230769230769,4,1,0,90,0,0
59325,306.122448979592,4,1,0,100,1,1
59325,-93.0232558139535,4,1,0,100,0,1
67896,306.122448979592,4,1,0,100,1,1
67896,-93.0232558139535,4,1,0,100,0,1
76467,306.122448979592,4,1,0,100,1,9
76467,-93.0232558139535,4,1,0,100,0,9
76468,306.122448979592,4,1,0,100,1,1
76468,-93.0232558139535,4,1,0,100,0,1
83814,306.122448979592,4,1,0,100,1,1
83814,-92.5925925925926,4,1,0,100,0,1
87487,-93.0232558139535,4,1,0,100,0,0
88711,-80,4,1,0,100,0,0

[HitObjects]
256,192,550,5,0,0:0:0:0:
256,192,1162,1,8,0:0:0:0:
256,192,1774,1,0,0:0:0:0:
256,192,2386,1,8,0:0:0:0:
256,192,2998,1,0,0:0:0:0:
256,192,3611,1,8,0:0:0:0:
256,192,4223,1,0,0:0:0:0:
256,192,4529,1,0,0:0:0:0:
256,192,4835,1,8,0:0:0:0:
256,192,5447,1,0,0:0:0:0:
256,192,6060,1,8,0:0:0:0:
256,192,6672,1,0,0:0:0:0:
256,192,6978,1,0,0:0:0:0:
256,192,7284,1,8,0:0:0:0:
256,192,7896,1,0,0:0:0:0:
256,192,8203,1,0,0:0:0:0:
256,192,8509,1,8,0:0:0:0:
256,192,8815,1,8,0:0:0:0:
256,192,9121,5,0,0:0:0:0:
256,192,9733,1,8,0:0:0:0:
256,192,10345,1,0,0:0:0:0:
256,192,10957,1,8,0:0:0:0:
256,192,11569,1,0,0:0:0:0:
256,192,12182,1,8,0:0:0:0:
256,192,12794,1,0,0:0:0:0:
256,192,13406,1,8,0:0:0:0:
256,192,14018,1,0,0:0:0:0:
256,192,14631,1,8,0:0:0:0:
256,192,15243,1,0,0:0:0:0:
256,192,15549,1,0,0:0:0:0:
256,192,15855,1,8,0:0:0:0:
256,192,16467,1,0,0:0:0:0:
256,192,16774,1,0,0:0:0:0:
256,192,17080,1,8,0:0:0:0:
256,192,17386,1,8,0:0:0:0:
256,192,17692,1,0,0:0:0:0:
256,192,17998,1,8,0:0:0:0:
256,192,18304,1,8,0:0:0:0:
256,192,18610,1,0,0:0:0:0:
256,192,18916,1,0,0:0:0:0:
256,192,19529,1,8,0:0:0:0:
256,192,20141,5,12,0:0:0:0:
256,192,20294,1,12,0:0:0:0:
256,192,20753,1,0,0:0:0:0:
256,192,20906,1,0,0:0:0:0:
256,192,21059,1,8,0:0:0:0:
256,192,21366,5,4,0:0:0:0:
256,192,21519,1,0,0:0:0:0:
256,192,21595,1,0,0:0:0:0:
256,192,21672,1,8,0:0:0:0:
256,192,21825,1,8,0:0:0:0:
256,192,21978,1,0,0:0:0:0:
256,192,22131,1,0,0:0:0:0:
256,192,22284,1,8,0:0:0:0:
256,192,22437,1,0,0:0:0:0:
256,192,22590,1,8,0:0:0:0:
256,192,22743,1,8,0:0:0:0:
256,192,22820,1,8,0:0:0:0:
256,192,22896,1,8,0:0:0:0:
256,192,23049,1,4,0:0:0:0:
256,192,23355,1,0,0:0:0:0:
256,192,23508,1,8,0:0:0:0:
256,192,23585,1,8,0:0:0:0:
256,192,23661,1,8,0:0:0:0:
256,192,23815,5,4,0:0:0:0:
256,192,24121,1,0,0:0:0:0:
256,192,24274,1,8,0:0:0:0:
256,192,24350,1,8,0:0:0:0:
256,192,24427,1,0,0:0:0:0:
256,192,24733,1,0,0:0:0:0:
256,192,24886,1,0,0:0:0:0:
256,192,25039,1,0,0:0:0:0:
256,192,25345,1,0,0:0:0:0:
256,192,25498,1,8,0:0:0:0:
256,192,25575,1,8,0:0:0:0:
256,192,25651,1,0,0:0:0:0:
256,192,25957,1,0,0:0:0:0:
256,192,26110,1,0,0:0:0:0:
256,192,26263,1,8,0:0:0:0:
256,192,26570,1,8,0:0:0:0:
256,192,26723,1,8,0:0:0:0:
256,192,26799,1,8,0:0:0:0:
256,192,26876,1,0,0:0:0:0:
256,192,27029,1,8,0:0:0:0:
256,192,27182,1,8,0:0:0:0:
256,192,27335,1,8,0:0:0:0:
256,192,27411,1,8,0:0:0:0:
256,192,27488,1,0,0:0:0:0:
256,192,27641,1,8,0:0:0:0:
256,192,27794,1,8,0:0:0:0:
256,192,27947,1,8,0:0:0:0:
256,192,28024,1,8,0:0:0:0:
256,192,28100,1,0,0:0:0:0:
256,192,28177,1,8,0:0:0:0:
256,192,28253,1,8,0:0:0:0:
256,192,28406,1,8,0:0:0:0:
256,192,28712,5,4,0:0:0:0:
256,192,29019,1,8,0:0:0:0:
256,192,29172,1,0,0:0:0:0:
256,192,29325,1,0,0:0:0:0:
256,192,29478,1,0,0:0:0:0:
256,192,29554,1,0,0:0:0:0:
256,192,29631,1,8,0:0:0:0:
256,192,29784,1,8,0:0:0:0:
256,192,29937,1,0,0:0:0:0:
256,192,30243,1,8,0:0:0:0:
256,192,30396,1,0,0:0:0:0:
256,192,30549,1,8,0:0:0:0:
256,192,30702,1,0,0:0:0:0:
256,192,30779,1,0,0:0:0:0:
256,192,30855,1,8,0:0:0:0:
256,192,31008,1,8,0:0:0:0:
256,192,31161,1,0,0:0:0:0:
256,192,31468,1,8,0:0:0:0:
256,192,31621,1,8,0:0:0:0:
256,192,31774,1,0,0:0:0:0:
256,192,31927,1,0,0:0:0:0:
256,192,32003,1,0,0:0:0:0:
256,192,32080,1,8,0:0:0:0:
256,192,32233,1,0,0:0:0:0:
256,192,32539,1,0,0:0:0:0:
256,192,32616,1,0,0:0:0:0:
256,192,32692,1,8,0:0:0:0:
256,192,32845,1,0,0:0:0:0:
256,192,32998,1,8,0:0:0:0:
256,192,33151,1,8,0:0:0:0:
256,192,33228,1,8,0:0:0:0:
256,192,33304,1,8,0:0:0:0:
256,192,33457,1,8,0:0:0:0:
256,192,33610,5,4,0:0:0:0:
256,192,33917,1,0,0:0:0:0:
256,192,34070,1,8,0:0:0:0:
256,192,34223,1,0,0:0:0:0:
256,192,34376,1,0,0:0:0:0:
256,192,34529,1,8,0:0:0:0:
256,192,34682,1,8,0:0:0:0:
256,192,34758,1,8,0:0:0:0:
256,192,34835,1,0,0:0:0:0:
256,192,34988,1,0,0:0:0:0:
256,192,35141,1,8,0:0:0:0:
256,192,35294,1,0,0:0:0:0:
256,192,35600,1,0,0:0:0:0:
256,192,35753,1,8,0:0:0:0:
256,192,35906,1,8,0:0:0:0:
256,192,36059,1,0,0:0:0:0:
256,192,36212,1,0,0:0:0:0:
256,192,36289,1,8,0:0:0:0:
256,192,36366,1,0,0:0:0:0:
256,192,36519,1,8,0:0:0:0:
256,192,36672,1,0,0:0:0:0:
256,192,36825,1,0,0:0:0:0:
256,192,36978,1,8,0:0:0:0:
256,192,37284,1,0,0:0:0:0:
256,192,37437,1,0,0:0:0:0:
256,192,37590,1,8,0:0:0:0:
256,192,37743,1,0,0:0:0:0:
256,192,37820,1,0,0:0:0:0:
256,192,37896,1,8,0:0:0:0:
256,192,38049,1,0,0:0:0:0:
256,192,38202,1,12,0:0:0:0:
256,192,38508,5,4,0:0:0:0:
256,192,38815,1,8,0:0:0:0:
256,192,38968,1,8,0:0:0:0:
256,192,39044,1,8,0:0:0:0:
256,192,39121,1,0,0:0:0:0:
256,192,39274,1,0,0:0:0:0:
256,192,39427,1,8,0:0:0:0:
256,192,39733,1,0,0:0:0:0:
256,192,40039,1,8,0:0:0:0:
256,192,40192,1,0,0:0:0:0:
256,192,40345,1,0,0:0:0:0:
256,192,40422,1,0,0:0:0:0:
256,192,40498,1,0,0:0:0:0:
256,192,40651,1,8,0:0:0:0:
256,192,40957,1,12,0:0:0:0:
256,192,41110,1,0,0:0:0:0:
256,192,41263,1,12,0:0:0:0:
256,192,41417,1,0,0:0:0:0:
256,192,41570,1,12,0:0:0:0:
256,192,41876,1,0,0:0:0:0:
256,192,42182,1,12,0:0:0:0:
256,192,42335,1,0,0:0:0:0:
256,192,42488,1,12,0:0:0:0:
256,192,42641,1,0,0:0:0:0:
256,192,42794,1,12,0:0:0:0:
256,192,43100,1,8,0:0:0:0:
256,192,43177,1,8,0:0:0:0:
256,192,43253,1,8,0:0:0:0:
256,192,43406,5,4,0:0:0:0:
256,192,43712,1,8,0:0:0:0:
256,192,43866,1,8,0:0:0:0:
256,192,43942,1,8,0:0:0:0:
256,192,44019,1,0,0:0:0:0:
256,192,44172,1,0,0:0:0:0:
256,192,44325,1,8,0:0:0:0:
256,192,44478,1,4,0:0:0:0:
256,192,44784,1,0,0:0:0:0:
256,192,44937,1,8,0:0:0:0:
256,192,45090,1,0,0:0:0:0:
256,192,45167,1,0,0:0:0:0:
256,192,45243,1,0,0:0:0:0:
256,192,45396,1,0,0:0:0:0:
256,192,45549,1,8,0:0:0:0:
256,192,45702,1,8,0:0:0:0:
256,192,45855,1,0,0:0:0:0:
256,192,46161,1,8,0:0:0:0:
256,192,46315,1,8,0:0:0:0:
256,192,46391,1,8,0:0:0:0:
256,192,46468,1,0,0:0:0:0:
256,192,46621,1,0,0:0:0:0:
256,192,46774,1,8,0:0:0:0:
256,192,46927,1,4,0:0:0:0:
256,192,47233,1,0,0:0:0:0:
256,192,47386,1,8,0:0:0:0:
256,192,47539,1,0,0:0:0:0:
256,192,47692,1,12,0:0:0:0:
256,192,47845,1,0,0:0:0:0:
256,192,47998,1,8,0:0:0:0:
256,192,48075,1,8,0:0:0:0:
256,192,48151,1,8,0:0:0:0:
256,192,48304,5,4,0:0:0:0:
256,192,48610,1,8,0:0:0:0:
256,192,48763,1,8,0:0:0:0:
256,192,48840,1,8,0:0:0:0:
256,192,48917,1,0,0:0:0:0:
256,192,49070,1,0,0:0:0:0:
256,192,49223,1,8,0:0:0:0:
256,192,49376,1,4,0:0:0:0:
256,192,49682,1,0,0:0:0:0:
256,192,49758,1,0,0:0:0:0:
256,192,49835,1,8,0:0:0:0:
256,192,49988,1,8,0:0:0:0:
256,192,50141,1,0,0:0:0:0:
256,192,50294,1,0,0:0:0:0:
256,192,50447,1,12,0:0:0:0:
256,192,50600,1,8,0:0:0:0:
256,192,50754,5,4,0:0:0:0:
256,192,51060,1,8,0:0:0:0:
256,192,51213,1,0,0:0:0:0:
256,192,51289,1,8,0:0:0:0:
256,192,51366,1,0,0:0:0:0:
256,192,51519,1,0,0:0:0:0:
256,192,51672,1,8,0:0:0:0:
256,192,51825,1,8,0:0:0:0:
256,192,51978,5,0,0:0:0:0:
256,192,52284,1,8,0:0:0:0:
256,192,52437,1,8,0:0:0:0:
256,192,52514,1,8,0:0:0:0:
256,192,52590,1,0,0:0:0:0:
256,192,52743,1,0,0:0:0:0:
256,192,52896,1,8,0:0:0:0:
256,192,53049,1,8,0:0:0:0:
256,192,53202,5,4,0:0:0:0:
256,192,53509,1,8,0:0:0:0:
256,192,53662,1,0,0:0:0:0:
256,192,53738,1,8,0:0:0:0:
256,192,53815,1,0,0:0:0:0:
256,192,53968,1,0,0:0:0:0:
256,192,54044,1,0,0:0:0:0:
256,192,54121,1,8,0:0:0:0:
256,192,54274,1,8,0:0:0:0:
256,192,54427,1,0,0:0:0:0:
256,192,54580,1,0,0:0:0:0:
256,192,54733,1,8,0:0:0:0:
256,192,54886,1,8,0:0:0:0:
256,192,54963,1,8,0:0:0:0:
256,192,55039,1,0,0:0:0:0:
256,192,55192,1,0,0:0:0:0:
256,192,55345,1,8,0:0:0:0:
256,192,55498,1,8,0:0:0:0:
256,192,55651,5,4,0:0:0:0:
256,192,55805,1,0,0:0:0:0:
256,192,55881,1,0,0:0:0:0:
256,192,55958,1,8,0:0:0:0:
256,192,56111,1,0,0:0:0:0:
256,192,56187,1,0,0:0:0:0:
256,192,56264,1,8,0:0:0:0:
256,192,56417,1,0,0:0:0:0:
256,192,56493,1,0,0:0:0:0:
256,192,56570,1,8,0:0:0:0:
256,192,56723,1,8,0:0:0:0:
256,192,56876,1,0,0:0:0:0:
256,192,57029,1,0,0:0:0:0:
256,192,57106,1,0,0:0:0:0:
256,192,57182,1,8,0:0:0:0:
256,192,57335,1,0,0:0:0:0:
256,192,57488,1,8,0:0:0:0:
256,192,57565,1,0,0:0:0:0:
256,192,57641,1,0,0:0:0:0:
256,192,57794,1,8,0:0:0:0:
256,192,58100,5,4,0:0:0:0:
256,192,58254,1,4,0:0:0:0:
256,192,58407,1,4,0:0:0:0:
256,192,58560,1,4,0:0:0:0:
256,192,58866,1,4,0:0:0:0:
256,192,59019,1,12,0:0:0:0:
256,192,59325,5,4,0:0:0:0:
256,192,59631,1,8,0:0:0:0:
256,192,59784,1,0,0:0:0:0:
256,192,59937,1,8,0:0:0:0:
256,192,60013,1,8,0:0:0:0:
256,192,60090,1,0,0:0:0:0:
256,192,60243,1,8,0:0:0:0:
256,192,60396,1,0,0:0:0:0:
256,192,60549,1,0,0:0:0:0:
256,192,60626,1,0,0:0:0:0:
256,192,60702,1,0,0:0:0:0:
256,192,60855,1,8,0:0:0:0:
256,192,61008,1,0,0:0:0:0:
256,192,61161,1,8,0:0:0:0:
256,192,61238,1,8,0:0:0:0:
256,192,61314,1,0,0:0:0:0:
256,192,61467,1,8,0:0:0:0:
256,192,61620,1,0,0:0:0:0:
256,192,61773,1,8,0:0:0:0:
256,192,61850,1,0,0:0:0:0:
256,192,61927,1,0,0:0:0:0:
256,192,62003,1,0,0:0:0:0:
256,192,62080,1,8,0:0:0:0:
256,192,62233,1,8,0:0:0:0:
256,192,62386,1,0,0:0:0:0:
256,192,62692,1,8,0:0:0:0:
256,192,62845,1,0,0:0:0:0:
256,192,62921,1,0,0:0:0:0:
256,192,62998,1,8,0:0:0:0:
256,192,63151,1,0,0:0:0:0:
256,192,63304,1,8,0:0:0:0:
256,192,63457,1,0,0:0:0:0:
256,192,63534,1,0,0:0:0:0:
256,192,63610,1,0,0:0:0:0:
256,192,63763,1,0,0:0:0:0:
256,192,63840,1,0,0:0:0:0:
256,192,63916,1,8,0:0:0:0:
256,192,63993,1,0,0:0:0:0:
256,192,64069,1,0,0:0:0:0:
256,192,64222,5,4,0:0:0:0:
256,192,64529,1,8,0:0:0:0:
256,192,64682,1,8,0:0:0:0:
256,192,64835,1,0,0:0:0:0:
256,192,64988,1,0,0:0:0:0:
256,192,65141,1,8,0:0:0:0:
256,192,65217,1,8,0:0:0:0:
256,192,65294,1,0,0:0:0:0:
256,192,65447,1,8,0:0:0:0:
256,192,65600,1,0,0:0:0:0:
256,192,65753,1,8,0:0:0:0:
256,192,65906,1,0,0:0:0:0:
256,192,65983,1,0,0:0:0:0:
256,192,66059,1,0,0:0:0:0:
256,192,66212,1,0,0:0:0:0:
256,192,66365,1,8,0:0:0:0:
256,192,66518,1,8,0:0:0:0:
256,192,66671,1,0,0:0:0:0:
256,192,66748,1,0,0:0:0:0:
256,192,66825,1,0,0:0:0:0:
256,192,66901,1,0,0:0:0:0:
256,192,66978,1,8,0:0:0:0:
256,192,67131,1,12,0:0:0:0:
256,192,67284,1,0,0:0:0:0:
256,192,67437,1,0,0:0:0:0:
256,192,67590,1,8,0:0:0:0:
256,192,67666,1,8,0:0:0:0:
256,192,67743,1,8,0:0:0:0:
256,192,67896,5,4,0:0:0:0:
256,192,68202,1,8,0:0:0:0:
256,192,68355,1,0,0:0:0:0:
256,192,68508,1,8,0:0:0:0:
256,192,68584,1,8,0:0:0:0:
256,192,68661,1,0,0:0:0:0:
256,192,68814,1,8,0:0:0:0:
256,192,68967,1,0,0:0:0:0:
256,192,69120,1,0,0:0:0:0:
256,192,69197,1,0,0:0:0:0:
256,192,69273,1,0,0:0:0:0:
256,192,69426,1,8,0:0:0:0:
256,192,69579,1,0,0:0:0:0:
256,192,69732,1,8,0:0:0:0:
256,192,69809,1,8,0:0:0:0:
256,192,69885,1,0,0:0:0:0:
256,192,70038,1,8,0:0:0:0:
256,192,70191,1,0,0:0:0:0:
256,192,70344,1,8,0:0:0:0:
256,192,70421,1,0,0:0:0:0:
256,192,70498,1,0,0:0:0:0:
256,192,70574,1,0,0:0:0:0:
256,192,70651,1,8,0:0:0:0:
256,192,70804,1,8,0:0:0:0:
256,192,70957,1,0,0:0:0:0:
256,192,71263,1,8,0:0:0:0:
256,192,71416,1,0,0:0:0:0:
256,192,71492,1,0,0:0:0:0:
256,192,71569,1,8,0:0:0:0:
256,192,71722,1,0,0:0:0:0:
256,192,71875,1,8,0:0:0:0:
256,192,72028,1,0,0:0:0:0:
256,192,72105,1,0,0:0:0:0:
256,192,72181,1,0,0:0:0:0:
256,192,72334,1,0,0:0:0:0:
256,192,72411,1,0,0:0:0:0:
256,192,72487,1,8,0:0:0:0:
256,192,72564,1,0,0:0:0:0:
256,192,72640,1,0,0:0:0:0:
256,192,72793,5,4,0:0:0:0:
256,192,73100,1,8,0:0:0:0:
256,192,73253,1,8,0:0:0:0:
256,192,73329,1,8,0:0:0:0:
256,192,73406,1,0,0:0:0:0:
256,192,73559,1,0,0:0:0:0:
256,192,73712,1,8,0:0:0:0:
256,192,73788,1,0,0:0:0:0:
256,192,73865,1,0,0:0:0:0:
256,192,74018,1,8,0:0:0:0:
256,192,74171,1,0,0:0:0:0:
256,192,74324,1,8,0:0:0:0:
256,192,74477,1,0,0:0:0:0:
256,192,74554,1,0,0:0:0:0:
256,192,74630,1,0,0:0:0:0:
256,192,74783,1,0,0:0:0:0:
256,192,74936,1,8,0:0:0:0:
256,192,75089,1,0,0:0:0:0:
256,192,75242,1,8,0:0:0:0:
256,192,75319,1,8,0:0:0:0:
256,192,75396,1,0,0:0:0:0:
256,192,75472,1,0,0:0:0:0:
256,192,75549,1,8,0:0:0:0:
256,192,75702,1,12,0:0:0:0:
256,192,75855,1,0,0:0:0:0:
256,192,76008,1,0,0:0:0:0:
256,192,76161,1,8,0:0:0:0:
256,192,76237,1,8,0:0:0:0:
256,192,76314,1,8,0:0:0:0:
256,192,76468,5,4,0:0:0:0:
256,192,76774,1,8,0:0:0:0:
256,192,76927,1,8,0:0:0:0:
256,192,77080,1,0,0:0:0:0:
256,192,77156,1,0,0:0:0:0:
256,192,77233,1,8,0:0:0:0:
256,192,77309,1,0,0:0:0:0:
256,192,77386,1,8,0:0:0:0:
256,192,77539,1,0,0:0:0:0:
256,192,77692,1,8,0:0:0:0:
256,192,77845,1,0,0:0:0:0:
256,192,77922,1,0,0:0:0:0:
256,192,77998,1,8,0:0:0:0:
256,192,78151,1,0,0:0:0:0:
256,192,78304,1,8,0:0:0:0:
256,192,78381,1,0,0:0:0:0:
256,192,78457,1,0,0:0:0:0:
256,192,78534,1,0,0:0:0:0:
256,192,78610,1,8,0:0:0:0:
256,192,78763,1,8,0:0:0:0:
256,192,78916,1,0,0:0:0:0:
256,192,79223,1,8,0:0:0:0:
256,192,79376,1,0,0:0:0:0:
256,192,79529,1,8,0:0:0:0:
256,192,79605,1,8,0:0:0:0:
256,192,79682,1,0,0:0:0:0:
256,192,79758,1,0,0:0:0:0:
256,192,79835,1,8,0:0:0:0:
256,192,79988,1,0,0:0:0:0:
256,192,80141,1,8,0:0:0:0:
256,192,80294,1,0,0:0:0:0:
256,192,80371,1,0,0:0:0:0:
256,192,80447,1,8,0:0:0:0:
256,192,80600,1,0,0:0:0:0:
256,192,80753,1,0,0:0:0:0:
256,192,80830,1,0,0:0:0:0:
256,192,80906,1,0,0:0:0:0:
256,192,80983,1,0,0:0:0:0:
256,192,81059,1,8,0:0:0:0:
256,192,81212,1,12,0:0:0:0:
256,192,81519,5,0,0:0:0:0:
256,192,81672,1,12,0:0:0:0:
256,192,81978,1,0,0:0:0:0:
256,192,82054,1,0,0:0:0:0:
256,192,82131,1,0,0:0:0:0:
256,192,82284,1,8,0:0:0:0:
256,192,82437,1,8,0:0:0:0:
256,192,82590,1,0,0:0:0:0:
256,192,82743,1,0,0:0:0:0:
256,192,82896,1,8,0:0:0:0:
256,192,83049,1,0,0:0:0:0:
256,192,83126,1,0,0:0:0:0:
256,192,83202,1,0,0:0:0:0:
256,192,83355,1,0,0:0:0:0:
256,192,83508,1,12,0:0:0:0:
256,192,83814,5,4,0:0:0:0:
256,192,83967,1,0,0:0:0:0:
256,192,84043,1,0,0:0:0:0:
256,192,84120,1,8,0:0:0:0:
256,192,84273,1,0,0:0:0:0:
256,192,84426,1,8,0:0:0:0:
256,192,84579,1,0,0:0:0:0:
256,192,84655,1,0,0:0:0:0:
256,192,84732,1,8,0:0:0:0:
256,192,84808,1,0,0:0:0:0:
256,192,84885,1,0,0:0:0:0:
256,192,85038,5,4,0:0:0:0:
256,192,85191,1,0,0:0:0:0:
256,192,85268,1,0,0:0:0:0:
256,192,85344,1,8,0:0:0:0:
256,192,85497,1,0,0:0:0:0:
256,192,85650,1,8,0:0:0:0:
256,192,85803,1,0,0:0:0:0:
256,192,85880,1,0,0:0:0:0:
256,192,85956,1,8,0:0:0:0:
256,192,86033,1,0,0:0:0:0:
256,192,86109,1,0,0:0:0:0:
256,192,86262,5,4,0:0:0:0:
256,192,86416,1,0,0:0:0:0:
256,192,86492,1,0,0:0:0:0:
256,192,86569,1,8,0:0:0:0:
256,192,86722,1,0,0:0:0:0:
256,192,86875,1,8,0:0:0:0:
256,192,86951,1,0,0:0:0:0:
256,192,87028,1,0,0:0:0:0:
256,192,87104,1,0,0:0:0:0:
256,192,87181,1,8,0:0:0:0:
256,192,87334,1,0,0:0:0:0:
256,192,87487,5,12,0:0:0:0:
256,192,87640,1,12,0:0:0:0:
256,192,88252,1,0,0:0:0:0:
256,192,88329,1,0,0:0:0:0:
256,192,88405,1,8,0:0:0:0:
256,192,88711,1,4,0:0:0:0:
256,192,88865,1,4,0:0:0:0:
256,192,89018,1,4,0:0:0:0:
256,192,89171,1,4,0:0:0:0:
