osu file format v14

[General]
AudioFilename: audio.mp3
AudioLeadIn: 0
PreviewTime: 59303
Countdown: 0
SampleSet: Normal
StackLeniency: 0.7
Mode: 1
LetterboxInBreaks: 0
WidescreenStoryboard: 1

[Editor]
Bookmarks: 550,5447,9121,14018,18916,21365,23813,28711,33608,38506,43404,48302,50751,55648,64220,67894,72791,76465,81362,83814,88711
DistanceSpacing: 1
BeatDivisor: 2
GridSize: 32
TimelineZoom: 1

[Metadata]
Title:Viewtiful Days! (TV Size)
TitleUnicode:Viewtiful Days! (TV Size)
Artist:Waki Azumi
ArtistUnicode:和氣あず未
Creator:Tyistiana
Version:Kantan
Source:スライム倒して300年、知らないうちにレベルMAXになってました
Tags:Slime Taoshite 300-nen, Shiranai Uchi ni Level Max ni Nattemashita I've Been Killing Slimes for 300 Years and Maxed Out My Level ending ed anime japanese pop j-pop
BeatmapID:2956370
BeatmapSetID:1436872

[Difficulty]
HPDrainRate:8
CircleSize:5
OverallDifficulty:3
ApproachRate:8
SliderMultiplier:1.4
SliderTickRate:1

[Events]
//Background and Video events
0,0,"N.jpg",0,0
Video,-115,"ending.mp4"
//Break Periods
//Storyboard Layer 0 (Background)
//Storyboard Layer 1 (Fail)
//Storyboard Layer 2 (Pass)
//Storyboard Layer 3 (Foreground)
//Storyboard Layer 4 (Overlay)
//Storyboard Sound Samples

[TimingPoints]
550,612.244897959184,4,1,0,60,1,0
550,-71.4285714285714,4,1,0,60,0,0
9121,612.244897959184,4,1,0,60,1,0
9121,-71.4285714285714,4,1,0,60,0,0
21365,612.244897959184,4,1,0,90,1,8
21365,-71.4285714285714,4,1,0,90,0,8
21366,306.122448979592,4,1,0,90,1,0
21366,-125,4,1,0,90,0,0
23814,306.122448979592,4,1,0,90,1,8
23814,-125,4,1,0,90,0,8
23815,306.122448979592,4,1,0,90,1,0
23815,-125,4,1,0,90,0,0
23891,-125,4,1,0,70,0,0
26187,-125,4,1,0,80,0,0
28636,-125,4,1,0,90,0,0
50753,306.122448979592,4,1,0,90,1,8
50753,-125,4,1,0,90,0,8
50754,306.122448979592,4,1,0,90,1,0
50754,-125,4,1,0,90,0,0
59325,306.122448979592,4,1,0,100,1,1
59325,-125,4,1,0,100,0,1
67896,306.122448979592,4,1,0,100,1,1
67896,-125,4,1,0,100,0,1
76467,306.122448979592,4,1,0,100,1,9
76467,-125,4,1,0,100,0,9
76468,306.122448979592,4,1,0,100,1,1
76468,-125,4,1,0,100,0,1
83814,306.122448979592,4,1,0,100,1,1
83814,-125,4,1,0,100,0,1
87487,-125,4,1,0,100,0,0

[HitObjects]
256,192,550,5,0,0:0:0:0:
256,192,2998,1,0,0:0:0:0:
256,192,5447,1,0,0:0:0:0:
256,192,7896,1,0,0:0:0:0:
256,192,9121,5,8,0:0:0:0:
256,192,11569,1,0,0:0:0:0:
256,192,14018,1,0,0:0:0:0:
256,192,16467,1,0,0:0:0:0:
256,192,18916,1,0,0:0:0:0:
256,192,20141,1,8,0:0:0:0:
256,192,21366,5,4,0:0:0:0:
256,192,21978,1,8,0:0:0:0:
256,192,22284,1,8,0:0:0:0:
256,192,22590,1,0,0:0:0:0:
256,192,23202,1,8,0:0:0:0:
256,192,23815,5,4,0:0:0:0:
256,192,25039,1,0,0:0:0:0:
256,192,26263,1,8,0:0:0:0:
256,192,26876,1,8,0:0:0:0:
256,192,27488,1,8,0:0:0:0:
256,192,27794,1,8,0:0:0:0:
256,192,28100,1,8,0:0:0:0:
256,192,28712,5,4,0:0:0:0:
256,192,29325,1,8,0:0:0:0:
256,192,29937,1,0,0:0:0:0:
256,192,31161,1,0,0:0:0:0:
256,192,31468,1,0,0:0:0:0:
256,192,31774,1,8,0:0:0:0:
256,192,32386,1,0,0:0:0:0:
256,192,32998,1,8,0:0:0:0:
256,192,33610,5,4,0:0:0:0:
256,192,34835,1,0,0:0:0:0:
256,192,36059,1,0,0:0:0:0:
256,192,36366,1,0,0:0:0:0:
256,192,36672,1,0,0:0:0:0:
256,192,37284,1,8,0:0:0:0:
256,192,37896,1,8,0:0:0:0:
256,192,38508,5,4,0:0:0:0:
256,192,39733,1,0,0:0:0:0:
256,192,40345,1,8,0:0:0:0:
256,192,40957,1,0,0:0:0:0:
256,192,41263,1,0,0:0:0:0:
256,192,41570,1,0,0:0:0:0:
256,192,42182,1,8,0:0:0:0:
256,192,42488,1,8,0:0:0:0:
256,192,42794,1,8,0:0:0:0:
256,192,43406,5,4,0:0:0:0:
256,192,43866,1,8,0:0:0:0:
256,192,44478,1,0,0:0:0:0:
256,192,45855,1,0,0:0:0:0:
256,192,46468,1,8,0:0:0:0:
256,192,47080,1,0,0:0:0:0:
256,192,47386,1,0,0:0:0:0:
256,192,47692,1,8,0:0:0:0:
256,192,48304,5,4,0:0:0:0:
256,192,48763,1,8,0:0:0:0:
256,192,49376,1,0,0:0:0:0:
256,192,50754,5,4,0:0:0:0:
256,192,51366,1,0,0:0:0:0:
256,192,51672,1,0,0:0:0:0:
256,192,51978,1,8,0:0:0:0:
256,192,52590,1,8,0:0:0:0:
256,192,53202,1,4,0:0:0:0:
256,192,53815,1,0,0:0:0:0:
256,192,54121,1,0,0:0:0:0:
256,192,54427,1,8,0:0:0:0:
256,192,55039,1,8,0:0:0:0:
256,192,55651,5,0,0:0:0:0:
256,192,55958,1,0,0:0:0:0:
256,192,56264,1,8,0:0:0:0:
256,192,56570,1,0,0:0:0:0:
256,192,56876,1,0,0:0:0:0:
256,192,57488,1,8,0:0:0:0:
256,192,58100,1,0,0:0:0:0:
256,192,59325,5,4,0:0:0:0:
256,192,59937,1,8,0:0:0:0:
256,192,60549,1,0,0:0:0:0:
256,192,61161,1,8,0:0:0:0:
256,192,61773,1,0,0:0:0:0:
256,192,62692,1,0,0:0:0:0:
256,192,62998,1,8,0:0:0:0:
256,192,63610,1,8,0:0:0:0:
256,192,63916,1,8,0:0:0:0:
256,192,64222,5,4,0:0:0:0:
256,192,64835,1,8,0:0:0:0:
256,192,65141,1,0,0:0:0:0:
256,192,65447,1,8,0:0:0:0:
256,192,66059,1,8,0:0:0:0:
256,192,66671,1,0,0:0:0:0:
256,192,66978,1,0,0:0:0:0:
256,192,67284,1,8,0:0:0:0:
256,192,67590,1,8,0:0:0:0:
256,192,67896,5,4,0:0:0:0:
256,192,68508,1,8,0:0:0:0:
256,192,69120,1,0,0:0:0:0:
256,192,69732,1,8,0:0:0:0:
256,192,70344,1,0,0:0:0:0:
256,192,71263,1,0,0:0:0:0:
256,192,71569,1,8,0:0:0:0:
256,192,72181,1,0,0:0:0:0:
256,192,72487,1,8,0:0:0:0:
256,192,72793,5,4,0:0:0:0:
256,192,73406,1,0,0:0:0:0:
256,192,73712,1,0,0:0:0:0:
256,192,74018,1,8,0:0:0:0:
256,192,74630,1,0,0:0:0:0:
256,192,75242,1,8,0:0:0:0:
256,192,75549,1,8,0:0:0:0:
256,192,75855,1,0,0:0:0:0:
256,192,76161,1,0,0:0:0:0:
256,192,76468,5,12,0:0:0:0:
256,192,77080,1,8,0:0:0:0:
256,192,77692,1,0,0:0:0:0:
256,192,78304,1,8,0:0:0:0:
256,192,78916,1,0,0:0:0:0:
256,192,79529,1,8,0:0:0:0:
256,192,80141,1,0,0:0:0:0:
256,192,80753,1,8,0:0:0:0:
256,192,81212,1,4,0:0:0:0:
256,192,82590,1,0,0:0:0:0:
256,192,83202,1,8,0:0:0:0:
256,192,83814,5,0,0:0:0:0:
256,192,84120,1,0,0:0:0:0:
256,192,84426,1,0,0:0:0:0:
256,192,85038,1,8,0:0:0:0:
256,192,85344,1,8,0:0:0:0:
256,192,85650,1,8,0:0:0:0:
256,192,86262,1,0,0:0:0:0:
256,192,86569,1,0,0:0:0:0:
256,192,86875,1,0,0:0:0:0:
256,192,87181,1,0,0:0:0:0:
256,192,87487,1,12,0:0:0:0:
256,192,88711,5,4,0:0:0:0:
