osu file format v14

[General]
AudioFilename: audio.mp3
AudioLeadIn: 0
PreviewTime: 58012
Countdown: 0
SampleSet: Soft
StackLeniency: 0.7
Mode: 3
LetterboxInBreaks: 0
SpecialStyle: 0
WidescreenStoryboard: 1

[Editor]
Bookmarks: 13410,24839
DistanceSpacing: 0.7
BeatDivisor: 4
GridSize: 8
TimelineZoom: 1.6

[Metadata]
Title:Itsuka no Kioku (TV Size)
TitleUnicode:イツカノキオク (TV Size)
Artist:Waki Azumi
ArtistUnicode:和氣あず未
Creator:Faputa
Version:RiP's Normal
Source:くまクマ熊ベアー
Tags:Fina フィナ DH Drum-Hitnormal Dudehacker RiP46 宮崎まゆ Miyasaki Mayu 高橋修平 Takahashi Shuhei あじゅじゅ Ajuju いつかの記憶 Kuma Kuma Kuma Bear イツカノキオク/透明のペダル Toumei no Pedal Opening Anime Japanese Jpop J-pop
BeatmapID:2630959
BeatmapSetID:1265173

[Difficulty]
HPDrainRate:7.5
CircleSize:4
OverallDifficulty:7.5
ApproachRate:5
SliderMultiplier:1.4
SliderTickRate:1

[Events]
//Background and Video events
Video,528,"Video.mp4"
0,0,"bg3.jpg",0,0
//Break Periods
//Storyboard Layer 0 (Background)
//Storyboard Layer 1 (Fail)
//Storyboard Layer 2 (Pass)
//Storyboard Layer 3 (Foreground)
//Storyboard Layer 4 (Overlay)
//Storyboard Sound Samples
Sample,54167,0,"sleighbell.wav",60
Sample,55596,0,"sleighbell.wav",60

[TimingPoints]
2025,357.142857142857,4,2,1,40,1,0
13453,-100,4,2,1,60,0,0
59167,-100,4,2,1,60,0,1
84882,-100,4,2,1,60,0,0

[HitObjects]
64,192,2025,128,0,3453:0:0:0:60:windchime.wav
192,192,2025,1,0,0:0:0:0:
320,192,3453,1,0,0:0:0:0:
448,192,3453,128,0,4882:0:0:0:0:
64,192,4882,1,0,0:0:0:0:
192,192,4882,128,0,5596:0:0:0:0:
320,192,5596,128,0,6310:0:0:0:0:
448,192,5596,1,0,0:0:0:0:
64,192,6310,128,0,6667:0:0:0:0:
192,192,6310,1,0,0:0:0:0:
320,192,6667,1,0,0:0:0:0:
448,192,6846,1,0,0:0:0:0:
192,192,7203,1,0,0:0:0:0:
320,192,7560,1,0,0:0:0:0:
64,192,7739,128,0,8096:0:0:0:0:
448,192,7739,1,0,0:0:0:0:
192,192,8096,1,0,0:0:0:0:
320,192,8274,128,0,8632:0:0:0:0:
64,192,8632,1,0,0:0:0:0:
192,192,8810,1,0,0:0:0:0:
320,192,8989,1,0,0:0:0:0:
64,192,9167,1,0,0:0:0:0:
448,192,9167,128,0,9524:0:0:0:0:
320,192,9524,1,0,0:0:0:0:
192,192,9703,128,0,10060:0:0:0:0:
448,192,10060,1,0,0:0:0:0:
320,192,10239,1,0,0:0:0:0:
192,192,10417,1,0,0:0:0:0:
64,192,10596,1,2,0:0:0:0:
448,192,10596,1,0,0:0:0:60:sleighbell.wav
192,192,10953,1,2,0:0:0:0:
320,192,10953,1,0,0:0:0:0:
448,192,11132,1,2,0:0:0:0:
64,192,11310,1,2,0:0:0:0:
192,192,11310,1,0,0:0:0:0:
320,192,11489,1,2,0:0:0:0:
64,192,11667,1,2,0:0:0:0:
448,192,11667,1,0,0:0:0:0:
192,192,11846,1,2,0:0:0:0:
320,192,12024,1,2,0:0:0:0:
448,192,12024,1,0,0:0:0:0:
192,192,12203,1,8,0:0:0:0:
64,192,12382,1,8,0:0:0:0:
448,192,12382,1,0,0:0:0:0:
320,192,12560,1,8,0:0:0:0:
64,192,12739,1,2,0:0:0:0:
192,192,12739,1,0,0:0:0:0:
64,192,12917,1,2,0:0:0:0:
192,192,12917,1,0,0:0:0:0:
448,192,13274,128,0,13453:0:0:0:0:
64,192,13453,1,4,0:0:0:0:
320,192,13453,1,2,0:0:0:0:
192,192,13632,1,0,0:0:0:0:
64,192,13810,1,8,0:0:0:0:
448,192,13810,1,0,0:0:0:0:
320,192,13989,128,2,14346:0:0:0:0:
64,192,14346,1,2,0:0:0:0:
320,192,14524,1,8,0:0:0:0:
448,192,14524,1,0,0:0:0:0:
192,192,14703,128,2,15060:0:0:0:0:
320,192,15060,1,2,0:0:0:0:
64,192,15239,1,8,0:0:0:0:
192,192,15239,1,0,0:0:0:0:
448,192,15417,128,2,15774:0:0:0:0:
192,192,15774,1,2,0:0:0:0:
64,192,15953,1,8,0:0:0:0:
320,192,15953,1,0,0:0:0:0:
192,192,16310,1,4,0:0:0:0:
448,192,16310,1,2,0:0:0:0:
320,192,16489,1,0,0:0:0:0:
64,192,16667,1,8,0:0:0:0:
448,192,16667,1,0,0:0:0:0:
192,192,16846,128,2,17203:0:0:0:0:
448,192,17203,1,2,0:0:0:0:
64,192,17382,1,8,0:0:0:0:
192,192,17382,1,0,0:0:0:0:
320,192,17560,128,2,17917:0:0:0:0:
192,192,17917,1,2,0:0:0:0:
320,192,18096,1,8,0:0:0:0:
448,192,18096,1,0,0:0:0:0:
64,192,18274,128,2,18632:0:0:0:0:
320,192,18632,1,2,0:0:0:0:
192,192,18810,1,0,0:0:0:60:LR_Clap Med.wav
448,192,18810,1,0,0:0:0:0:
64,192,19167,1,4,0:0:0:0:
192,192,19167,1,2,0:0:0:0:
320,192,19346,1,0,0:0:0:0:
64,192,19524,1,8,0:0:0:0:
448,192,19524,1,0,0:0:0:0:
192,192,19703,1,2,0:0:0:0:
320,192,19703,128,4,20060:0:0:0:0:
64,192,20060,1,2,0:0:0:0:
320,192,20239,1,8,0:0:0:0:
448,192,20239,1,0,0:0:0:0:
64,192,20417,1,2,0:0:0:0:
192,192,20417,128,4,20774:0:0:0:0:
320,192,20774,1,2,0:0:0:0:
64,192,20953,1,8,0:0:0:0:
192,192,20953,1,0,0:0:0:0:
320,192,21132,1,4,0:0:0:0:
448,192,21132,128,2,21489:0:0:0:0:
192,192,21489,1,2,0:0:0:0:
64,192,21667,1,8,0:0:0:0:
320,192,21667,1,0,0:0:0:0:
448,192,21846,1,8,0:0:0:0:
64,192,22024,1,2,0:0:0:0:
192,192,22203,1,2,0:0:0:0:
448,192,22382,1,2,0:0:0:0:
320,192,22560,128,2,22917:0:0:0:0:
192,192,22917,1,2,0:0:0:0:
448,192,23096,1,2,0:0:0:0:
64,192,23274,128,4,24882:0:0:0:0:
192,192,23274,1,2,0:0:0:0:
448,192,23810,1,0,0:0:0:0:
320,192,24167,1,0,0:0:0:0:
192,192,24524,1,0,0:0:0:0:
320,192,24882,1,4,0:0:0:0:
448,192,24882,1,2,0:0:0:0:
448,192,25060,1,0,0:0:0:0:
192,192,25239,1,2,0:0:0:0:
192,192,25417,1,0,0:0:0:0:
320,192,25596,1,2,0:0:0:0:
320,192,25774,1,0,0:0:0:0:
64,192,25953,1,2,0:0:0:0:
64,192,26132,1,0,0:0:0:0:
448,192,26310,1,2,0:0:0:0:
448,192,26489,1,0,0:0:0:0:
192,192,26667,1,2,0:0:0:0:
320,192,26846,128,0,27203:0:0:0:0:
448,192,27203,1,0,0:0:0:0:
64,192,27382,128,2,27739:0:0:0:0:
320,192,27739,1,2,0:0:0:0:
448,192,27739,1,0,0:0:0:0:
320,192,27917,1,0,0:0:0:0:
192,192,28096,1,2,0:0:0:0:
192,192,28274,1,0,0:0:0:0:
448,192,28453,1,2,0:0:0:0:
448,192,28632,1,0,0:0:0:0:
64,192,28810,1,2,0:0:0:0:
64,192,28989,1,0,0:0:0:0:
320,192,29167,1,2,0:0:0:0:
320,192,29346,1,0,0:0:0:0:
192,192,29524,1,2,0:0:0:0:
448,192,29703,128,0,30060:0:0:0:0:
320,192,30060,1,0,0:0:0:0:
64,192,30239,128,2,30596:0:0:0:0:
320,192,30596,1,2,0:0:0:0:
448,192,30596,1,0,0:0:0:0:
448,192,30774,1,0,0:0:0:0:
64,192,30953,1,2,0:0:0:0:
64,192,31132,1,0,0:0:0:0:
320,192,31310,1,2,0:0:0:0:
320,192,31489,1,0,0:0:0:0:
192,192,31667,1,2,0:0:0:0:
192,192,31846,1,0,0:0:0:0:
448,192,32024,1,2,0:0:0:0:
448,192,32203,1,0,0:0:0:0:
64,192,32382,1,2,0:0:0:0:
64,192,32560,1,0,0:0:0:0:
320,192,32739,1,2,0:0:0:0:
448,192,32739,128,8,33096:0:0:0:0:
64,192,33096,128,2,33453:0:0:0:0:
192,192,33096,1,8,0:0:0:0:
320,192,33453,1,2,0:0:0:0:
448,192,33453,128,0,33810:0:0:0:40:finishshort.wav
64,192,33810,1,2,0:0:0:0:
64,192,33989,1,0,0:0:0:0:
320,192,34167,1,2,0:0:0:0:
320,192,34346,1,0,0:0:0:0:
192,192,34524,1,2,0:0:0:0:
192,192,34703,1,0,0:0:0:0:
64,192,34882,128,4,35953:0:0:0:0:
448,192,34882,1,2,0:0:0:0:
320,192,35239,1,0,0:0:0:0:
192,192,35507,1,0,0:0:0:0:
192,192,35774,1,0,0:0:0:0:
320,192,35953,1,0,0:0:0:60:LR_Clap Med.wav
448,192,35953,1,0,0:0:0:0:
64,192,36310,128,4,36667:0:0:0:0:
192,192,36310,1,2,0:0:0:0:
320,192,36667,1,8,0:0:0:0:
448,192,36667,1,0,0:0:0:0:
192,192,36846,1,0,0:0:0:0:
64,192,37024,1,0,0:0:0:0:
320,192,37203,1,2,0:0:0:0:
192,192,37382,1,8,0:0:0:0:
448,192,37382,1,0,0:0:0:0:
64,192,37739,1,2,0:0:0:0:
192,192,37917,1,2,0:0:0:0:
320,192,38096,1,8,0:0:0:0:
448,192,38096,1,0,0:0:0:0:
192,192,38274,1,0,0:0:0:0:
64,192,38453,1,0,0:0:0:0:
320,192,38632,1,2,0:0:0:0:
192,192,38810,1,8,0:0:0:0:
448,192,38810,1,0,0:0:0:0:
320,192,39167,1,2,0:0:0:0:
448,192,39167,128,0,39524:0:0:0:0:
64,192,39524,1,8,0:0:0:0:
192,192,39524,1,0,0:0:0:0:
320,192,39703,1,0,0:0:0:0:
448,192,39882,1,0,0:0:0:0:
192,192,40060,1,2,0:0:0:0:
64,192,40239,1,8,0:0:0:0:
320,192,40239,1,0,0:0:0:0:
448,192,40596,1,2,0:0:0:0:
320,192,40774,1,2,0:0:0:0:
64,192,40953,1,8,0:0:0:0:
192,192,40953,1,0,0:0:0:0:
320,192,41132,1,0,0:0:0:0:
448,192,41310,1,0,0:0:0:0:
192,192,41489,1,2,0:0:0:0:
64,192,41667,1,8,0:0:0:0:
320,192,41667,1,0,0:0:0:0:
64,192,42024,128,4,42382:0:0:0:0:
448,192,42024,1,2,0:0:0:0:
192,192,42382,1,8,0:0:0:0:
320,192,42382,1,0,0:0:0:0:
448,192,42560,1,0,0:0:0:0:
64,192,42739,1,0,0:0:0:0:
192,192,42917,1,2,0:0:0:0:
320,192,43096,1,8,0:0:0:0:
448,192,43096,1,0,0:0:0:0:
192,192,43453,1,2,0:0:0:0:
320,192,43632,1,2,0:0:0:0:
64,192,43810,1,8,0:0:0:0:
448,192,43810,1,0,0:0:0:0:
192,192,43989,1,0,0:0:0:0:
448,192,44167,1,0,0:0:0:0:
320,192,44346,1,2,0:0:0:0:
64,192,44524,1,8,0:0:0:0:
192,192,44524,1,0,0:0:0:0:
320,192,44703,1,0,0:0:0:0:
448,192,44882,128,2,45239:0:0:0:0:
64,192,45239,1,8,0:0:0:0:
192,192,45239,1,0,0:0:0:0:
320,192,45417,1,2,0:0:0:0:
448,192,45417,1,0,0:0:0:0:
64,192,45774,1,2,0:0:0:0:
192,192,45774,1,0,0:0:0:0:
320,192,46132,1,2,0:0:0:0:
448,192,46132,128,4,46489:0:0:0:0:
192,192,46489,1,2,0:0:0:0:
64,192,46667,1,8,0:0:0:0:
320,192,46667,1,4,0:0:0:0:
320,192,47024,1,8,0:0:0:0:
448,192,47024,1,0,0:0:0:0:
192,192,47203,1,2,0:0:0:0:
64,192,47382,1,2,0:0:0:0:
448,192,47560,1,2,0:0:0:0:
64,192,47739,128,6,49167:0:0:0:0:
320,192,47739,1,0,0:0:0:60:windchime.wav
192,192,48274,1,2,0:0:0:0:
448,192,48453,1,8,0:0:0:0:
448,192,48989,1,2,0:0:0:0:
192,192,49167,1,2,0:0:0:0:
320,192,49346,1,8,0:0:0:0:
448,192,49346,1,0,0:0:0:0:
192,192,49703,1,2,0:0:0:0:
64,192,49882,1,8,0:0:0:0:
448,192,49882,128,0,50417:0:0:0:60:sleighbell.wav
320,192,50417,1,8,0:0:0:0:
64,192,50596,128,2,51132:0:0:0:0:
192,192,50596,1,0,0:0:0:0:
320,192,51132,1,2,0:0:0:0:
192,192,51310,1,8,0:0:0:0:
448,192,51310,128,0,51846:0:0:0:0:
320,192,51846,1,0,0:0:0:0:
64,192,52024,1,2,0:0:0:0:
192,192,52024,1,0,0:0:0:0:
320,192,52203,1,8,0:0:0:0:
448,192,52203,1,0,0:0:0:0:
64,192,52382,1,8,0:0:0:0:
192,192,52560,1,2,0:0:0:0:
320,192,52739,1,2,0:0:0:0:
448,192,52739,1,8,0:0:0:0:
320,192,52917,1,2,0:0:0:0:
448,192,52917,1,8,0:0:0:0:
64,192,53453,1,4,0:0:0:0:
192,192,53453,1,2,0:0:0:0:
320,192,53810,1,8,0:0:0:0:
448,192,53810,1,0,0:0:0:60:sleighbell.wav
64,192,53989,1,8,0:0:0:0:
192,192,54167,1,2,0:0:0:0:
320,192,54346,1,2,0:0:0:0:
64,192,54524,1,2,0:0:0:0:
448,192,54524,1,0,0:0:0:60:sleighbell.wav
192,192,54882,1,4,0:0:0:0:
320,192,54882,1,2,0:0:0:0:
64,192,55060,1,2,0:0:0:0:
320,192,55239,1,8,0:0:0:0:
448,192,55239,1,0,0:0:0:60:sleighbell.wav
192,192,55417,1,2,0:0:0:0:
448,192,55596,1,2,0:0:0:0:
64,192,55774,1,8,0:0:0:0:
192,192,55774,1,0,0:0:0:0:
192,192,56132,1,4,0:0:0:0:
320,192,56132,1,2,0:0:0:0:
64,192,56489,1,2,0:0:0:0:
320,192,56667,1,8,0:0:0:0:
448,192,56667,1,0,0:0:0:0:
192,192,56846,1,2,0:0:0:0:
64,192,57024,1,2,0:0:0:0:
320,192,57203,1,2,0:0:0:0:
448,192,57203,1,8,0:0:0:0:
64,192,57382,1,8,0:0:0:0:
192,192,57382,1,0,0:0:0:0:
320,192,57560,1,8,0:0:0:0:
64,192,57739,1,2,0:0:0:0:
448,192,57739,1,0,0:0:0:60:finishshort.wav
64,192,59167,128,6,59524:0:0:0:0:
192,192,59167,1,0,0:0:0:60:windchime.wav
320,192,59524,1,8,0:0:0:0:
448,192,59524,1,0,0:0:0:0:
192,192,59703,1,2,0:0:0:0:
64,192,59882,1,0,0:0:0:0:
320,192,60060,1,2,0:0:0:0:
192,192,60239,1,8,0:0:0:0:
448,192,60239,1,0,0:0:0:0:
448,192,60596,128,2,60953:0:0:0:0:
64,192,60953,1,8,0:0:0:0:
320,192,60953,1,0,0:0:0:0:
192,192,61132,128,2,61489:0:0:0:0:
320,192,61489,1,2,0:0:0:0:
64,192,61667,1,8,0:0:0:0:
448,192,61667,1,0,0:0:0:0:
320,192,62024,128,2,62382:0:0:0:0:
64,192,62382,1,8,0:0:0:0:
448,192,62382,1,0,0:0:0:0:
192,192,62560,1,8,0:0:0:0:
448,192,62739,1,2,0:0:0:0:
320,192,62917,1,2,0:0:0:0:
64,192,63096,1,8,0:0:0:0:
192,192,63096,1,0,0:0:0:0:
320,192,63274,1,8,0:0:0:0:
448,192,63274,1,0,0:0:0:0:
64,192,63453,128,2,63810:0:0:0:0:
192,192,63453,1,0,0:0:0:0:
320,192,63810,1,8,0:0:0:0:
448,192,63810,1,0,0:0:0:0:
64,192,63989,1,2,0:0:0:0:
192,192,63989,1,0,0:0:0:60:finishshort.wav
64,192,64346,1,2,0:0:0:0:
192,192,64346,1,0,0:0:0:60:finishshort.wav
320,192,64524,1,8,0:0:0:0:
448,192,64524,1,0,0:0:0:0:
192,192,64703,1,8,0:0:0:0:
64,192,64882,1,6,0:0:0:0:
448,192,64882,1,0,0:0:0:60:sleighbell.wav
320,192,65060,1,0,0:0:0:0:
64,192,65239,1,8,0:0:0:0:
192,192,65239,1,0,0:0:0:0:
320,192,65417,128,2,65774:0:0:0:0:
192,192,65774,1,2,0:0:0:0:
64,192,65953,1,8,0:0:0:0:
448,192,65953,1,0,0:0:0:0:
192,192,66310,1,2,0:0:0:0:
320,192,66489,1,2,0:0:0:0:
64,192,66667,1,8,0:0:0:0:
448,192,66667,1,0,0:0:0:0:
192,192,66846,128,2,67203:0:0:0:0:
320,192,67203,1,2,0:0:0:0:
64,192,67382,1,8,0:0:0:0:
448,192,67382,1,0,0:0:0:0:
192,192,67560,1,8,0:0:0:0:
320,192,67739,1,2,0:0:0:0:
448,192,67739,1,0,0:0:0:0:
320,192,68096,1,8,0:0:0:0:
448,192,68096,1,0,0:0:0:60:finishshort.wav
64,192,68453,1,8,0:0:0:0:
192,192,68453,1,4,0:0:0:0:
64,192,68810,1,8,0:0:0:0:
192,192,68810,1,0,0:0:0:0:
320,192,68989,1,2,0:0:0:0:
64,192,69167,1,4,0:0:0:0:
448,192,69167,1,2,0:0:0:0:
192,192,69346,1,2,0:0:0:0:
320,192,69524,1,8,0:0:0:0:
448,192,69524,1,0,0:0:0:0:
64,192,69703,128,2,70060:0:0:0:0:
320,192,70060,1,2,0:0:0:0:
192,192,70239,1,0,0:0:0:60:LR_Clap Med.wav
448,192,70239,128,0,70596:0:0:0:0:
64,192,70596,128,6,70953:0:0:0:0:
320,192,70596,1,0,0:0:0:60:windchime.wav
320,192,70953,1,8,0:0:0:0:
448,192,70953,1,0,0:0:0:0:
192,192,71132,1,2,0:0:0:0:
64,192,71310,1,0,0:0:0:0:
320,192,71489,1,2,0:0:0:0:
192,192,71667,1,8,0:0:0:0:
448,192,71667,1,0,0:0:0:0:
448,192,72024,128,2,72382:0:0:0:0:
64,192,72382,1,8,0:0:0:0:
320,192,72382,1,0,0:0:0:0:
192,192,72560,128,2,72917:0:0:0:0:
320,192,72917,1,2,0:0:0:0:
64,192,73096,1,8,0:0:0:0:
448,192,73096,1,0,0:0:0:0:
320,192,73453,128,2,73810:0:0:0:0:
64,192,73810,1,8,0:0:0:0:
192,192,73810,1,0,0:0:0:0:
448,192,73989,1,8,0:0:0:0:
320,192,74167,1,2,0:0:0:0:
192,192,74346,1,2,0:0:0:0:
64,192,74524,1,8,0:0:0:0:
448,192,74524,1,0,0:0:0:0:
192,192,74703,1,8,0:0:0:0:
320,192,74703,1,0,0:0:0:0:
64,192,74882,128,4,75239:0:0:0:0:
448,192,74882,1,2,0:0:0:0:
320,192,75239,1,8,0:0:0:0:
448,192,75239,1,0,0:0:0:0:
64,192,75417,1,2,0:0:0:0:
192,192,75417,1,0,0:0:0:0:
64,192,75774,1,2,0:0:0:0:
192,192,75774,1,4,0:0:0:0:
320,192,75953,1,8,0:0:0:0:
448,192,75953,1,0,0:0:0:0:
192,192,76132,1,8,0:0:0:0:
64,192,76310,1,6,0:0:0:0:
448,192,76310,128,0,76667:0:0:0:60:sleighbell.wav
64,192,76667,1,8,0:0:0:0:
320,192,76667,1,0,0:0:0:60:sleighbell.wav
192,192,76846,128,2,77203:0:0:0:0:
320,192,77203,1,2,0:0:0:0:
64,192,77382,1,8,0:0:0:0:
448,192,77382,1,0,0:0:0:60:sleighbell.wav
64,192,77739,128,6,78096:0:0:0:0:
320,192,77739,1,0,0:0:0:60:sleighbell.wav
192,192,78096,1,8,0:0:0:0:
448,192,78096,1,0,0:0:0:60:sleighbell.wav
320,192,78274,128,2,78632:0:0:0:0:
192,192,78632,1,2,0:0:0:0:
64,192,78810,1,8,0:0:0:0:
448,192,78810,1,0,0:0:0:60:sleighbell.wav
320,192,79167,1,4,0:0:0:0:
448,192,79167,128,2,79524:0:0:0:0:
64,192,79524,1,8,0:0:0:0:
192,192,79524,1,0,0:0:0:0:
320,192,79703,1,2,0:0:0:0:
448,192,79703,1,0,0:0:0:60:finishshort.wav
64,192,80060,1,2,0:0:0:0:
192,192,80060,1,0,0:0:0:60:finishshort.wav
320,192,80417,1,4,0:0:0:0:
448,192,80417,1,2,0:0:0:0:
64,192,80774,1,2,0:0:0:0:
320,192,80953,1,8,0:0:0:0:
448,192,80953,1,0,0:0:0:0:
64,192,81132,128,2,81489:0:0:0:0:
192,192,81132,1,4,0:0:0:0:
448,192,81489,1,2,0:0:0:0:
320,192,81667,1,8,0:0:0:0:
192,192,81846,1,8,0:0:0:0:
64,192,82024,1,4,0:0:0:0:
448,192,82024,1,2,0:0:0:0:
192,192,82382,1,8,0:0:0:0:
320,192,82382,1,0,0:0:0:0:
64,192,82560,1,2,0:0:0:0:
448,192,82560,1,4,0:0:0:0:
192,192,82917,1,2,0:0:0:0:
320,192,83096,1,8,0:0:0:0:
448,192,83096,1,0,0:0:0:0:
64,192,83453,1,4,0:0:0:0:
448,192,83453,1,2,0:0:0:0:
192,192,83632,1,8,0:0:0:0:
320,192,83810,1,2,0:0:0:0:
448,192,83989,1,2,0:0:0:0:
64,192,84167,1,2,0:0:0:0:
192,192,84167,1,0,0:0:0:0:
64,192,84346,1,2,0:0:0:0:
192,192,84346,1,0,0:0:0:0:
320,192,84882,1,4,0:0:0:0:
448,192,84882,1,2,0:0:0:0:
192,192,85060,1,0,0:0:0:0:
64,192,85239,1,8,0:0:0:0:
448,192,85239,1,0,0:0:0:0:
192,192,85417,1,2,0:0:0:0:
320,192,85417,1,4,0:0:0:0:
64,192,85774,1,2,0:0:0:0:
320,192,85953,1,8,0:0:0:0:
448,192,85953,1,0,0:0:0:0:
64,192,86132,1,2,0:0:0:0:
192,192,86132,1,4,0:0:0:0:
448,192,86489,1,2,0:0:0:0:
64,192,86667,1,8,0:0:0:0:
192,192,86667,1,0,0:0:0:0:
320,192,86846,1,2,0:0:0:0:
448,192,86846,1,0,0:0:0:60:finishshort.wav
64,192,87203,1,2,0:0:0:0:
192,192,87203,1,0,0:0:0:60:finishshort.wav
320,192,87560,1,6,0:0:0:0:
448,192,87560,128,0,89167:0:0:0:60:windchime.wav
