osu file format v14

[General]
AudioFilename: Wakfu Opening 2 - HD.mp3
AudioLeadIn: 0
PreviewTime: 32763
Countdown: 1
SampleSet: Soft
StackLeniency: 0.7
Mode: 2
LetterboxInBreaks: 0
WidescreenStoryboard: 1

[Editor]
DistanceSpacing: 1
BeatDivisor: 4
GridSize: 8
TimelineZoom: 1

[Metadata]
Title:Sur tes pas!
TitleUnicode:Sur tes pas!
Artist:Wakfu
ArtistUnicode:Wakfu
Creator:Vincs
Version:Rain
Source:Wakfu
Tags:wakfu yugo pinpin evangeline dofus
BeatmapID:1401678
BeatmapSetID:623749

[Difficulty]
HPDrainRate:6
CircleSize:4
OverallDifficulty:9
ApproachRate:9
SliderMultiplier:1.92
SliderTickRate:2

[Events]
//Background and Video events
0,0,"__cra_and_evangelyne_wakfu_drawn_by_xavier_houssin__c1b36635ae459e2e97c9082b25fe5192.png",0,0
//Break Periods
//Storyboard Layer 0 (Background)
//Storyboard Layer 1 (Fail)
//Storyboard Layer 2 (Pass)
//Storyboard Layer 3 (Foreground)
//Storyboard Sound Samples

[TimingPoints]
12963,300,4,2,0,100,1,0

[HitObjects]
256,192,6513,12,0,12363,0:0:0:0:
304,208,12813,6,0,L|208:208,1,96
328,208,13113,2,0,P|384:136|328:72,1,192
208,72,13563,6,0,L|112:72,1,96
248,112,13863,2,0,L|352:112,1,96
208,216,14163,1,0,0:0:0:0:
344,288,14313,2,0,L|144:288,1,192
424,216,14763,6,0,P|432:168|416:104,1,96
288,120,15063,1,0,0:0:0:0:
152,128,15213,2,0,P|144:80|160:24,1,96
440,224,15513,2,0,P|448:176|432:120,1,96
152,288,15813,2,0,P|88:232|160:176,1,192
288,168,16263,6,0,L|392:168,2,96
152,96,16713,2,0,L|24:96,2,96
432,192,17163,6,0,P|440:248|432:296,1,96
296,288,17463,1,0,0:0:0:0:
432,288,17613,2,0,L|296:288,1,96
56,288,17913,2,0,P|48:224|64:176,1,96
344,224,18213,2,0,P|392:160|344:56,1,192
216,56,18663,6,0,L|320:56,2,96
352,136,19113,2,0,L|448:136,2,96
48,272,19563,6,0,L|24:168,2,96
336,272,20013,2,0,L|392:192,2,96
192,256,20463,2,0,L|96:208,2,96
472,272,20913,2,0,L|496:168,2,96
176,240,21363,2,0,L|152:136,1,96
296,144,21663,6,0,L|160:144,2,96
16,128,22113,2,0,L|8:80,2,48
312,96,22413,1,0,0:0:0:0:
168,128,22563,1,0,0:0:0:0:
304,192,22713,1,0,0:0:0:0:
160,248,22863,1,0,0:0:0:0:
320,256,23013,1,0,0:0:0:0:
48,256,23163,6,0,P|-8:208|64:120,1,192
192,120,23613,1,0,0:0:0:0:
344,256,23763,2,0,P|400:208|328:120,1,192
192,120,24213,1,0,0:0:0:0:
336,120,24363,6,0,L|216:120,2,96
192,240,24813,2,0,L|88:240,1,96
384,200,25113,2,0,P|400:144|384:96,1,96
112,144,25413,6,0,L|72:48,2,96
400,192,25863,2,0,L|464:280,2,96
256,144,26313,2,0,L|384:144,2,96
112,160,26763,6,0,P|96:88|112:48,1,96
384,296,27063,2,0,P|400:224|384:184,1,96
248,216,27363,1,0,0:0:0:0:
104,216,27513,2,0,P|88:168|96:112,1,96
328,200,27813,6,0,L|280:112,2,96
472,192,28263,1,0,0:0:0:0:
192,168,28413,2,0,L|248:72,2,96
48,168,28863,2,0,P|40:112|48:64,1,96
344,304,29163,6,0,P|400:224|336:168,1,192
72,184,29613,2,0,P|16:104|80:48,1,192
360,48,30063,2,0,P|368:96|352:176,1,96
72,256,30363,6,0,L|24:160,2,96
216,256,30813,1,0,0:0:0:0:
496,176,30963,5,0,0:0:0:0:
360,176,31113,1,0,0:0:0:0:
224,176,31263,1,0,0:0:0:0:
360,176,31413,1,0,0:0:0:0:
72,96,31563,5,0,0:0:0:0:
216,96,31713,2,0,L|248:160,2,48
64,96,32013,1,0,0:0:0:0:
344,288,32163,5,0,0:0:0:0:
208,256,32313,1,0,0:0:0:0:
352,224,32463,1,0,0:0:0:0:
192,208,32613,1,0,0:0:0:0:
456,232,32763,6,0,P|504:160|448:80,1,192
304,80,33213,1,0,0:0:0:0:
472,128,33363,2,0,L|496:232,2,96
184,216,33813,6,0,L|112:304,2,96
336,216,34263,1,0,0:0:0:0:
56,200,34413,2,0,P|48:120|64:88,1,96
344,112,34713,2,0,L|464:112,1,96
152,112,35013,6,0,L|104:224,2,96
304,112,35463,1,0,0:0:0:0:
160,64,35613,1,0,0:0:0:0:
440,184,35763,2,0,L|488:296,2,96
288,184,36213,5,0,0:0:0:0:
432,136,36363,1,0,0:0:0:0:
152,120,36513,2,0,L|112:232,2,96
432,72,36963,2,0,L|472:184,2,96
288,72,37413,1,0,0:0:0:0:
144,64,37563,6,0,L|200:168,2,96
296,184,38013,2,0,L|192:256,2,96
152,160,38463,2,0,L|256:160,1,96
104,128,38763,6,0,P|96:64|112:24,1,96
392,304,39063,2,0,P|400:240|384:200,1,96
112,208,39363,2,0,L|16:208,1,96
296,176,39663,2,0,L|392:176,1,96
104,144,39963,6,0,L|64:248,2,96
256,144,40413,1,0,0:0:0:0:
408,144,40563,2,0,L|496:216,2,96
256,144,41013,1,0,0:0:0:0:
408,128,41163,1,0,0:0:0:0:
112,216,41313,6,0,L|88:264,2,48
408,208,41613,1,0,0:0:0:0:
264,192,41763,1,0,0:0:0:0:
408,152,41913,1,0,0:0:0:0:
120,144,42063,2,0,L|16:144,1,96
336,64,42363,6,0,P|368:128|336:240,1,192
184,240,42813,1,0,0:0:0:0:
464,240,42963,2,0,L|488:344,2,96
152,256,43413,6,0,L|40:320,2,96
312,248,43863,1,0,0:0:0:0:
32,224,44013,2,0,P|16:176|40:112,1,96
320,160,44313,2,0,P|336:112|312:48,1,96
48,48,44613,6,0,L|24:160,2,96
192,48,45063,2,0,L|96:80,1,96
384,80,45363,2,0,L|440:168,2,96
88,128,45813,6,0,L|64:248,2,96
376,224,46263,1,0,0:0:0:0:
232,232,46413,2,0,P|200:176|280:80,1,192
416,80,46863,2,0,P|424:136|408:192,1,96
128,312,47163,6,0,L|88:208,2,96
408,288,47613,2,0,L|464:192,2,96
104,288,48063,2,0,L|16:232,2,96
392,200,48513,5,0,0:0:0:0:
256,200,48663,1,0,0:0:0:0:
120,200,48813,1,0,0:0:0:0:
400,128,48963,1,0,0:0:0:0:
112,120,49263,1,0,0:0:0:0:
384,304,49563,6,0,L|424:200,2,96
80,280,50013,2,0,L|16:176,2,96
408,280,50463,2,0,L|496:224,2,96
120,200,50913,5,0,0:0:0:0:
256,200,51063,1,0,0:0:0:0:
392,200,51213,1,0,0:0:0:0:
112,128,51363,1,0,0:0:0:0:
256,120,51513,1,0,0:0:0:0:
400,120,51663,1,0,0:0:0:0:
104,280,51813,6,0,L|56:160,2,96
264,280,52263,1,0,0:0:0:0:
112,176,52413,2,0,L|216:136,2,96
400,176,52863,2,0,L|296:136,1,96
456,112,53163,1,0,0:0:0:0:
168,104,53313,1,0,0:0:0:0:
408,48,53613,1,0,0:0:0:0:
112,48,53913,1,0,0:0:0:0:
304,240,54213,1,0,0:0:0:0:
256,192,54363,12,0,57363,0:0:0:0:
