osu file format v14

[General]
AudioFilename: audio.mp3
AudioLeadIn: 0
PreviewTime: 51515
Countdown: 0
SampleSet: Soft
StackLeniency: 0.7
Mode: 0
LetterboxInBreaks: 0
WidescreenStoryboard: 1

[Editor]
DistanceSpacing: 1
BeatDivisor: 4
GridSize: 32
TimelineZoom: 1.5

[Metadata]
Title:the BEAST can't BE STOpped
TitleUnicode:the BEAST can't BE STOpped
Artist:Wakeshima Kanon
ArtistUnicode:分島花音
Creator:Gelidium
Version:Haruru's Expert
Source:
Tags:mnyui fuju haruru japanese nexusqi reisevia cant rock female jrock j-rock luminescence q.e.d qed vocals roda totsuki roda_totsuki
BeatmapID:2618028
BeatmapSetID:1243487

[Difficulty]
HPDrainRate:6
CircleSize:3.8
OverallDifficulty:8.5
ApproachRate:9.3
SliderMultiplier:1.7
SliderTickRate:1

[Events]
//Background and Video events
0,0,"asdsa.jpg",0,0
//Break Periods
2,22015,25865
2,26815,28265
2,156265,162665
//Storyboard Layer 0 (Background)
//Storyboard Layer 1 (Fail)
//Storyboard Layer 2 (Pass)
//Storyboard Layer 3 (Foreground)
//Storyboard Layer 4 (Overlay)
//Storyboard Sound Samples

[TimingPoints]
2465,300,4,2,1,70,1,0
2465,-90.9090909090909,4,2,1,70,0,0
6965,-83.3333333333333,4,2,1,70,0,0
7715,-90.9090909090909,4,2,1,70,0,0
11765,-83.3333333333333,4,2,1,70,0,0
12065,-90.9090909090909,4,2,1,80,0,0
16565,-83.3333333333333,4,2,1,80,0,0
17015,-90.9090909090909,4,2,1,80,0,0
19865,-76.9230769230769,4,2,1,80,0,0
20915,-76.9230769230769,4,2,1,75,0,0
21065,-125,4,2,1,75,0,0
21365,-125,4,2,1,40,0,0
21665,-125,4,2,1,50,0,0
31265,-100,4,2,1,70,0,0
39365,-90.9090909090909,4,2,1,70,0,0
40415,-90.9090909090909,4,2,1,60,0,0
40865,-125,4,2,1,65,0,0
45365,-166.666666666667,4,2,1,65,0,0
45665,-125,4,2,1,65,0,0
49265,-125,4,2,1,70,0,0
49340,-125,4,2,1,5,0,0
49415,-125,4,2,1,60,0,0
49640,-125,4,2,1,5,0,0
49715,-125,4,2,1,70,0,0
49790,-125,4,2,1,5,0,0
49865,-200,4,2,1,75,0,0
50465,-100,4,2,1,75,0,0
50765,-100,4,2,1,70,0,0
51065,-142.857142857143,4,2,1,70,0,0
51665,-142.857142857143,4,2,1,60,0,1
51740,-142.857142857143,4,2,1,5,0,1
51815,-142.857142857143,4,2,1,60,0,1
51890,-142.857142857143,4,2,1,5,0,1
51965,-142.857142857143,4,2,1,60,0,1
52040,-142.857142857143,4,2,1,5,0,1
52115,-142.857142857143,4,2,1,60,0,1
52490,-142.857142857143,4,2,1,5,0,1
52565,-83.3333333333333,4,2,1,60,0,0
52640,-83.3333333333333,4,2,1,5,0,0
52715,-83.3333333333333,4,2,1,60,0,0
52790,-83.3333333333333,4,2,1,5,0,0
52865,-90.9090909090909,4,2,1,90,0,1
57440,-90.9090909090909,4,2,1,5,0,1
57515,-90.9090909090909,4,2,1,90,0,1
59915,-83.3333333333333,4,2,1,90,0,1
62465,-90.9090909090909,4,2,1,90,0,1
68690,-90.9090909090909,4,2,1,5,0,1
68765,-90.9090909090909,4,2,1,90,0,1
68840,-90.9090909090909,4,2,1,5,0,1
68915,-90.9090909090909,4,2,1,90,0,1
69140,-90.9090909090909,4,2,1,5,0,1
69215,-90.9090909090909,4,2,1,90,0,1
69290,-90.9090909090909,4,2,1,5,0,1
69365,-83.3333333333333,4,2,1,90,0,1
69590,-83.3333333333333,4,2,1,5,0,1
69665,-100,4,2,1,60,0,0
77465,-83.3333333333333,4,2,1,60,0,0
78665,-100,4,2,1,60,0,0
79190,-100,4,2,1,5,0,0
79265,-100,4,2,1,70,0,0
91640,-100,4,2,1,5,0,0
91715,-100,4,2,1,70,0,0
97715,-90.9090909090909,4,2,1,70,0,0
98015,-90.9090909090909,4,2,1,60,0,0
98465,-125,4,2,1,65,0,0
107465,-200,4,2,1,65,0,0
108065,-100,4,2,1,65,0,0
108665,-142.857142857143,4,2,1,65,0,0
109265,-100,4,2,1,60,0,1
109340,-100,4,2,1,5,0,1
109415,-100,4,2,1,60,0,1
109490,-100,4,2,1,5,0,1
109565,-100,4,2,1,60,0,1
109640,-100,4,2,1,5,0,1
109715,-100,4,2,1,60,0,1
110090,-100,4,2,1,5,0,1
110165,-100,4,2,1,60,0,0
110240,-100,4,2,1,5,0,0
110315,-100,4,2,1,60,0,0
110390,-100,4,2,1,5,0,0
110465,-90.9090909090909,4,2,1,90,0,1
117515,-83.3333333333333,4,2,1,90,0,1
120065,-90.9090909090909,4,2,1,90,0,1
126290,-90.9090909090909,4,2,1,5,0,1
126365,-90.9090909090909,4,2,1,90,0,1
126440,-90.9090909090909,4,2,1,5,0,1
126515,-90.9090909090909,4,2,1,90,0,1
126740,-90.9090909090909,4,2,1,5,0,1
126815,-90.9090909090909,4,2,1,90,0,1
126890,-90.9090909090909,4,2,1,5,0,1
126965,-90.9090909090909,4,2,1,90,0,1
127190,-90.9090909090909,4,2,1,5,0,1
127265,-125,4,2,1,60,0,0
134765,-90.9090909090909,4,2,1,60,0,0
136115,-90.9090909090909,4,2,1,75,0,0
136265,-125,4,2,1,75,0,0
136790,-125,4,2,1,5,0,0
136865,-125,4,2,1,90,0,0
138215,-90.9090909090909,4,2,1,90,0,0
153890,-90.9090909090909,4,2,1,5,0,0
153965,-90.9090909090909,4,2,1,90,0,0
154040,-90.9090909090909,4,2,1,5,0,0
154115,-90.9090909090909,4,2,1,90,0,0
154340,-90.9090909090909,4,2,1,5,0,0
154415,-90.9090909090909,4,2,1,90,0,0
154490,-90.9090909090909,4,2,1,5,0,0
154565,-250,4,2,1,90,0,0
163265,-166.666666666667,4,2,1,90,0,0
164465,-166.666666666667,4,2,1,60,0,0
164540,-166.666666666667,4,2,1,5,0,0
164615,-166.666666666667,4,2,1,60,0,0
164690,-166.666666666667,4,2,1,5,0,0
164765,-166.666666666667,4,2,1,60,0,0
164840,-166.666666666667,4,2,1,5,0,0
164915,-166.666666666667,4,2,1,60,0,0
165290,-166.666666666667,4,2,1,5,0,0
165365,-166.666666666667,4,2,1,60,0,0
165440,-166.666666666667,4,2,1,5,0,0
165515,-166.666666666667,4,2,1,60,0,0
165590,-166.666666666667,4,2,1,5,0,0
165665,-111.111111111111,4,2,1,70,0,0
172865,-111.111111111111,4,2,1,70,0,1
174065,-111.111111111111,4,2,1,70,0,0
175265,-90.9090909090908,4,2,1,90,0,1
181490,-90.9090909090908,4,2,1,5,0,1
181565,-90.9090909090908,4,2,1,90,0,1
181640,-90.9090909090908,4,2,1,5,0,1
181715,-90.9090909090908,4,2,1,90,0,1
181940,-90.9090909090908,4,2,1,5,0,1
182015,-90.9090909090908,4,2,1,90,0,1
182090,-90.9090909090908,4,2,1,5,0,1
182165,-90.9090909090908,4,2,1,90,0,1
182390,-90.9090909090908,4,2,1,5,0,1
182465,-90.9090909090908,4,2,1,90,0,0
184340,-90.9090909090908,4,2,1,5,0,0
184415,-90.9090909090908,4,2,1,85,0,0
196790,-90.9090909090908,4,2,1,5,0,0
196865,-90.9090909090908,4,2,1,85,0,0
200465,-90.9090909090908,4,2,1,80,0,0

[Colours]
Combo1 : 15,15,255
Combo2 : 77,173,253
Combo3 : 87,115,136
Combo4 : 136,255,255

[HitObjects]
310,117,2465,5,6,3:2:0:0:
442,281,2615,2,0,L|463:167,1,93.5000028533937,2|2,0:0|3:2,0:0:0:0:
200,261,2915,2,0,P|252:333|368:305,1,187.000005706787,6|2,1:2|3:2,0:0:0:0:
103,384,3365,1,6,1:2:0:0:
293,251,3515,1,2,0:0:0:0:
72,165,3665,5,6,1:2:0:0:
189,353,3815,2,0,L|204:221,1,93.5000028533936,2|2,0:0|3:2,0:0:0:0:
295,65,4115,2,0,P|380:92|403:178,1,187.000005706787,6|2,1:2|3:2,0:0:0:0:
473,11,4565,1,6,1:2:0:0:
312,159,4715,1,2,0:0:0:0:
495,279,4865,5,2,1:2:0:0:
345,68,5015,2,0,L|239:85,1,93.5000028533936,2|2,0:0|3:2,0:0:0:0:
16,223,5315,2,0,P|104:235|200:253,1,187.000005706787,6|2,1:2|3:2,0:0:0:0:
407,323,5765,1,6,1:2:0:0:
395,325,5840,1,2,0:0:0:0:
384,327,5915,1,2,0:0:0:0:
372,330,5990,1,2,0:0:0:0:
361,332,6065,5,6,1:2:0:0:
480,186,6215,2,0,L|496:291,1,93.5000028533936,2|2,0:0|3:2,0:0:0:0:
301,76,6515,2,0,L|285:181,1,93.5000028533936,6|0,1:2|0:0,0:0:0:0:
455,34,6815,1,2,3:2:0:0:
375,266,6965,6,0,B|328:247|328:247|282:258|282:258|209:233,1,152.999995330811,4|0,1:2|0:0,0:0:0:0:
155,215,7265,5,6,1:2:0:0:
327,342,7415,1,2,0:0:0:0:
327,342,7565,1,2,3:2:0:0:
91,134,7715,2,0,P|106:227|124:356,1,187.000005706787,6|2,1:2|3:2,0:0:0:0:
286,168,8165,2,0,P|293:121|300:75,1,93.5000028533936,6|2,1:2|0:0,0:0:0:0:
121,49,8465,5,6,1:2:0:0:
347,234,8615,2,0,L|225:260,1,93.5000028533936,2|2,0:0|3:2,0:0:0:0:
39,344,8915,2,0,P|52:264|157:247,1,187.000005706787,6|2,1:2|3:2,0:0:0:0:
320,326,9365,1,2,1:2:0:0:
387,142,9515,1,2,0:0:0:0:
197,319,9665,5,6,1:2:0:0:
424,228,9815,2,0,P|378:221|294:212,1,93.5000028533936,2|2,0:0|3:2,0:0:0:0:
63,161,10115,2,0,P|155:151|176:55,1,187.000005706787,6|2,1:2|3:2,0:0:0:0:
0,55,10565,1,6,1:2:0:0:
214,218,10715,1,2,0:0:0:0:
0,289,10865,5,6,1:2:0:0:
310,185,11015,2,0,L|294:320,1,93.5000028533936,2|2,0:0|3:2,0:0:0:0:
85,114,11315,2,0,L|101:-21,1,93.5000028533936,6|0,1:2|0:0,0:0:0:0:
388,243,11615,1,2,3:2:0:0:
107,290,11765,6,0,P|148:220|245:241,1,152.999995330811,0|0,1:2|0:0,0:0:0:0:
213,217,12065,5,6,1:2:0:0:
448,317,12215,2,0,L|344:336,1,93.5000028533936,2|2,0:0|3:2,0:0:0:0:
365,81,12515,2,0,P|423:67|500:177,1,187.000005706787,6|2,1:2|3:2,0:0:0:0:
252,311,12965,1,6,1:2:0:0:
411,158,13115,1,2,0:0:0:0:
173,108,13265,5,6,1:2:0:0:
330,370,13415,2,0,P|334:326|343:262,1,93.5000028533936,2|2,0:0|3:2,0:0:0:0:
66,284,13715,2,0,P|159:295|269:313,1,187.000005706787,6|2,1:2|3:2,0:0:0:0:
423,380,14165,1,6,1:2:0:0:
264,219,14315,1,2,0:0:0:0:
108,383,14465,5,6,1:2:0:0:
325,147,14615,2,0,P|278:138|233:129,1,93.5000028533936,2|2,0:0|3:2,0:0:0:0:
44,26,14915,2,0,B|83:88|83:88|51:198,1,187.000005706787,6|2,1:2|3:2,0:0:0:0:
11,331,15365,1,6,1:2:0:0:
198,205,15515,1,2,0:0:0:0:
342,384,15665,5,6,1:2:0:0:
117,257,15815,2,0,L|131:349,1,93.5000028533936,2|2,0:0|3:2,0:0:0:0:
279,153,16115,2,0,L|264:60,1,93.5000028533936,6|0,1:2|0:0,0:0:0:0:
37,212,16415,1,2,3:2:0:0:
329,336,16565,6,0,P|261:279|186:309,1,152.999995330811,4|0,1:2|0:0,0:0:0:0:
204,292,16865,5,6,1:2:0:0:
422,247,17015,2,0,B|436:202|436:202|414:151,1,93.5000028533936,2|2,0:0|3:2,0:0:0:0:
154,182,17315,2,0,B|273:162|223:226|365:206,1,187.000005706787,6|2,1:2|0:0,0:0:0:0:
192,284,17765,1,6,1:2:0:0:
313,106,17915,1,2,0:2:0:0:
26,147,18065,5,6,1:2:0:0:
282,249,18215,2,0,L|271:364,1,93.5000028533936,2|2,3:2|3:2,0:0:0:0:
45,350,18515,2,0,P|100:280|217:305,1,187.000005706787,6|2,1:2|0:2,0:0:0:0:
365,307,18965,2,0,L|461:284,1,93.5000028533936,6|2,1:2|0:2,0:0:0:0:
497,109,19265,5,2,3:2:0:0:
475,116,19340,1,0,3:2:0:0:
451,118,19415,1,2,1:2:0:0:
428,115,19490,1,0,3:2:0:0:
407,105,19565,1,2,1:2:0:0:
389,90,19640,1,0,3:2:0:0:
375,72,19715,1,2,1:2:0:0:
367,50,19790,1,0,3:2:0:0:
364,27,19865,6,0,L|425:37,1,55.2499974708558,8|0,0:3|3:0,0:0:0:0:
287,149,20015,2,0,L|226:158,1,55.2499974708558,2|0,1:2|3:0,0:0:0:0:
148,12,20165,1,2,1:2:0:0:
148,12,20240,1,0,3:0:0:0:
148,12,20315,2,0,L|208:21,1,55.2499974708558,2|0,1:2|3:0,0:0:0:0:
80,193,20465,5,2,1:2:0:0:
279,61,20615,1,10,0:3:0:0:
279,61,20915,1,6,1:2:0:0:
293,299,21065,2,0,L|283:137,1,136,0|2,0:0|0:0,0:0:0:0:
54,34,21665,5,6,3:2:0:0:
54,34,21815,1,0,3:2:0:0:
54,34,26465,5,2,3:2:0:0:
54,34,26615,1,0,3:2:0:0:
54,34,28865,5,2,3:2:0:0:
54,34,29015,1,2,3:2:0:0:
422,337,30065,6,0,P|446:273|408:198,2,136,2|0|0,3:2|1:2|1:2,0:0:0:0:
213,273,30815,1,2,3:2:0:0:
213,273,31265,6,0,P|199:190|180:81,1,170,6|8,3:2|0:2,0:0:0:0:
45,305,31715,2,0,P|84:295|148:284,1,85,0|0,3:2|0:0,0:0:0:0:
356,139,32015,2,0,P|316:129|253:118,1,85,0|2,3:2|0:2,0:0:0:0:
75,216,32315,1,10,0:0:0:0:
280,374,32465,6,0,P|288:289|298:205,1,170,4|8,3:2|0:0,0:0:0:0:
494,295,32915,2,0,P|452:302|411:313,1,85,0|0,3:0|0:0,0:0:0:0:
273,120,33215,2,0,P|314:128|356:139,1,85,0|2,3:0|0:0,0:0:0:0:
197,300,33515,1,8,0:0:0:0:
43,134,33665,6,0,P|54:221|66:321,1,170,2|8,3:2|0:2,0:0:0:0:
262,206,34115,2,0,P|272:121|282:37,2,170,2|2|10,0:0|3:2|0:2,0:0:0:0:
402,375,34865,6,0,P|357:322|250:332,1,170,0|8,3:2|0:2,0:0:0:0:
493,278,35315,1,2,0:2:0:0:
493,278,35615,2,0,P|480:203|463:110,1,170,2|10,3:2|0:2,0:0:0:0:
209,194,36065,6,0,P|252:248|358:244,1,170,2|8,3:2|0:2,0:0:0:0:
512,47,36515,1,0,3:0:0:0:
512,47,36590,1,0,3:0:0:0:
512,47,36665,1,0,3:0:0:0:
275,0,36815,2,0,L|304:186,1,170,0|8,3:2|0:0,0:0:0:0:
486,308,37265,6,0,P|442:253|336:257,1,170,2|8,3:2|0:0,0:0:0:0:
219,384,37715,1,0,3:0:0:0:
219,384,37790,1,0,3:2:0:0:
219,384,37865,1,0,3:0:0:0:
396,338,38015,2,0,P|406:253|418:169,1,170,2|8,3:2|0:0,0:0:0:0:
206,28,38465,6,0,P|218:112|228:196,1,170,2|8,3:2|0:0,0:0:0:0:
354,59,38915,1,0,0:0:0:0:
116,126,39065,1,2,3:2:0:0:
332,227,39215,1,0,3:0:0:0:
332,227,39290,1,0,3:0:0:0:
332,227,39365,2,0,L|311:359,1,93.5000028533936,8|0,0:0|0:0,0:0:0:0:
80,383,39665,5,2,3:2:0:0:
249,157,39815,1,2,0:2:0:0:
425,368,39965,5,2,3:2:0:0:
118,239,40115,2,0,L|103:147,1,93.5000028533936,10|0,0:2|0:0,0:0:0:0:
376,107,40415,1,2,3:2:0:0:
376,107,40490,1,0,3:0:0:0:
376,107,40565,2,0,P|304:115|254:38,1,140.25000428009,8|0,0:2|0:0,0:0:0:0:
203,11,40865,6,0,L|223:177,1,136,6|0,3:2|0:0,0:0:0:0:
20,89,41315,1,0,3:0:0:0:
103,253,41465,6,0,L|119:117,1,136,8|0,0:0|0:0,0:0:0:0:
318,174,41915,1,2,3:2:0:0:
155,350,42065,5,2,3:2:0:0:
155,350,42215,2,0,L|19:329,1,136,10|2,0:2|3:2,0:0:0:0:
189,200,42665,2,0,L|169:291,1,68,10|2,0:2|3:2,0:0:0:0:
41,178,42965,2,0,L|26:111,1,68,2|10,0:2|0:2,0:0:0:0:
273,22,43265,6,0,P|286:51|290:101,1,68,2|0,3:2|0:0,0:0:0:0:
143,135,43565,2,0,P|161:108|202:80,1,68,2|0,0:2|3:2,0:0:0:0:
390,129,43865,1,10,0:2:0:0:
307,196,44015,2,0,P|274:193|230:171,1,68,0|2,3:2|3:2,0:0:0:0:
48,253,44315,6,0,P|81:250|125:228,1,68,10|2,0:2|3:2,0:0:0:0:
309,323,44615,2,0,P|276:320|232:298,1,68,8|0,0:0|3:0,0:0:0:0:
62,162,44915,1,2,3:2:0:0:
298,229,45065,5,10,0:0:0:0:
109,343,45215,1,0,3:0:0:0:
190,144,45365,2,0,L|204:231,1,76.4999976654053,10|0,0:0|0:0,0:0:0:0:
202,219,45665,5,6,3:2:0:0:
266,87,45815,2,0,P|209:47|127:71,1,136,0|2,0:0|3:2,0:0:0:0:
79,280,46265,1,10,0:0:0:0:
0,209,46415,2,0,L|143:190,1,136,0|2,3:0|3:2,0:0:0:0:
134,191,46790,1,0,3:2:0:0:
134,191,46865,5,0,3:2:0:0:
357,263,47015,2,0,L|214:244,1,136,10|2,0:2|3:2,0:0:0:0:
59,294,47465,1,10,0:2:0:0:
171,358,47615,1,2,3:2:0:0:
147,271,47765,1,2,0:2:0:0:
85,384,47915,1,2,3:2:0:0:
237,291,48065,6,0,L|249:199,1,68,2|0,3:2|3:2,0:0:0:0:
337,81,48365,1,2,0:2:0:0:
337,81,48515,2,0,L|325:173,1,68,2|8,3:2|0:2,0:0:0:0:
88,156,48815,5,2,0:2:0:0:
88,156,48965,2,0,L|173:141,1,68,2|0,0:2|0:0,0:0:0:0:
461,226,49265,1,14,0:2:0:0:
461,226,49415,2,0,L|376:241,1,68,2|0,3:2|0:0,0:0:0:0:
208,338,49715,5,10,0:0:0:0:
208,338,49865,2,0,B|164:321|164:321|131:329|131:329|76:307,1,127.5,6|0,3:2|0:0,0:0:0:0:
137,223,50465,6,0,P|135:195|127:168,2,56.6666666666667,10|0|8,0:0|3:0|0:3,0:0:0:0:
27,107,50765,2,0,P|17:138|17:174,2,56.6666666666667,4|8|4,0:3|0:3|0:3,0:0:0:0:
134,59,51065,6,0,B|236:17|199:85|310:39,1,178.499994552612,6|0,3:2|0:0,0:0:0:0:
306,40,51665,5,2,0:0:0:0:
347,114,51815,1,2,0:0:0:0:
430,130,51965,1,2,0:0:0:0:
495,76,52115,2,0,P|480:170|476:248,1,148.74999546051,2|0,0:0|0:0,0:0:0:0:
512,303,52565,6,0,B|460:313|460:313|421:296|421:296|358:306,1,152.999995330811,10|0,0:0|0:0,0:0:0:0:
289,359,52865,6,0,P|338:282|287:182,1,187.000005706787,4|0,3:1|1:0,0:0:0:0:
143,103,53315,2,0,L|234:82,1,93.5000028533936,0|0,3:0|0:0,0:0:0:0:
78,29,53615,1,0,3:0:0:0:
207,174,53765,2,0,L|197:267,1,93.5000028533936,0|2,1:0|3:0,0:0:0:0:
32,334,54065,5,2,3:2:0:0:
143,103,54215,1,2,0:0:0:0:
305,302,54365,1,2,1:2:0:0:
108,206,54515,2,0,P|90:118|69:23,1,187.000005706787,2|0,3:2|3:2,0:0:0:0:
291,103,54965,1,2,1:2:0:0:
142,294,55115,2,0,P|94:287|33:280,1,93.5000028533936,2|0,0:0|3:0,0:0:0:0:
260,370,55415,5,2,0:0:0:0:
108,206,55565,1,2,1:2:0:0:
13,382,55715,5,2,3:2:0:0:
237,251,55865,1,2,0:2:0:0:
0,164,56015,1,2,3:2:0:0:
140,378,56165,2,0,L|159:262,1,93.5000028533936,2|2,1:2|3:2,0:0:0:0:
110,50,56465,6,0,P|36:67|2:174,1,187.000005706787,2|0,3:2|1:0,0:0:0:0:
235,338,56915,2,0,B|332:283|325:361|427:310,1,187.000005706787,0|2,3:0|3:2,0:0:0:0:
467,83,57365,1,0,1:0:0:0:
256,202,57515,1,2,3:2:0:0:
502,313,57665,6,0,P|475:249|353:251,1,187.000005706787,6|2,3:2|1:2,0:0:0:0:
153,332,58115,2,0,B|115:271|115:271|158:128,1,187.000005706787,2|0,3:2|3:0,0:0:0:0:
333,53,58565,1,2,1:2:0:0:
224,259,58715,1,2,0:0:0:0:
12,163,58865,6,0,P|27:256|43:348,1,187.000005706787,6|2,3:2|1:2,0:0:0:0:
368,238,59315,2,0,P|319:175|199:208,1,187.000005706787,2|0,3:2|3:0,0:0:0:0:
135,302,59765,1,2,1:2:0:0:
430,165,59915,6,0,P|419:243|406:364,1,152.999995330811,2|0,0:0|0:0,0:0:0:0:
410,316,60215,1,2,0:0:0:0:
510,131,60365,1,2,1:2:0:0:
269,83,60515,2,0,L|291:191,1,101.999996887207,2|2,3:2|0:0,0:0:0:0:
489,31,60815,1,2,3:2:0:0:
325,278,60965,2,0,L|209:257,1,101.999996887207,0|2,1:0|1:2,0:0:0:0:
205,19,61265,6,0,B|222:68|222:68|201:136,1,101.999996887207,2|0,3:2|1:0,0:0:0:0:
182,189,61490,1,0,3:2:0:0:
182,189,61565,2,0,B|67:169,1,101.999996887207,2|2,3:2|1:2,0:0:0:0:
25,109,61790,1,0,3:2:0:0:
25,109,61865,1,0,3:2:0:0:
287,167,62015,5,0,1:2:0:0:
313,188,62090,1,0,3:0:0:0:
330,218,62165,1,2,1:2:0:0:
337,250,62240,1,0,3:0:0:0:
334,284,62315,1,2,3:2:0:0:
319,315,62390,1,0,3:0:0:0:
298,337,62465,6,0,L|449:307,1,140.25000428009,6|0,3:2|0:0,0:0:0:0:
508,269,62765,2,0,P|501:314|494:383,1,93.5000028533936,2|2,1:2|3:0,0:0:0:0:
342,118,63065,1,2,0:2:0:0:
342,117,63215,2,0,P|348:164|354:210,1,93.5000028533936,2|0,3:2|1:0,0:0:0:0:
512,126,63515,1,2,3:2:0:0:
266,51,63665,5,2,3:2:0:0:
416,280,63815,2,0,P|369:289|291:307,1,93.5000028533936,2|2,3:2|1:2,0:0:0:0:
27,243,64115,2,0,P|81:171|203:191,1,187.000005706787,2|0,3:2|3:2,0:0:0:0:
0,90,64565,1,2,1:2:0:0:
128,260,64715,6,0,L|115:353,1,93.5000028533936,2|4,0:0|3:2,0:0:0:0:
275,172,65015,1,2,0:2:0:0:
430,363,65165,1,2,1:2:0:0:
468,108,65315,5,2,3:2:0:0:
317,299,65465,1,2,0:2:0:0:
170,84,65615,5,2,3:2:0:0:
399,231,65765,1,2,1:2:0:0:
168,356,65915,6,0,B|153:311|153:311|175:234,1,93.5000028533936,2|0,3:2|3:0,0:0:0:0:
341,39,66215,2,0,B|356:84|356:84|334:161,1,93.5000028533936,2|0,0:0|1:0,0:0:0:0:
69,251,66515,2,0,P|96:199|238:205,1,187.000005706787,0|0,3:0|3:0,0:0:0:0:
353,357,66965,1,2,1:2:0:0:
165,266,67115,1,2,0:0:0:0:
315,104,67265,6,0,P|296:200|278:304,1,187.000005706787,6|2,3:2|1:2,0:0:0:0:
69,281,67715,2,0,P|59:235|49:190,1,93.5000028533936,2|0,3:2|0:0,0:0:0:0:
373,265,68015,2,0,P|362:310|352:356,1,93.5000028533936,2|0,3:2|1:0,0:0:0:0:
213,184,68315,1,2,0:0:0:0:
441,334,68465,5,4,1:2:0:0:
441,334,68915,1,6,1:2:0:0:
441,334,69365,2,0,B|381:289|381:289|272:312,1,152.999995330811,0|0,1:2|0:0,0:0:0:0:
223,234,69665,6,0,P|264:305|239:386,1,170,6|0,3:2|3:0,0:0:0:0:
17,325,70115,1,10,0:0:0:0:
17,325,70265,2,0,L|136:303,1,85,0|0,3:0|0:0,0:0:0:0:
281,156,70565,2,0,L|162:134,1,85,8|0,0:0|0:0,0:0:0:0:
5,77,70865,6,0,P|27:157|49:245,1,170,0|0,3:0|3:0,0:0:0:0:
281,156,71315,1,8,0:0:0:0:
203,359,71465,2,0,L|190:264,1,85,0|0,3:0|0:0,0:0:0:0:
428,270,71765,2,0,L|316:306,1,85,8|0,0:0|3:0,0:0:0:0:
216,88,72065,6,0,P|294:62|369:142,1,170,4|0,3:2|3:0,0:0:0:0:
123,338,72515,1,8,0:0:0:0:
123,338,72590,1,0,3:0:0:0:
123,338,72665,2,0,L|105:255,1,85,0|0,3:0|0:0,0:0:0:0:
280,155,72965,2,0,L|299:239,1,85,8|2,0:0|0:0,0:0:0:0:
37,115,73265,5,2,3:2:0:0:
210,217,73415,1,2,0:0:0:0:
34,316,73565,1,0,3:0:0:0:
181,47,73715,6,0,L|197:149,1,85,10|0,0:0|3:0,0:0:0:0:
390,98,74015,1,0,0:0:0:0:
295,275,74165,2,0,L|308:191,1,85,10|0,0:0|0:0,0:0:0:0:
512,355,74465,6,0,P|427:359|388:281,1,170,6|0,3:2|3:0,0:0:0:0:
474,53,74915,1,10,0:0:0:0:
474,53,75065,2,0,B|488:94|488:94|470:170,1,85,0|2,3:0|0:0,0:0:0:0:
307,338,75365,2,0,B|293:297|293:297|311:221,1,85,10|0,0:0|0:0,0:0:0:0:
397,110,75665,5,4,3:2:0:0:
220,297,75815,2,0,L|135:285,1,85,0|0,0:0|3:0,0:0:0:0:
156,74,76115,2,0,P|224:119|224:200,1,170,10|2,0:0|0:0,0:0:0:0:
32,345,76565,1,8,0:0:0:0:
144,164,76715,1,2,0:0:0:0:
205,365,76865,5,4,3:2:0:0:
232,380,76940,1,0,3:0:0:0:
264,384,77015,1,10,0:0:0:0:
294,376,77090,1,2,3:2:0:0:
320,360,77165,1,8,0:3:0:0:
346,343,77240,1,0,3:0:0:0:
377,336,77315,1,10,0:0:0:0:
408,340,77390,1,0,3:0:0:0:
436,357,77465,6,0,L|413:265,1,50.9999984436036,8|0,0:0|3:0,0:0:0:0:
512,152,77615,1,8,0:0:0:0:
512,152,77690,1,0,3:0:0:0:
512,152,77765,2,0,L|489:244,1,50.9999984436036,8|0,0:0|3:0,0:0:0:0:
291,149,77915,1,10,0:0:0:0:
291,149,77990,1,0,3:0:0:0:
291,149,78065,5,6,3:2:0:0:
512,298,78215,1,2,3:2:0:0:
512,298,78515,1,10,0:0:0:0:
282,361,78665,2,0,B|217:329|217:329|112:371,1,170,0|10,3:2|0:0,0:0:0:0:
126,366,79265,6,0,P|71:304|111:207,1,170,6|8,3:2|0:0,0:0:0:0:
180,168,79715,1,0,0:0:0:0:
268,277,79865,2,0,L|165:258,1,85,0|0,0:0|3:0,0:0:0:0:
4,141,80165,2,0,L|107:122,1,85,10|2,0:0|0:0,0:0:0:0:
344,39,80465,6,0,P|299:116|332:221,1,170,2|8,3:2|0:0,0:0:0:0:
512,380,80915,2,0,P|467:302|360:278,1,170,0|0,3:2|3:2,0:0:0:0:
193,307,81365,2,0,P|279:308|310:292,1,85,8|0,0:0|0:0,0:0:0:0:
28,219,81665,5,2,3:2:0:0:
82,383,81815,2,0,L|100:278,1,85,2|8,0:2|0:0,0:0:0:0:
190,98,82115,2,0,L|86:77,1,85,2|8,0:2|0:3,0:0:0:0:
240,235,82415,2,0,L|344:214,1,85,2|8,3:2|0:0,0:0:0:0:
301,26,82715,6,0,P|282:68|293:132,1,85,2|0,0:0|3:2,0:0:0:0:
408,283,83015,2,0,P|427:241|416:177,1,85,2|8,0:2|0:0,0:0:0:0:
129,175,83315,2,0,P|149:260|173:364,1,170,2|2,3:2|3:2,0:0:0:0:
353,156,83765,1,10,0:0:0:0:
441,366,83915,1,2,0:0:0:0:
441,366,83990,1,0,0:0:0:0:
441,366,84065,6,0,L|340:353,1,85,6|0,3:2|0:0,0:0:0:0:
431,122,84365,1,8,0:0:0:0:
259,231,84515,2,0,B|223:170|223:170|258:61,1,170,0|0,3:0|3:0,0:0:0:0:
491,191,84965,2,0,L|376:213,1,85,10|2,0:0|0:0,0:0:0:0:
137,381,85265,6,0,P|178:323|296:342,1,170,8|8,0:3|0:0,0:0:0:0:
97,260,85715,2,0,P|90:218|84:177,1,85,0|8,3:0|0:3,0:0:0:0:
246,82,86015,1,0,3:0:0:0:
246,82,86165,2,0,P|238:126|230:186,1,85,10|0,0:0|0:0,0:0:0:0:
98,80,86465,5,2,3:2:0:0:
285,235,86615,2,0,L|201:247,1,85,2|10,0:0|0:0,0:0:0:0:
0,142,86915,2,0,P|6:183|13:225,1,85,2|4,0:2|0:3,0:0:0:0:
87,384,87215,2,0,P|93:341|100:300,1,85,2|8,3:2|0:0,0:0:0:0:
187,163,87515,2,0,P|193:204|200:246,1,85,2|0,0:0|3:2,0:0:0:0:
287,317,87815,5,2,0:0:0:0:
287,317,87890,1,0,0:0:0:0:
287,317,87965,1,8,0:0:0:0:
406,186,88115,1,10,0:3:0:0:
459,354,88265,1,0,3:0:0:0:
383,275,88415,2,0,P|371:195|358:98,1,170,8|8,0:0|0:3,0:0:0:0:
413,41,88790,1,4,0:3:0:0:
413,41,88865,6,0,P|325:57|272:-1,1,170,6|8,3:2|0:0,0:0:0:0:
107,156,89315,2,0,P|166:100|246:119,1,170,0|0,3:0|3:0,0:0:0:0:
339,216,89765,2,0,L|422:200,1,85,10|2,0:0|0:0,0:0:0:0:
190,184,90065,6,0,B|164:248|164:248|203:363,1,170,0|8,3:0|0:0,0:0:0:0:
406,317,90515,2,0,P|356:250|247:266,1,170,0|0,3:0|3:0,0:0:0:0:
120,366,90965,1,10,0:0:0:0:
190,184,91115,1,2,0:0:0:0:
313,335,91265,5,2,3:2:0:0:
116,238,91415,2,0,P|109:198|99:141,1,85,2|8,0:2|0:0,0:0:0:0:
312,58,91715,2,0,P|304:99|297:141,1,85,2|0,3:2|0:0,0:0:0:0:
474,308,92015,1,2,3:2:0:0:
424,122,92165,1,8,0:0:0:0:
272,259,92315,6,0,L|355:245,1,85,2|0,0:0|3:0,0:0:0:0:
481,49,92615,2,0,L|397:35,1,85,2|8,0:0|0:0,0:0:0:0:
224,88,92915,1,2,3:2:0:0:
224,88,93215,1,2,3:2:0:0:
87,0,93365,1,10,0:0:0:0:
311,64,93515,1,2,0:0:0:0:
153,201,93665,6,0,B|118:119|118:119|156:39,1,170,6|8,3:2|0:0,0:0:0:0:
437,158,94115,2,0,B|340:120|367:183|252:147,1,170,0|0,3:2|3:2,0:0:0:0:
387,237,94565,2,0,L|377:334,1,85,10|0,0:0|0:0,0:0:0:0:
124,333,94865,6,0,P|145:275|263:264,1,170,10|8,0:3|0:0,0:0:0:0:
25,262,95315,2,0,B|0:194|0:194|43:80,1,170,0|2,3:0|3:2,0:0:0:0:
298,143,95765,1,10,0:0:0:0:
105,198,95915,1,2,0:0:0:0:
162,45,96065,6,0,L|189:139,1,85,2|0,3:2|0:0,0:0:0:0:
306,296,96365,1,8,0:0:0:0:
446,147,96515,1,0,3:2:0:0:
429,154,96590,1,0,3:2:0:0:
412,161,96665,1,10,0:2:0:0:
495,241,96815,1,8,0:3:0:0:
512,90,96965,1,4,0:3:0:0:
361,72,97115,5,0,3:0:0:0:
361,72,97190,1,0,3:0:0:0:
361,72,97265,1,14,0:0:0:0:
495,241,97415,1,2,0:0:0:0:
443,11,97565,1,2,3:2:0:0:
287,187,97715,2,0,L|411:164,1,93.5000028533936,14|2,0:2|0:2,0:0:0:0:
227,64,98015,1,2,3:2:0:0:
227,64,98090,1,0,3:0:0:0:
227,64,98165,2,0,L|87:39,1,140.25000428009,8|0,0:2|0:0,0:0:0:0:
9,0,98465,5,6,3:2:0:0:
9,0,98615,2,0,P|52:77|41:146,1,136,0|0,0:0|3:0,0:0:0:0:
69,208,99065,1,10,0:0:0:0:
69,208,99215,2,0,L|-5:196,1,68,0|2,3:0|0:0,0:0:0:0:
148,141,99515,6,0,L|215:151,1,68,2|0,3:2|3:2,0:0:0:0:
347,62,99815,2,0,L|304:114,1,68,10|0,0:2|3:2,0:0:0:0:
295,214,100115,1,2,3:2:0:0:
226,56,100265,1,10,0:2:0:0:
295,214,100415,2,0,L|320:278,1,68,2|0,3:2|0:2,0:0:0:0:
445,159,100715,6,0,P|405:164|362:172,1,68,10|0,0:2|3:2,0:0:0:0:
144,243,101015,2,0,P|183:248|227:256,1,68,2|0,3:2|0:0,0:0:0:0:
426,298,101315,2,0,P|419:333|412:373,1,68,2|8,3:2|0:2,0:0:0:0:
267,169,101615,2,0,P|273:134|281:94,1,68,2|0,3:2|3:2,0:0:0:0:
465,60,101915,1,10,0:2:0:0:
465,60,101990,1,0,3:0:0:0:
465,60,102065,5,0,3:2:0:0:
512,262,102215,2,0,P|461:212|378:220,1,136,10|2,0:0|3:2,0:0:0:0:
298,324,102665,1,10,0:0:0:0:
214,60,102965,1,10,0:0:0:0:
298,324,103265,6,0,L|162:298,1,136,6|0,3:2|0:0,0:0:0:0:
228,214,103715,1,2,3:2:0:0:
66,262,103865,6,0,L|84:348,1,68,10|2,0:0|3:0,0:0:0:0:
86,360,104090,2,0,L|6:347,1,68,2|0,0:0|0:0,0:0:0:0:
0,367,104315,1,2,3:2:0:0:
44,167,104465,1,0,3:2:0:0:
44,167,104615,2,0,P|110:174|152:241,1,136,10|0,0:2|3:2,0:0:0:0:
325,182,105065,5,10,0:2:0:0:
259,305,105215,2,0,L|243:228,1,68,2|0,3:2|0:2,0:0:0:0:
391,59,105515,2,0,L|407:136,1,68,2|2,0:2|3:2,0:0:0:0:
142,117,105815,2,0,B|200:86|200:86|268:101,1,136,2|0,3:2|3:2,0:0:0:0:
377,264,106265,5,10,0:2:0:0:
377,264,106415,2,0,B|446:280|446:280|504:249,1,136,2|2,3:2|0:0,0:0:0:0:
213,178,106865,5,14,0:2:0:0:
270,325,107015,2,0,L|277:246,1,68,2|2,3:2|0:0,0:0:0:0:
154,97,107315,1,10,0:0:0:0:
31,289,107465,6,0,B|86:276|86:276|123:284|123:284|186:269,1,148.75,6|0,3:2|0:0,0:0:0:0:
263,213,108065,2,0,L|276:127,2,56.6666666666667,10|0|8,0:0|3:0|0:3,0:0:0:0:
343,277,108365,2,0,L|352:334,2,56.6666666666667,4|8|4,0:3|0:3|0:3,0:0:0:0:
430,218,108665,2,0,P|464:138|423:30,1,198.333327280681,6|0,3:2|0:0,0:0:0:0:
429,36,109265,5,2,0:0:0:0:
366,92,109415,1,2,0:0:0:0:
285,86,109565,1,2,0:0:0:0:
240,12,109715,2,0,L|143:-2,2,85,2|8|4,0:0|0:3|0:3,0:0:0:0:
366,92,110165,6,0,B|341:143|341:143|370:248,1,127.5,10|0,0:0|0:0,0:0:0:0:
455,273,110465,6,0,B|344:226|377:302|244:250,1,187.000005706787,4|0,3:1|1:0,0:0:0:0:
187,85,110915,2,0,P|257:79|319:188,1,187.000005706787,0|0,3:0|3:0,0:0:0:0:
188,312,111365,2,0,B|174:268|174:268|194:188,1,93.5000028533936,0|2,1:0|0:0,0:0:0:0:
437,123,111665,5,2,3:2:0:0:
272,260,111815,1,2,0:0:0:0:
474,335,111965,1,2,1:2:0:0:
365,52,112115,2,0,P|380:143|396:242,1,187.000005706787,2|0,3:2|3:2,0:0:0:0:
126,181,112565,1,2,1:2:0:0:
236,362,112715,2,0,P|241:318|251:266,1,93.5000028533936,2|0,0:0|3:0,0:0:0:0:
58,354,113015,5,2,0:0:0:0:
222,180,113165,1,2,1:2:0:0:
26,75,113315,5,2,3:2:0:0:
158,275,113465,1,2,0:2:0:0:
282,89,113615,5,2,3:2:0:0:
49,173,113765,2,0,P|59:220|72:283,1,93.5000028533936,2|2,1:2|0:0,0:0:0:0:
308,332,114065,6,0,P|245:265|135:293,1,187.000005706787,6|0,3:2|1:0,0:0:0:0:
12,380,114515,2,0,L|113:358,1,93.5000028533936,0|0,3:0|0:0,0:0:0:0:
9,154,114815,1,2,3:2:0:0:
221,201,114965,2,0,L|120:179,1,93.5000028533936,0|2,1:0|3:2,0:0:0:0:
338,29,115265,6,0,P|417:52|437:156,1,187.000005706787,6|2,3:2|1:2,0:0:0:0:
227,374,115715,2,0,B|190:304|190:304|230:170,1,187.000005706787,2|0,3:2|3:0,0:0:0:0:
495,324,116165,2,0,P|448:316|402:309,1,93.5000028533936,2|2,1:2|0:0,0:0:0:0:
123,179,116465,6,0,P|183:109|299:142,1,187.000005706787,6|2,3:2|1:2,0:0:0:0:
55,249,116915,2,0,L|32:158,1,93.5000028533936,10|0,3:2|0:0,0:0:0:0:
119,10,117215,1,0,3:0:0:0:
220,200,117365,1,2,1:2:0:0:
388,66,117515,6,0,B|366:138|366:138|414:234,1,152.999995330811,2|0,0:0|0:0,0:0:0:0:
400,207,117815,1,2,0:0:0:0:
490,15,117965,1,2,1:2:0:0:
209,79,118115,1,2,3:2:0:0:
482,153,118265,1,2,0:2:0:0:
295,22,118415,2,0,P|301:72|309:139,1,101.999996887207,2|0,3:2|1:0,0:0:0:0:
256,291,118715,5,2,1:2:0:0:
482,153,118865,1,2,3:2:0:0:
163,54,119015,2,0,L|170:105,2,50.9999984436036,0|0|2,1:0|3:2|3:2,0:0:0:0:
369,189,119315,5,2,1:2:0:0:
369,189,119390,1,0,3:2:0:0:
369,189,119465,1,0,3:2:0:0:
200,301,119615,1,0,1:2:0:0:
200,301,119690,1,0,3:0:0:0:
200,301,119765,2,0,L|125:286,1,50.9999984436036,2|0,1:2|3:0,0:0:0:0:
244,146,119915,2,0,L|256:214,1,50.9999984436036,2|0,3:2|3:0,0:0:0:0:
72,355,120065,6,0,B|43:298|43:298|76:205,1,140.25000428009,6|0,3:2|0:0,0:0:0:0:
124,152,120365,2,0,L|12:138,1,93.5000028533936,2|0,1:2|3:0,0:0:0:0:
280,17,120665,1,2,0:2:0:0:
280,17,120815,2,0,L|187:28,1,93.5000028533936,2|0,3:2|1:0,0:0:0:0:
68,226,121115,5,2,0:0:0:0:
245,106,121265,1,2,3:2:0:0:
53,13,121415,1,2,0:0:0:0:
169,192,121565,1,2,1:2:0:0:
280,17,121715,2,0,P|287:110|296:203,1,187.000005706787,2|2,3:2|3:2,0:0:0:0:
474,72,122165,1,2,1:2:0:0:
426,290,122315,6,0,B|325:246|343:322|245:280,1,187.000005706787,2|2,0:2|0:2,0:0:0:0:
354,120,122765,1,2,1:2:0:0:
373,362,122915,5,2,3:2:0:0:
237,116,123065,1,2,0:2:0:0:
94,382,123215,5,2,3:2:0:0:
296,203,123365,1,2,1:2:0:0:
31,74,123515,6,0,B|19:119|19:119|45:198,1,93.5000028533936,2|0,3:2|3:2,0:0:0:0:
248,369,123815,2,0,B|260:324|260:324|234:245,1,93.5000028533936,2|0,0:0|1:2,0:0:0:0:
356,62,124115,2,0,P|230:62|187:125,1,187.000005706787,0|0,3:0|3:0,0:0:0:0:
158,325,124565,1,2,1:2:0:0:
295,147,124715,1,2,0:0:0:0:
428,315,124865,6,0,P|335:296|228:276,1,187.000005706787,6|2,3:2|1:2,0:0:0:0:
201,65,125315,2,0,B|218:110|218:110|203:172,1,93.5000028533936,2|0,3:2|0:0,0:0:0:0:
61,316,125615,2,0,B|44:271|44:271|59:209,1,93.5000028533936,2|0,3:2|1:0,0:0:0:0:
323,216,125915,1,2,0:0:0:0:
114,116,126065,5,4,1:2:0:0:
114,116,126515,1,6,1:2:0:0:
114,116,126965,2,0,B|171:77|171:77|275:100,1,140.25000428009,0|0,1:2|0:0,0:0:0:0:
285,19,127265,6,0,L|310:163,1,136,6|0,3:2|3:0,0:0:0:0:
101,49,127865,2,0,L|116:131,1,68,0|0,3:0|3:0,0:0:0:0:
129,196,128165,2,0,L|141:262,1,68,8|4,0:3|0:3,0:0:0:0:
118,355,128465,6,0,P|167:303|248:313,1,136,0|0,3:2|3:0,0:0:0:0:
407,384,129065,2,0,L|418:306,1,68,0|0,3:0|3:0,0:0:0:0:
336,193,129365,2,0,L|325:271,1,68,8|4,0:3|0:3,0:0:0:0:
415,126,129665,6,0,B|357:90|357:90|267:103,1,136,0|0,3:2|3:0,0:0:0:0:
68,41,130265,2,0,L|148:29,1,68,0|0,3:0|3:0,0:0:0:0:
149,116,130565,2,0,L|81:126,1,68,10|4,0:3|0:3,0:0:0:0:
63,216,130865,6,0,L|217:195,1,136,2|0,3:2|3:0,0:0:0:0:
449,288,131465,2,0,L|432:381,1,68,0|0,3:0|3:0,0:0:0:0:
357,231,131765,2,0,L|340:324,1,68,8|4,0:3|0:3,0:0:0:0:
449,188,132065,6,0,B|472:134|472:134|440:52,1,136,2|2,3:2|3:2,0:0:0:0:
197,18,132665,2,0,B|186:51|186:51|191:101,1,68,2|0,3:2|3:0,0:0:0:0:
239,225,132965,2,0,B|250:192|250:192|245:142,1,68,8|4,0:3|0:3,0:0:0:0:
150,173,133265,6,0,L|8:147,1,136,2|0,3:2|3:0,0:0:0:0:
124,348,133865,2,0,L|210:332,1,68,0|0,3:0|3:0,0:0:0:0:
269,319,134165,2,0,L|355:303,1,68,8|6,0:3|0:3,0:0:0:0:
414,345,134465,6,0,B|390:299|390:299|412:226,1,102,4|0,3:2|0:0,0:0:0:0:
439,176,134765,2,0,L|507:167,3,46.7500014266968,0|8|8|8,1:2|0:0|0:0|0:0,0:0:0:0:
385,103,135065,1,0,1:0:0:0:
360,78,135140,1,8,0:0:0:0:
328,66,135215,1,8,0:0:0:0:
293,70,135290,1,8,0:0:0:0:
263,87,135365,1,0,1:0:0:0:
233,105,135440,1,8,0:0:0:0:
198,109,135515,1,8,0:0:0:0:
166,97,135590,1,8,0:0:0:0:
141,72,135665,5,4,1:2:0:0:
225,327,135815,1,0,3:0:0:0:
141,72,136115,5,6,1:2:0:0:
225,327,136265,2,0,P|290:315|375:302,1,136,0|4,3:0|0:3,0:0:0:0:
478,46,136865,5,6,3:2:0:0:
280,167,137015,1,2,0:0:0:0:
439,205,137165,5,2,1:2:0:0:
318,7,137315,1,2,3:2:0:0:
181,227,137465,5,2,0:0:0:0:
379,106,137615,1,2,3:2:0:0:
340,265,137765,5,2,1:2:0:0:
219,67,137915,1,2,0:0:0:0:
439,205,138065,5,2,3:2:0:0:
264,329,138215,2,0,B|237:262|237:262|268:201,1,140.25000428009,2|0,0:0|0:0,0:0:0:0:
308,133,138515,1,2,3:2:0:0:
106,16,138665,2,0,P|121:89|141:191,1,140.25000428009,2|0,0:2|0:0,0:0:0:0:
149,230,138965,1,2,1:2:0:0:
368,51,139115,6,0,P|324:36|264:42,1,93.5000028533936,2|2,0:0|3:2,0:0:0:0:
66,203,139415,1,2,0:0:0:0:
66,203,139490,1,0,0:0:0:0:
66,203,139565,1,2,1:2:0:0:
310,308,139715,2,0,B|341:237|341:237|299:108,1,187.000005706787,2|2,3:2|3:2,0:0:0:0:
61,69,140165,1,2,1:2:0:0:
238,234,140315,1,2,0:0:0:0:
293,0,140465,5,2,3:2:0:0:
101,294,140615,2,0,P|54:286|8:280,1,93.5000028533936,2|0,0:2|1:2,0:0:0:0:
245,134,140915,2,0,P|322:179|327:269,1,187.000005706787,2|2,3:2|3:2,0:0:0:0:
46,375,141365,1,4,1:2:0:0:
97,74,141515,1,2,0:0:0:0:
238,234,141665,5,4,3:2:0:0:
353,54,141815,2,0,P|306:63|245:75,1,93.5000028533936,2|0,0:0|1:2,0:0:0:0:
73,220,142115,1,2,3:2:0:0:
321,358,142265,1,2,0:0:0:0:
321,358,142415,2,0,B|337:314|337:314|326:268,1,93.5000028533936,0|0,0:0|1:2,0:0:0:0:
96,73,142715,5,2,0:0:0:0:
96,73,142865,2,0,L|4:89,1,93.5000028533936,0|2,3:0|0:0,0:0:0:0:
401,315,143165,1,2,1:2:0:0:
401,315,143315,2,0,L|494:300,1,93.5000028533936,0|2,3:0|0:2,0:0:0:0:
181,32,143615,1,2,3:2:0:0:
181,32,143765,2,0,B|163:74|163:74|186:156,1,93.5000028533936,0|2,1:2|0:0,0:0:0:0:
508,105,144065,6,0,P|419:85|314:65,1,187.000005706787,6|2,3:2|1:2,0:0:0:0:
24,270,144515,2,0,P|112:250|218:230,1,187.000005706787,2|2,3:2|3:2,0:0:0:0:
426,270,144965,1,2,1:2:0:0:
243,1,145115,6,0,B|217:60|217:60|245:149,1,140.25000428009,0|0,1:2|0:0,0:0:0:0:
304,212,145415,1,0,3:0:0:0:
420,15,145565,1,0,1:2:0:0:
121,61,145715,1,2,0:0:0:0:
393,161,145865,5,0,3:0:0:0:
171,337,146015,1,2,3:2:0:0:
160,316,146090,1,0,3:0:0:0:
155,293,146165,1,0,3:0:0:0:
154,270,146240,1,8,0:3:0:0:
158,247,146315,1,8,0:3:0:0:
166,225,146390,1,4,0:3:0:0:
179,205,146465,6,0,B|128:179|88:193|106:216|53:228|-2:204,1,187.000005706787,6|2,3:2|1:2,0:0:0:0:
287,7,146915,2,0,P|302:104|320:221,1,187.000005706787,2|2,3:2|3:2,0:0:0:0:
126,379,147365,2,0,P|132:331|142:273,1,93.5000028533936,2|0,1:2|0:0,0:0:0:0:
354,87,147665,5,2,3:2:0:0:
392,351,147815,2,0,P|345:340|273:325,1,93.5000028533936,2|0,0:2|1:2,0:0:0:0:
42,279,148115,2,0,P|77:212|200:215,1,187.000005706787,2|0,3:2|3:2,0:0:0:0:
392,351,148565,1,2,1:2:0:0:
312,54,148715,1,2,0:0:0:0:
139,286,148865,5,2,3:2:0:0:
139,286,149015,2,0,L|237:276,1,93.5000028533936,2|0,0:2|1:2,0:0:0:0:
499,76,149315,2,0,L|401:66,1,93.5000028533936,2|0,3:2|0:0,0:0:0:0:
179,196,149615,1,0,3:2:0:0:
378,370,149765,2,0,B|404:316|404:316|369:225,1,140.25000428009,2|0,1:2|0:0,0:0:0:0:
345,164,150065,5,2,3:2:0:0:
492,370,150215,2,0,P|495:327|504:261,1,93.5000028533936,2|0,0:2|1:2,0:0:0:0:
251,127,150515,2,0,P|256:173|260:219,1,93.5000028533936,2|0,3:2|0:0,0:0:0:0:
443,97,150815,1,2,3:2:0:0:
296,307,150965,2,0,L|180:292,1,93.5000028533936,2|2,1:2|0:0,0:0:0:0:
0,125,151265,6,0,P|77:41|156:74,1,187.000005706787,6|0,3:2|1:2,0:0:0:0:
445,244,151715,2,0,P|352:231|226:216,1,187.000005706787,2|2,3:2|3:2,0:0:0:0:
48,269,152165,2,0,B|37:315|37:315|61:373,1,93.5000028533936,2|2,1:2|0:0,0:0:0:0:
296,307,152465,5,2,3:2:0:0:
92,130,152615,1,2,3:2:0:0:
132,310,152765,1,0,1:2:0:0:
256,127,152915,5,2,0:0:0:0:
256,127,152990,1,0,3:2:0:0:
256,127,153065,1,0,3:2:0:0:
1,60,153215,1,8,0:3:0:0:
244,0,153365,1,8,0:3:0:0:
112,218,153515,1,4,0:3:0:0:
355,158,153665,5,6,3:2:0:0:
355,158,154115,1,6,3:2:0:0:
355,158,154565,2,0,B|173:98|229:288|35:221,1,340,6|2,3:2|0:0,0:0:0:0:
398,75,163265,6,0,P|388:150|381:230,2,152.999995330811,2|2|0,1:2|1:2|1:2,0:0:0:0:
398,75,165665,6,0,B|340:86|340:86|261:48,1,114.749996498108,6|8,3:2|0:2,0:0:0:0:
220,27,165965,1,0,3:2:0:0:
281,191,166115,1,8,0:0:0:0:
108,161,166265,2,0,P|82:230|130:321,1,152.999995330811,0|8,3:2|0:0,0:0:0:0:
447,339,166865,6,0,B|397:309|397:309|315:322,1,114.749996498108,2|8,3:2|0:2,0:0:0:0:
267,362,167165,2,0,P|271:321|253:270,1,76.4999976654053,2|10,3:2|0:0,0:0:0:0:
108,161,167465,2,0,B|78:228|78:228|115:320,1,152.999995330811,2|10,3:2|0:2,0:0:0:0:
107,301,167915,1,2,0:2:0:0:
338,235,168065,6,0,P|253:194|218:205,1,114.749996498108,0|8,3:2|0:2,0:0:0:0:
237,196,168365,1,2,3:2:0:0:
362,100,168515,1,10,0:2:0:0:
212,45,168665,2,0,L|241:221,1,152.999995330811,2|10,3:2|0:2,0:0:0:0:
35,356,169265,6,0,B|11:310|11:310|34:233,1,114.749996498108,2|8,3:2|3:2,0:0:0:0:
77,180,169565,2,0,L|-15:169,1,76.4999976654053,0|8,3:2|0:0,0:0:0:0:
107,301,169865,2,0,L|266:282,1,152.999995330811,0|8,0:0|0:0,0:0:0:0:
441,39,170465,6,0,P|472:83|455:162,1,114.749996498108,4|8,3:2|0:0,0:0:0:0:
424,210,170765,1,2,3:2:0:0:
231,88,170915,1,10,0:2:0:0:
386,111,171065,2,0,L|293:98,1,76.4999976654053,2|0,3:2|0:0,0:0:0:0:
184,181,171365,2,0,L|277:168,1,76.4999976654053,10|2,0:0|0:0,0:0:0:0:
82,81,171665,6,0,L|105:202,1,114.749996498108,2|8,0:0|0:2,0:0:0:0:
103,193,171965,1,2,3:2:0:0:
231,88,172115,1,8,0:0:0:0:
358,195,172265,2,0,L|349:283,1,76.4999976654053,0|0,0:0|3:2,0:0:0:0:
448,121,172565,2,0,L|440:44,1,76.4999976654053,10|2,0:0|0:0,0:0:0:0:
506,303,172865,5,4,3:1:0:0:
506,303,173165,1,2,1:2:0:0:
362,88,173315,1,2,1:2:0:0:
215,321,173465,5,2,1:2:0:0:
469,209,173615,1,0,1:0:0:0:
228,126,173765,5,0,1:0:0:0:
341,336,173915,1,2,1:2:0:0:
441,103,174065,5,2,1:2:0:0:
441,103,174665,1,2,1:2:0:0:
405,71,174740,1,0,1:2:0:0:
359,61,174815,1,0,1:2:0:0:
314,74,174890,1,0,1:2:0:0:
282,109,174965,1,2,1:2:0:0:
249,143,175040,1,0,1:2:0:0:
204,157,175115,1,2,1:2:0:0:
158,146,175190,1,0,1:2:0:0:
124,115,175265,6,0,B|148:174|148:174|117:280,1,140.25000428009,4|0,3:1|0:0,0:0:0:0:
163,328,175565,2,0,P|116:322|70:316,1,93.5000028533936,2|0,1:2|3:0,0:0:0:0:
363,163,175865,1,2,0:2:0:0:
363,163,176015,2,0,P|316:168|270:174,1,93.5000028533936,2|0,3:2|1:0,0:0:0:0:
393,366,176315,5,2,0:0:0:0:
303,86,176465,1,2,3:2:0:0:
163,328,176615,1,2,0:0:0:0:
431,237,176765,1,2,1:2:0:0:
178,72,176915,2,0,P|196:162|213:258,1,187.000005706787,2|2,3:2|3:2,0:0:0:0:
390,64,177365,1,2,1:2:0:0:
470,327,177515,6,0,P|424:321|368:315,1,93.5000028533936,2|4,0:0|3:2,0:0:0:0:
178,72,177815,1,2,0:2:0:0:
430,242,177965,1,2,1:2:0:0:
171,335,178115,5,2,3:2:0:0:
308,84,178265,1,2,0:2:0:0:
470,327,178415,5,2,0:2:0:0:
170,203,178565,1,2,1:2:0:0:
393,29,178715,6,0,B|410:72|410:72|394:149,1,93.5000028533936,2|0,3:2|0:0,0:0:0:0:
231,333,179015,2,0,B|214:290|214:290|230:213,1,93.5000028533936,2|0,0:0|1:0,0:0:0:0:
492,283,179315,2,0,B|442:259|394:276|420:293|373:313|312:283,1,187.000005706787,0|0,3:0|3:0,0:0:0:0:
152,148,179765,1,2,1:2:0:0:
361,207,179915,1,2,0:0:0:0:
307,0,180065,6,0,P|253:57|276:192,1,187.000005706787,6|2,3:2|1:2,0:0:0:0:
452,225,180515,2,0,L|331:200,1,93.5000028533936,2|0,3:2|0:0,0:0:0:0:
172,292,180815,2,0,L|293:267,1,93.5000028533936,2|0,3:2|1:0,0:0:0:0:
423,137,181115,1,2,0:0:0:0:
151,45,181265,5,4,3:2:0:0:
151,45,181715,1,6,1:2:0:0:
151,45,182165,2,0,B|188:104|188:104|172:207,1,140.25000428009,0|0,1:2|0:0,0:0:0:0:
136,258,182465,6,0,P|178:190|290:193,1,187.000005706787,6|0,3:2|1:2,0:0:0:0:
379,348,182915,2,0,B|341:282|341:282|391:150,1,187.000005706787,0|0,3:2|3:2,0:0:0:0:
301,0,183365,2,0,P|309:49|321:121,1,93.5000028533936,0|0,1:2|0:0,0:0:0:0:
444,275,183665,5,0,3:2:0:0:
512,71,183815,2,0,L|418:86,1,93.5000028533936,0|0,0:0|1:2,0:0:0:0:
185,170,184115,2,0,L|279:185,1,93.5000028533936,0|0,3:2|0:0,0:0:0:0:
301,0,184415,1,2,3:2:0:0:
70,97,184565,2,0,P|81:157|102:269,1,140.25000428009,2|0,1:2|0:0,0:0:0:0:
143,307,184865,5,2,3:2:0:0:
338,104,185015,2,0,L|245:89,1,93.5000028533936,0|0,0:0|1:2,0:0:0:0:
45,279,185315,2,0,P|76:232|204:229,1,187.000005706787,0|2,3:2|3:2,0:0:0:0:
276,384,185765,1,2,1:2:0:0:
338,104,185915,1,2,0:0:0:0:
143,307,186065,6,0,B|212:316|212:316|254:293|254:293|329:302,1,187.000005706787,2|2,3:2|1:2,0:0:0:0:
461,193,186515,2,0,P|358:172|341:86,1,187.000005706787,2|2,3:2|3:2,0:0:0:0:
511,82,186965,1,0,1:2:0:0:
257,0,187115,1,0,0:0:0:0:
280,257,187265,5,6,3:2:0:0:
412,139,187415,2,0,P|364:129|293:117,1,93.5000028533936,0|2,0:0|1:2,0:0:0:0:
95,290,187715,2,0,P|142:280|290:255,1,187.000005706787,2|2,3:2|3:2,0:0:0:0:
167,57,188165,2,0,P|178:104|196:184,1,93.5000028533936,2|0,1:2|0:0,0:0:0:0:
419,107,188465,5,2,3:2:0:0:
292,322,188615,2,0,P|302:276|313:230,1,93.5000028533936,0|2,0:0|1:2,0:0:0:0:
512,330,188915,2,0,P|465:336|395:347,1,93.5000028533936,2|0,3:2|0:0,0:0:0:0:
326,130,189215,1,2,3:2:0:0:
195,293,189365,2,0,P|205:338|216:384,1,93.5000028533936,2|0,1:2|0:0,0:0:0:0:
410,202,189665,5,2,3:2:0:0:
247,15,189815,2,0,P|236:60|225:106,1,93.5000028533936,2|0,0:0|1:2,0:0:0:0:
12,115,190115,2,0,P|45:49|171:57,1,187.000005706787,2|2,3:2|3:2,0:0:0:0:
310,240,190565,1,2,1:2:0:0:
105,120,190715,1,2,0:0:0:0:
311,2,190865,5,2,3:2:0:0:
43,203,191015,2,0,P|89:210|135:217,1,93.5000028533936,0|0,0:0|1:2,0:0:0:0:
485,192,191315,2,0,P|454:123|337:126,1,187.000005706787,2|2,3:2|3:2,0:0:0:0:
109,324,191765,1,6,1:2:0:0:
356,252,191915,1,0,0:0:0:0:
143,93,192065,5,6,3:2:0:0:
271,287,192215,2,0,L|284:176,1,93.5000028533936,0|2,0:0|1:2,0:0:0:0:
47,20,192515,2,0,P|66:113|87:211,1,187.000005706787,6|0,3:2|3:2,0:0:0:0:
356,252,192965,1,6,1:2:0:0:
143,93,193115,1,0,0:0:0:0:
149,349,193265,5,4,3:2:0:0:
418,174,193415,2,0,P|367:164|291:151,1,93.5000028533936,0|2,0:0|1:2,0:0:0:0:
50,72,193715,2,0,P|76:25|214:32,1,187.000005706787,6|2,3:2|3:2,0:0:0:0:
225,240,194165,1,6,1:2:0:0:
225,240,194465,5,6,3:2:0:0:
143,93,194615,2,0,L|134:204,1,93.5000028533936,2|0,0:0|1:2,0:0:0:0:
308,384,194915,2,0,L|317:273,1,93.5000028533936,6|0,3:2|0:0,0:0:0:0:
445,97,195215,1,2,3:2:0:0:
225,240,195365,1,6,1:2:0:0:
459,360,195515,1,2,0:0:0:0:
371,24,195665,6,0,B|336:92|336:92|385:235,1,187.000005706787,6|0,3:2|1:2,0:0:0:0:
219,338,196115,2,0,P|103:323|90:240,1,187.000005706787,6|2,3:2|3:2,0:0:0:0:
310,143,196565,1,6,1:2:0:0:
73,53,196715,1,2,0:0:0:0:
172,267,196865,5,6,3:2:0:0:
372,63,197015,2,0,P|325:55|267:47,1,93.5000028533936,2|0,0:0|1:2,0:0:0:0:
84,269,197315,2,0,P|122:192|241:213,1,187.000005706787,6|2,3:2|3:2,0:0:0:0:
410,356,197765,2,0,L|424:256,1,93.5000028533936,6|0,1:2|0:0,0:0:0:0:
508,70,198065,5,6,3:2:0:0:
288,133,198215,2,0,L|300:225,1,93.5000028533936,2|0,0:0|0:0,0:0:0:0:
502,318,198515,1,2,3:2:0:0:
372,58,198665,1,0,0:0:0:0:
312,352,198815,1,2,0:0:0:0:
512,184,198965,2,0,B|460:169|460:169|428:182|428:182|367:166,1,140.25000428009,6|0,1:2|0:0,0:0:0:0:
303,148,199265,5,6,1:2:0:0:
157,298,199415,2,0,L|271:276,1,93.5000028533936
132,35,199715,2,0,P|54:61|52:175,1,187.000005706787,2|2,1:2|0:0,0:0:0:0:
267,366,200165,1,6,1:2:0:0:
118,123,200315,1,2,0:0:0:0:
27,384,200465,5,2,1:2:0:0:
256,192,200915,1,2,1:2:0:0:
485,0,201365,5,6,1:2:0:0:
