osu file format v14

[General]
AudioFilename: audio.mp3
AudioLeadIn: 0
PreviewTime: 51515
Countdown: 0
SampleSet: Soft
StackLeniency: 0.7
Mode: 0
LetterboxInBreaks: 0
WidescreenStoryboard: 0

[Editor]
DistanceSpacing: 0.9
BeatDivisor: 4
GridSize: 8
TimelineZoom: 1.5

[Metadata]
Title:the BEAST can't BE STOpped
TitleUnicode:the BEAST can't BE STOpped
Artist:Wakeshima Kanon
ArtistUnicode:分島花音
Creator:Gelidium
Version:Frail
Source:
Tags:mnyui fuju haruru japanese nexusqi reisevia cant rock female jrock j-rock luminescence q.e.d qed vocals roda totsuki roda_totsuki
BeatmapID:2585154
BeatmapSetID:1243487

[Difficulty]
HPDrainRate:6
CircleSize:4
OverallDifficulty:9.2
ApproachRate:9.3
SliderMultiplier:1.78
SliderTickRate:1

[Events]
//Background and Video events
0,0,"asdsa.jpg",0,0
//Break Periods
2,22015,25911
2,26815,28311
2,156265,162711
//Storyboard Layer 0 (Background)
//Storyboard Layer 1 (Fail)
//Storyboard Layer 2 (Pass)
//Storyboard Layer 3 (Foreground)
//Storyboard Layer 4 (Overlay)
//Storyboard Sound Samples

[TimingPoints]
2465,300,4,2,1,70,1,0
11540,-100,4,2,1,5,0,0
11615,-100,4,2,1,70,0,0
12065,-90.9090909090909,4,2,1,80,0,0
20915,-125,4,2,1,75,0,0
21365,-333.333333333333,4,2,1,40,0,0
21665,-125,4,2,1,50,0,0
31265,-111.111111111111,4,2,1,70,0,0
40415,-142.857142857143,4,2,1,60,0,0
40790,-142.857142857143,4,2,1,5,0,0
40865,-125,4,2,1,65,0,0
49265,-76.9230769230769,4,2,1,70,0,0
49340,-76.9230769230769,4,2,1,5,0,0
49415,-90.9090909090909,4,2,1,60,0,0
49640,-90.9090909090909,4,2,1,5,0,0
49715,-76.9230769230769,4,2,1,70,0,0
49790,-76.9230769230769,4,2,1,5,0,0
49865,-76.9230769230769,4,2,1,75,0,0
50765,-125,4,2,1,70,0,0
51665,-62.5,4,2,1,60,0,0
51740,-62.5,4,2,1,5,0,0
51815,-62.5,4,2,1,60,0,0
51890,-62.5,4,2,1,5,0,0
51965,-62.5,4,2,1,60,0,0
52040,-62.5,4,2,1,5,0,0
52115,-125,4,2,1,60,0,0
52490,-125,4,2,1,5,0,0
52565,-62.5,4,2,1,60,0,0
52640,-62.5,4,2,1,5,0,0
52715,-62.5,4,2,1,60,0,0
52790,-76.9230769230769,4,2,1,5,0,0
52865,-83.3333333333333,4,2,1,90,0,0
57440,-83.3333333333333,4,2,1,5,0,0
57515,-83.3333333333333,4,2,1,90,0,0
68465,-76.9230769230769,4,2,1,90,0,0
68690,-76.9230769230769,4,2,1,5,0,0
68765,-76.9230769230769,4,2,1,90,0,0
68840,-76.9230769230769,4,2,1,5,0,0
68915,-76.9230769230769,4,2,1,90,0,0
69140,-76.9230769230769,4,2,1,5,0,0
69215,-76.9230769230769,4,2,1,90,0,0
69290,-76.9230769230769,4,2,1,5,0,0
69365,-76.9230769230769,4,2,1,90,0,0
69590,-76.9230769230769,4,2,1,5,0,0
69665,-100,4,2,1,60,0,0
79190,-100,4,2,1,5,0,0
79265,-111.111111111111,4,2,1,70,0,0
82340,-111.111111111111,4,2,1,5,0,0
82415,-111.111111111111,4,2,1,70,0,0
91640,-111.111111111111,4,2,1,5,0,0
91715,-111.111111111111,4,2,1,70,0,0
98015,-142.857142857143,4,2,1,60,0,0
98390,-142.857142857143,4,2,1,5,0,0
98465,-125,4,2,1,65,0,0
103265,-83.3333333333333,4,2,1,65,0,0
103565,-125,4,2,1,65,0,0
109265,-62.5,4,2,1,60,0,0
109340,-62.5,4,2,1,5,0,0
109415,-62.5,4,2,1,60,0,0
109490,-62.5,4,2,1,5,0,0
109565,-62.5,4,2,1,60,0,0
109640,-62.5,4,2,1,5,0,0
109715,-142.857142857143,4,2,1,60,0,0
110090,-62.5,4,2,1,5,0,0
110165,-62.5,4,2,1,60,0,0
110240,-62.5,4,2,1,5,0,0
110315,-62.5,4,2,1,60,0,0
110390,-62.5,4,2,1,5,0,0
110465,-83.3333333333333,4,2,1,90,0,0
126065,-76.9230769230769,4,2,1,90,0,0
126290,-76.9230769230769,4,2,1,5,0,0
126365,-76.9230769230769,4,2,1,90,0,0
126440,-76.9230769230769,4,2,1,5,0,0
126515,-76.9230769230769,4,2,1,90,0,0
126740,-76.9230769230769,4,2,1,5,0,0
126815,-76.9230769230769,4,2,1,90,0,0
126890,-76.9230769230769,4,2,1,5,0,0
126965,-76.9230769230769,4,2,1,90,0,0
127190,-76.9230769230769,4,2,1,5,0,0
127265,-142.857142857143,4,2,1,60,0,0
136115,-100,4,2,1,75,0,0
136790,-100,4,2,1,5,0,0
136865,-83.3333333333333,4,2,1,90,0,0
153665,-71.4285714285714,4,2,1,90,0,0
153890,-71.4285714285714,4,2,1,5,0,0
153965,-71.4285714285714,4,2,1,90,0,0
154040,-71.4285714285714,4,2,1,5,0,0
154115,-71.4285714285714,4,2,1,90,0,0
154340,-71.4285714285714,4,2,1,5,0,0
154415,-71.4285714285714,4,2,1,90,0,0
154490,-71.4285714285714,4,2,1,5,0,0
154565,-71.4285714285714,4,2,1,90,0,0
164465,-62.5,4,2,1,60,0,0
164540,-62.5,4,2,1,5,0,0
164615,-62.5,4,2,1,60,0,0
164690,-62.5,4,2,1,5,0,0
164765,-62.5,4,2,1,60,0,0
164840,-62.5,4,2,1,5,0,0
164915,-125,4,2,1,60,0,0
165290,-62.5,4,2,1,5,0,0
165365,-62.5,4,2,1,60,0,0
165440,-62.5,4,2,1,5,0,0
165515,-62.5,4,2,1,60,0,0
165590,-62.5,4,2,1,5,0,0
165665,-100,4,2,1,70,0,0
174065,-500,4,2,1,70,0,0
174515,-500,4,2,1,5,0,0
174665,-500,4,2,1,70,0,0
175265,-83.3333333333333,4,2,1,90,0,0
181490,-83.3333333333333,4,2,1,5,0,0
181565,-83.3333333333333,4,2,1,90,0,0
181640,-83.3333333333333,4,2,1,5,0,0
181715,-76.9230769230769,4,2,1,90,0,0
181940,-83.3333333333333,4,2,1,5,0,0
182015,-83.3333333333333,4,2,1,90,0,0
182090,-83.3333333333333,4,2,1,5,0,0
182165,-83.3333333333333,4,2,1,90,0,0
182390,-83.3333333333333,4,2,1,5,0,0
182465,-83.3333333333333,4,2,1,90,0,0
184340,-83.3333333333333,4,2,1,5,0,0
184415,-83.3333333333333,4,2,1,85,0,0
196790,-83.3333333333333,4,2,1,5,0,0
196865,-83.3333333333333,4,2,1,85,0,0
200465,-71.4285714285714,4,2,1,80,0,0
201740,-71.4285714285714,4,2,1,5,0,0
201815,-142.857142857143,4,2,1,40,0,0
202190,-125,4,2,1,10,0,0

[Colours]
Combo1 : 15,15,255
Combo2 : 77,173,253
Combo3 : 87,115,136
Combo4 : 136,255,255

[HitObjects]
164,64,2465,6,0,P|156:107|149:151,1,89,6|2,3:2|0:0,0:0:0:0:
305,225,2765,1,2,3:2:0:0:
116,289,2915,2,0,P|186:294|220:399,1,178,6|2,1:2|3:2,0:0:0:0:
392,188,3365,1,6,1:2:0:0:
212,262,3515,1,2,0:0:0:0:
360,377,3665,6,0,P|366:333|372:289,1,89,6|2,1:2|0:0,0:0:0:0:
404,105,3965,1,2,3:2:0:0:
212,262,4115,2,0,P|202:173|191:85,1,178,6|2,1:2|3:2,0:0:0:0:
94,228,4565,1,6,1:2:0:0:
292,146,4715,1,2,0:0:0:0:
102,47,4865,6,0,P|98:91|93:135,1,89,2|2,1:2|0:0,0:0:0:0:
204,185,5165,1,2,3:2:0:0:
0,292,5315,2,0,B|61:278|105:265|105:265|134:289|127:329,1,178,6|2,1:2|3:2,0:0:0:0:
282,232,5765,1,6,1:2:0:0:
126,152,5915,1,2,0:0:0:0:
315,41,6065,6,0,P|322:98|328:150,1,89,6|2,1:2|0:0,0:0:0:0:
446,216,6365,1,2,3:2:0:0:
261,310,6515,2,0,P|266:265|271:221,1,89,6|0,1:2|0:0,0:0:0:0:
379,302,6815,1,2,3:2:0:0:
163,382,6965,2,0,P|157:337|152:293,1,89,4|0,1:2|0:0,0:0:0:0:
452,122,7265,6,0,P|408:116|364:109,1,89,6|2,1:2|0:0,0:0:0:0:
170,177,7565,1,2,3:2:0:0:
309,30,7715,2,0,P|324:118|339:206,1,178,6|2,1:2|3:2,0:0:0:0:
141,266,8165,1,6,1:2:0:0:
204,93,8315,1,2,0:0:0:0:
323,305,8465,6,0,P|269:294|215:284,1,89,6|2,1:2|0:0,0:0:0:0:
78,199,8765,1,2,3:2:0:0:
293,118,8915,2,0,P|344:189|435:180,1,178,6|2,1:2|3:2,0:0:0:0:
287,24,9365,1,2,1:2:0:0:
386,102,9515,1,2,0:0:0:0:
180,276,9665,6,0,P|173:231|166:188,1,89,6|2,1:2|0:0,0:0:0:0:
350,225,9965,1,2,3:2:0:0:
287,24,10115,2,0,P|272:111|259:199,1,178,6|2,1:2|3:2,0:0:0:0:
100,323,10565,1,6,1:2:0:0:
166,157,10715,1,2,0:0:0:0:
300,335,10865,6,0,P|348:324|392:314,1,89,6|2,1:2|0:0,0:0:0:0:
460,240,11165,1,2,3:2:0:0:
320,122,11315,2,0,P|283:163|307:250,1,133.5,6|0,1:2|0:0,0:0:0:0:
316,249,11615,1,2,3:2:0:0:
429,127,11765,2,0,P|409:78|392:29,1,89,0|0,1:2|0:0,0:0:0:0:
163,157,12065,6,0,P|251:186|319:122,1,195.800005975342,6|2,1:2|3:2,0:0:0:0:
83,83,12515,2,0,P|73:131|63:178,1,97.900002987671,6|0,1:2|0:0,0:0:0:0:
233,295,12815,1,2,3:2:0:0:
227,88,12965,1,6,1:2:0:0:
100,268,13115,1,2,0:0:0:0:
336,166,13265,6,0,P|325:118|316:70,1,97.900002987671,6|2,1:2|0:0,0:0:0:0:
159,179,13565,1,2,3:2:0:0:
340,275,13715,2,0,B|406:258|472:241|472:241|511:290,1,195.800005975342,6|2,1:2|3:2,0:0:0:0:
253,189,14165,1,6,1:2:0:0:
420,93,14315,1,2,0:0:0:0:
403,347,14465,6,0,P|339:375|249:295,1,195.800005975342,6|2,1:2|3:2,0:0:0:0:
80,384,14915,2,0,P|145:367|189:356,1,97.900002987671,6|0,1:2|0:0,0:0:0:0:
340,275,15215,1,2,3:2:0:0:
133,181,15365,2,0,P|150:246|161:290,1,97.900002987671,6|2,1:2|0:0,0:0:0:0:
443,203,15665,6,0,B|375:193|349:166|349:166|315:187|240:181,1,195.800005975342,6|2,1:2|3:2,0:0:0:0:
50,75,16115,2,0,P|106:62|145:53,1,97.900002987671,6|0,1:2|0:0,0:0:0:0:
365,78,16415,1,2,3:2:0:0:
133,182,16565,1,4,1:2:0:0:
237,0,16715,1,0,0:0:0:0:
267,250,16865,6,0,B|195:233|141:220|141:220|91:263,1,195.800005975342,6|2,1:2|3:2,0:0:0:0:
0,43,17315,2,0,P|44:94|173:74,1,195.800005975342,6|2,1:2|0:0,0:0:0:0:
324,168,17765,1,6,1:2:0:0:
153,259,17915,1,2,0:2:0:0:
383,322,18065,5,6,1:2:0:0:
218,161,18215,1,2,3:2:0:0:
240,369,18365,1,2,3:2:0:0:
419,220,18515,6,0,P|425:171|431:122,1,97.900002987671,6|0,1:2|3:0,0:0:0:0:
243,22,18815,1,2,0:2:0:0:
273,252,18965,1,6,1:2:0:0:
377,40,19115,1,2,0:2:0:0:
198,190,19265,5,2,3:2:0:0:
198,190,19340,1,0,3:2:0:0:
198,190,19415,2,0,L|184:125,1,48.9500014938355,2|0,1:2|3:2,0:0:0:0:
65,37,19565,1,2,1:2:0:0:
65,37,19640,1,0,3:2:0:0:
65,37,19715,2,0,L|51:102,1,48.9500014938355,2|0,1:2|3:2,0:0:0:0:
32,248,19865,5,8,0:3:0:0:
78,236,19940,1,0,3:0:0:0:
126,247,20015,1,2,1:2:0:0:
162,279,20090,1,0,3:0:0:0:
179,325,20165,2,0,L|165:381,1,48.9500014938355,2|0,1:2|3:0,0:0:0:0:
345,290,20315,2,0,L|332:242,1,48.9500014938355,2|0,1:2|3:0,0:0:0:0:
161,117,20465,1,2,1:2:0:0:
409,44,20615,6,0,P|396:91|384:138,1,97.900002987671,10|0,0:3|0:0,0:0:0:0:
107,43,20915,2,0,P|219:43|251:128,1,213.6,6|2,1:2|0:0,0:0:0:0:
68,312,21665,5,6,3:2:0:0:
68,312,21815,1,0,3:2:0:0:
176,329,26465,5,2,3:2:0:0:
176,329,26615,1,0,3:2:0:0:
342,75,28865,5,2,3:2:0:0:
342,75,29015,1,2,3:2:0:0:
448,362,30065,5,2,3:2:0:0:
239,219,30365,1,0,1:2:0:0:
405,217,30665,1,0,1:2:0:0:
405,217,30815,1,2,3:2:0:0:
210,335,31265,6,0,B|169:318|121:326|144:358|88:370|39:346,1,160.199995111084,6|8,3:2|0:2,0:0:0:0:
66,185,31715,2,0,P|75:224|84:264,1,80.0999975555421,0|0,3:2|0:0,0:0:0:0:
242,141,32015,2,0,P|233:180|224:219,1,80.0999975555421,0|2,3:2|0:2,0:0:0:0:
101,92,32315,1,10,0:0:0:0:
301,24,32465,6,0,P|374:39|400:123,1,160.199995111084,4|8,3:2|0:0,0:0:0:0:
230,284,32915,2,0,P|311:276|389:268,1,160.199995111084,0|0,3:0|3:0,0:0:0:0:
312,109,33365,2,0,P|302:147|293:186,1,80.0999975555421,2|8,0:0|0:0,0:0:0:0:
127,245,33665,1,2,3:2:0:0:
175,54,33815,6,0,P|184:92|193:131,1,80.0999975555421,2|8,0:2|0:2,0:0:0:0:
36,186,34115,2,0,P|45:147|54:108,1,80.0999975555421,2|0,0:0|0:0,0:0:0:0:
217,214,34415,1,2,3:2:0:0:
466,22,34715,6,0,P|456:60|447:99,1,80.0999975555421,10|0,0:2|3:2,0:0:0:0:
343,168,35015,2,0,P|352:206|361:245,1,80.0999975555421,2|8,0:2|0:2,0:0:0:0:
502,355,35315,2,0,P|454:319|362:354,1,160.199995111084,2|2,0:2|3:2,0:0:0:0:
182,263,35765,1,2,0:2:0:0:
343,168,35915,1,10,0:2:0:0:
238,341,36065,6,0,P|228:261|216:179,1,160.199995111084,2|8,3:2|0:2,0:0:0:0:
353,88,36515,1,0,3:0:0:0:
353,88,36590,1,0,3:0:0:0:
353,88,36665,2,0,P|348:127|343:167,1,80.0999975555421,0|0,3:0|3:2,0:0:0:0:
163,94,36965,2,0,P|202:89|242:84,1,80.0999975555421,2|8,0:2|0:0,0:0:0:0:
484,277,37265,6,0,B|431:271|383:258|383:258|358:277|365:319,1,160.199995111084,2|8,3:2|0:0,0:0:0:0:
158,241,37715,2,0,P|171:302|178:349,1,80.0999975555421,0|0,3:0|3:0,0:0:0:0:
318,203,38015,1,2,3:2:0:0:
165,164,38165,1,2,0:0:0:0:
262,288,38315,1,8,0:0:0:0:
334,77,38465,6,0,P|408:61|456:121,1,160.199995111084,2|8,3:2|0:0,0:0:0:0:
255,134,38915,1,0,3:0:0:0:
255,134,38990,1,0,3:0:0:0:
255,134,39065,2,0,P|245:88|235:42,1,80.0999975555421,2|0,3:2|3:0,0:0:0:0:
407,200,39365,2,0,P|397:242|387:297,1,80.0999975555421,8|0,0:0|0:0,0:0:0:0:
96,317,39665,5,2,3:2:0:0:
298,254,39815,1,2,0:2:0:0:
235,52,39965,1,2,3:2:0:0:
33,115,40115,1,10,0:2:0:0:
166,185,40415,6,0,P|221:141|302:154,1,155.749995246887,2|0,3:2|0:0,0:0:0:0:
413,104,40865,6,0,P|402:160|386:271,1,142.4,6|0,3:2|0:0,0:0:0:0:
512,226,41315,1,0,3:0:0:0:
413,103,41465,2,0,P|399:173|389:244,1,142.4,8|0,0:0|0:0,0:0:0:0:
240,288,41915,1,2,3:2:0:0:
370,363,42065,1,2,3:2:0:0:
240,194,42215,6,0,P|189:202|148:301,1,142.4,10|2,0:2|3:2,0:0:0:0:
45,370,42665,2,0,P|39:334|33:299,1,71.2,10|2,0:2|3:2,0:0:0:0:
76,155,42965,1,2,0:2:0:0:
144,274,43115,1,10,0:2:0:0:
228,89,43265,6,0,B|282:77|328:69|328:69|362:112,1,142.4,2|2,3:2|0:2,0:0:0:0:
405,248,43715,1,0,3:2:0:0:
291,164,43865,1,10,0:2:0:0:
280,327,44015,2,0,P|314:319|349:312,1,71.2,0|2,3:2|3:2,0:0:0:0:
384,154,44315,1,10,0:2:0:0:
199,252,44465,6,0,P|146:259|82:181,1,142.4,2|0,3:2|3:0,0:0:0:0:
174,67,44915,1,2,3:2:0:0:
252,177,45065,1,10,0:0:0:0:
97,119,45215,1,0,3:0:0:0:
262,12,45365,2,0,P|269:46|276:81,1,71.2,10|0,0:0|3:0,0:0:0:0:
430,290,45665,6,0,P|495:270|511:204,1,142.4,6|0,3:2|3:0,0:0:0:0:
417,120,46115,1,2,3:2:0:0:
430,290,46265,2,0,P|495:270|511:204,1,142.4,10|2,0:0|0:0,0:0:0:0:
322,130,46715,1,2,3:2:0:0:
322,130,46790,1,0,3:2:0:0:
322,130,46865,1,0,3:2:0:0:
270,327,47015,6,0,P|203:316|129:304,1,142.4,10|2,0:2|3:2,0:0:0:0:
229,160,47465,2,0,P|223:195|217:230,2,71.2,10|2|2,0:2|3:2|0:2,0:0:0:0:
101,105,47915,1,2,3:2:0:0:
0,221,48065,6,0,P|70:209|140:198,1,142.4,2|2,3:2|0:2,0:0:0:0:
193,74,48515,1,2,3:2:0:0:
337,215,48665,1,8,0:2:0:0:
225,239,48815,1,2,0:2:0:0:
308,54,48965,2,0,P|343:48|378:42,1,71.2,2|0,0:2|0:0,0:0:0:0:
512,224,49265,6,0,L|501:292,1,57.8499973518373,14|0,0:2|0:0,0:0:0:0:
424,356,49415,6,0,P|379:314|275:348,1,146.850004481506,2|0,3:2|0:0,0:0:0:0:
251,363,49715,6,0,L|230:277,1,57.8499973518373,10|0,0:0|0:0,0:0:0:0:
80,234,49865,6,0,B|-12:80|119:-107|217:80|119:144,1,347.099984111024,6|0,3:2|0:0,0:0:0:0:
277,176,50465,5,10,0:0:0:0:
337,187,50565,5,0,3:0:0:0:
388,152,50665,5,8,0:3:0:0:
401,108,50765,6,0,L|386:53,2,47.4666666666667,4|8|4,0:3|0:3|0:3,0:0:0:0:
488,297,51065,6,0,B|450:300|411:285|411:285|368:313|368:313|328:293|276:303,1,213.6,6|0,3:2|0:0,0:0:0:0:
66,353,51665,6,0,P|51:313|66:266,1,71.2,2|0,0:0|0:0,0:0:0:0:
171,210,51815,6,0,P|176:245|181:280,1,71.2,2|0,0:0|0:0,0:0:0:0:
18,200,51965,6,0,B|56:188|56:188|87:197,1,71.2,2|0,0:0|0:0,0:0:0:0:
274,273,52115,6,0,P|338:274|386:175,1,178,2|0,0:0|0:0,0:0:0:0:
286,120,52565,6,0,L|301:189,1,71.2,10|0,0:0|0:0,0:0:0:0:
468,278,52715,6,0,L|483:208,1,71.2,2|0,0:0|0:0,0:0:0:0:
334,38,52865,6,0,P|233:35|187:125,1,213.599993481446,4|0,3:1|1:0,0:0:0:0:
354,334,53315,2,0,P|373:229|394:124,1,213.599993481446,0|0,3:0|3:0,0:0:0:0:
167,241,53765,2,0,P|219:230|271:220,1,106.799996740723,0|2,1:0|3:0,0:0:0:0:
418,35,54065,1,2,3:2:0:0:
447,233,54215,1,2,0:0:0:0:
285,106,54365,1,2,1:2:0:0:
252,349,54515,6,0,B|333:334|403:320|403:320|443:378,1,213.599993481446,2|0,3:2|3:2,0:0:0:0:
250,243,54965,1,2,1:2:0:0:
429,168,55115,2,0,P|419:220|409:273,1,106.799996740723,2|0,0:0|3:0,0:0:0:0:
207,158,55415,1,2,0:0:0:0:
334,42,55565,2,0,P|343:94|353:147,1,106.799996740723,2|2,1:2|3:2,0:0:0:0:
154,241,55865,5,2,0:2:0:0:
327,316,56015,1,2,3:2:0:0:
429,168,56165,1,2,1:2:0:0:
341,329,56315,1,2,3:2:0:0:
223,66,56465,6,0,P|153:39|66:139,1,213.599993481446,2|0,3:2|1:0,0:0:0:0:
312,167,56915,2,0,P|323:114|335:62,1,106.799996740723,0|0,3:0|0:0,0:0:0:0:
158,128,57215,2,0,P|175:206|192:287,1,160.199995111084,2|0,3:2|0:0,0:0:0:0:
190,311,57515,1,2,3:2:0:0:
480,283,57665,6,0,B|410:274|352:258|352:258|309:279|325:343,1,213.599993481446,6|2,3:2|1:2,0:0:0:0:
66,141,58115,2,0,P|130:218|227:191,1,213.599993481446,2|0,3:2|3:0,0:0:0:0:
335,42,58565,1,2,1:2:0:0:
158,128,58715,1,2,0:0:0:0:
359,249,58865,6,0,P|365:196|372:143,1,106.799996740723,6|0,3:2|0:0,0:0:0:0:
227,45,59165,1,2,1:2:0:0:
446,0,59315,2,0,P|454:52|460:105,1,106.799996740723,2|0,3:2|0:0,0:0:0:0:
268,181,59615,1,0,3:0:0:0:
470,256,59765,1,2,1:2:0:0:
349,86,59915,1,2,0:0:0:0:
241,326,60065,5,4,1:0:0:0:
92,90,60215,1,2,0:0:0:0:
408,172,60365,1,2,1:2:0:0:
98,298,60515,1,2,3:2:0:0:
412,373,60665,6,0,B|424:295|436:228|436:228|384:185,1,213.599993481446,2|0,0:0|1:0,0:0:0:0:
206,86,61115,1,2,1:2:0:0:
308,264,61265,1,2,3:2:0:0:
390,76,61415,1,0,1:0:0:0:
390,76,61490,1,0,3:2:0:0:
390,76,61565,1,2,3:2:0:0:
231,194,61715,1,2,1:2:0:0:
231,194,61790,1,0,3:2:0:0:
231,194,61865,5,0,3:2:0:0:
148,53,62015,1,0,1:2:0:0:
113,44,62090,1,0,3:0:0:0:
78,50,62165,1,2,1:2:0:0:
48,68,62240,1,0,3:0:0:0:
28,97,62315,1,2,3:2:0:0:
21,132,62390,1,0,3:0:0:0:
29,166,62465,6,0,B|79:144|147:157|118:196|189:212|231:193,1,213.599993481446,6|2,3:2|1:2,0:0:0:0:
334,63,62915,1,2,3:0:0:0:
168,0,63065,2,0,P|182:51|195:103,1,106.799996740723,2|2,0:2|3:2,0:0:0:0:
388,181,63365,2,0,P|401:129|415:77,1,106.799996740723,0|2,1:0|3:2,0:0:0:0:
174,220,63665,1,2,3:2:0:0:
417,299,63815,1,2,3:2:0:0:
256,99,63965,1,2,1:2:0:0:
223,362,64115,6,0,P|155:284|54:312,1,213.599993481446,2|0,3:2|3:2,0:0:0:0:
269,186,64565,1,2,1:2:0:0:
85,104,64715,1,2,0:0:0:0:
279,15,64865,2,0,P|337:23|407:32,1,106.799996740723,4|2,3:2|0:2,0:0:0:0:
476,236,65165,5,2,1:2:0:0:
335,102,65315,1,2,3:2:0:0:
301,285,65465,1,2,0:2:0:0:
468,109,65615,1,2,3:2:0:0:
486,359,65765,1,2,1:2:0:0:
335,102,65915,6,0,P|284:49|167:131,1,213.599993481446,2|2,3:2|0:0,0:0:0:0:
41,259,66365,2,0,P|29:212|9:156,1,106.799996740723,0|0,1:0|3:0,0:0:0:0:
276,215,66665,1,0,0:0:0:0:
106,59,66815,1,0,3:0:0:0:
175,282,66965,1,2,1:2:0:0:
300,54,67115,1,2,3:2:0:0:
293,45,67190,1,0,3:0:0:0:
286,36,67265,6,0,B|369:25|446:13|446:13|481:61,1,213.599993481446,6|2,3:2|1:2,0:0:0:0:
377,236,67715,2,0,P|324:224|272:212,1,106.799996740723,2|0,3:2|0:0,0:0:0:0:
107,155,68015,2,0,P|118:207|130:259,1,106.799996740723,2|0,3:2|1:0,0:0:0:0:
286,120,68315,1,2,0:0:0:0:
130,59,68465,6,0,P|47:70|11:145,1,173.549992055512,4|0,1:2|0:0,0:0:0:0:
0,177,68765,2,0,L|19:240,1,57.8499973518373,2|0,0:0|0:0,0:0:0:0:
228,359,68915,6,0,B|280:335|315:354|315:354|332:323|402:317,1,173.549992055512,6|0,1:2|0:0,0:0:0:0:
439,334,69215,2,0,L|450:268,1,57.8499973518373,2|0,0:2|0:0,0:0:0:0:
468,14,69365,6,0,B|434:0|375:21|409:42|352:66|307:49,1,173.549992055512,0|0,1:2|0:0,0:0:0:0:
262,24,69665,6,0,P|275:111|291:199,1,178,6|0,3:2|3:0,0:0:0:0:
90,291,70115,2,0,P|100:228|210:197,1,178,10|0,0:0|0:0,0:0:0:0:
304,315,70565,2,0,P|256:305|203:296,1,89,8|0,0:0|0:0,0:0:0:0:
53,150,70865,6,0,P|140:136|228:120,1,178,0|0,3:0|3:0,0:0:0:0:
452,48,71315,2,0,P|367:71|347:152,1,178,8|0,0:0|0:0,0:0:0:0:
475,299,71765,2,0,P|411:287|347:275,1,89,8|0,0:0|3:0,0:0:0:0:
255,166,72065,1,4,3:2:0:0:
274,364,72215,2,0,P|283:319|298:264,1,89,0|0,0:0|3:0,0:0:0:0:
164,157,72515,6,0,B|129:139|67:151|98:179|51:197|-7:177,1,178,8|0,0:0|0:0,0:0:0:0:
110,331,72965,2,0,P|121:287|130:244,1,89,8|2,0:0|0:0,0:0:0:0:
255,166,73265,1,2,3:2:0:0:
58,63,73415,2,0,P|65:106|73:150,1,89,2|0,0:0|3:0,0:0:0:0:
318,86,73715,6,0,P|235:62|168:115,1,178,10|0,0:0|0:0,0:0:0:0:
410,163,74165,2,0,P|416:118|422:74,1,89,10|0,0:0|0:0,0:0:0:0:
176,293,74465,6,0,B|245:277|291:267|291:267|314:295|355:309,1,178,6|0,3:2|3:0,0:0:0:0:
177,118,74915,2,0,P|164:177|154:223,1,89,10|0,0:0|3:0,0:0:0:0:
284,106,75215,1,2,0:0:0:0:
69,36,75365,2,0,L|81:124,1,89,10|0,0:0|0:0,0:0:0:0:
287,320,75665,6,0,P|386:306|426:228,1,178,4|0,3:2|3:0,0:0:0:0:
284,106,76115,2,0,P|295:148|306:192,1,89,10|0,0:0|3:0,0:0:0:0:
323,217,76340,1,2,0:0:0:0:
323,217,76415,1,2,0:0:0:0:
143,362,76565,2,0,P|153:318|165:275,1,89,8|2,0:0|0:0,0:0:0:0:
50,99,76865,5,4,3:2:0:0:
50,99,76940,1,0,3:0:0:0:
50,99,77015,2,0,L|62:163,1,44.5,10|2,0:0|3:2,0:0:0:0:
194,192,77165,2,0,L|202:148,1,44.5,8|0,0:3|3:0,0:0:0:0:
300,30,77315,1,10,0:0:0:0:
341,16,77390,1,0,3:0:0:0:
385,24,77465,1,8,0:0:0:0:
419,52,77540,1,0,3:0:0:0:
435,93,77615,2,0,L|424:156,1,44.5,8|0,0:0|3:0,0:0:0:0:
309,222,77765,1,8,0:0:0:0:
309,222,77840,1,0,3:0:0:0:
309,222,77915,2,0,L|320:284,1,44.5,10|0,0:0|3:0,0:0:0:0:
505,309,78065,5,6,3:2:0:0:
341,109,78215,1,2,3:2:0:0:
265,352,78515,5,10,0:0:0:0:
433,215,78665,1,0,3:2:0:0:
151,46,78965,6,0,P|83:55|74:137,1,133.5,10|0,0:0|0:0,0:0:0:0:
115,173,79265,6,0,B|181:161|226:151|226:151|256:187,1,160.199995111084,6|8,3:2|0:0,0:0:0:0:
355,309,79715,2,0,P|433:293|512:279,1,160.199995111084,0|0,0:0|3:0,0:0:0:0:
420,124,80165,2,0,P|411:163|404:202,1,80.0999975555421,10|2,0:0|0:0,0:0:0:0:
251,346,80465,6,0,B|205:332|189:302|189:302|156:323|110:322,1,160.199995111084,2|8,3:2|0:0,0:0:0:0:
7,192,80915,2,0,P|59:140|135:166,1,160.199995111084,0|0,3:2|3:2,0:0:0:0:
256,59,81365,2,0,P|250:98|245:138,1,80.0999975555421,8|0,0:0|0:0,0:0:0:0:
426,117,81665,5,2,3:2:0:0:
359,259,81815,2,0,P|353:219|348:179,1,80.0999975555421,2|8,0:2|0:0,0:0:0:0:
207,226,82115,2,0,P|148:218|88:210,1,120.149996333313,2|0,0:2|0:0,0:0:0:0:
57,218,82415,2,0,P|51:178|46:138,1,80.0999975555421,2|8,3:2|0:0,0:0:0:0:
109,31,82715,1,2,0:0:0:0:
274,138,82865,6,0,P|353:127|432:117,1,160.199995111084,0|8,3:2|0:0,0:0:0:0:
214,0,83315,2,0,P|208:39|203:79,1,80.0999975555421,2|8,3:2|0:3,0:0:0:0:
162,274,83615,1,2,3:2:0:0:
361,170,83765,1,10,0:0:0:0:
125,127,83915,1,2,0:0:0:0:
312,336,84065,6,0,P|320:296|328:257,1,80.0999975555421,6|0,3:2|0:0,0:0:0:0:
226,94,84365,1,8,0:0:0:0:
425,246,84515,2,0,P|408:167|391:89,1,160.199995111084,0|0,3:0|3:0,0:0:0:0:
238,0,84965,1,10,0:0:0:0:
238,0,85115,1,2,0:0:0:0:
222,192,85265,6,0,P|260:182|300:174,1,80.0999975555421,8|0,0:3|0:0,0:0:0:0:
152,41,85565,1,8,0:0:0:0:
133,250,85715,2,0,P|96:206|-7:213,1,160.199995111084,0|0,3:0|3:0,0:0:0:0:
116,359,86165,2,0,P|154:348|193:339,1,80.0999975555421,10|0,0:0|0:0,0:0:0:0:
368,286,86465,6,0,P|331:243|233:274,1,160.199995111084,2|10,3:2|0:0,0:0:0:0:
437,348,86915,2,0,P|446:309|456:270,1,80.0999975555421,2|4,0:2|0:3,0:0:0:0:
297,141,87215,2,0,P|307:179|316:218,1,80.0999975555421,2|8,3:2|0:0,0:0:0:0:
432,109,87515,1,2,0:0:0:0:
231,17,87665,6,0,P|220:55|211:94,1,80.0999975555421,0|2,3:2|0:0,0:0:0:0:
39,187,87965,1,8,0:0:0:0:
177,249,88115,2,0,P|167:210|157:171,1,80.0999975555421,10|0,0:3|3:0,0:0:0:0:
331,116,88415,2,0,P|321:155|311:194,1,80.0999975555421,8|0,0:0|3:0,0:0:0:0:
444,277,88715,1,8,0:3:0:0:
439,272,88790,1,4,0:3:0:0:
434,267,88865,6,0,B|393:250|349:256|368:290|316:305|263:278,1,160.199995111084,6|8,3:2|0:0,0:0:0:0:
190,158,89315,2,0,B|283:137|283:137|315:165|310:204,1,160.199995111084,0|0,3:0|3:0,0:0:0:0:
436,137,89765,1,10,0:0:0:0:
290,52,89915,1,2,0:0:0:0:
161,252,90065,6,0,P|100:204|102:126,1,160.199995111084,0|8,3:0|0:0,0:0:0:0:
290,52,90515,1,0,3:0:0:0:
290,52,90665,2,0,P|283:94|275:137,1,80.0999975555421,8|0,0:3|3:0,0:0:0:0:
389,286,90965,1,10,0:0:0:0:
253,216,91115,1,2,0:0:0:0:
409,149,91265,1,2,3:2:0:0:
280,331,91415,6,0,P|225:321|139:311,1,120.149996333313,2|0,0:2|0:0,0:0:0:0:
131,324,91715,2,0,P|122:279|115:245,1,80.0999975555421,2|0,3:2|0:0,0:0:0:0:
180,155,92015,1,2,3:2:0:0:
40,92,92165,1,8,0:0:0:0:
146,0,92315,6,0,P|138:39|130:78,1,80.0999975555421,2|0,0:0|3:0,0:0:0:0:
283,175,92615,2,0,P|274:135|264:97,1,80.0999975555421,2|8,0:0|0:0,0:0:0:0:
80,282,92915,2,0,P|146:227|219:251,1,160.199995111084,2|2,3:2|3:2,0:0:0:0:
380,150,93365,1,10,0:0:0:0:
190,65,93515,1,2,0:0:0:0:
346,291,93665,6,0,P|355:211|367:132,1,160.199995111084,6|8,3:2|0:0,0:0:0:0:
445,251,94115,1,0,3:2:0:0:
249,153,94265,2,0,P|255:197|261:241,1,80.0999975555421,0|0,3:2|3:2,0:0:0:0:
143,328,94565,2,0,P|148:288|153:248,1,80.0999975555421,10|0,0:0|0:0,0:0:0:0:
406,351,94865,6,0,P|319:336|248:323,2,160.199995111084,10|8|0,0:3|0:0|0:0,0:0:0:0:
472,171,95615,1,2,3:2:0:0:
317,243,95765,1,10,0:0:0:0:
480,300,95915,1,2,0:0:0:0:
347,102,96065,6,0,P|279:109|238:213,1,160.199995111084,2|8,3:2|0:0,0:0:0:0:
141,328,96515,1,0,3:2:0:0:
141,328,96590,1,0,3:2:0:0:
141,328,96665,2,0,P|131:282|121:236,1,80.0999975555421,10|8,0:2|0:3,0:0:0:0:
60,31,96965,2,0,P|50:73|40:128,1,80.0999975555421,4|0,0:3|3:0,0:0:0:0:
43,128,97190,1,0,3:0:0:0:
43,128,97265,5,14,0:0:0:0:
228,154,97415,1,2,0:0:0:0:
202,339,97565,1,2,3:2:0:0:
17,313,97715,1,14,0:2:0:0:
122,233,98015,6,0,B|223:211|171:278|292:253,1,155.749995246887,2|0,3:2|0:0,0:0:0:0:
348,348,98465,6,0,P|357:274|366:206,1,142.4,6|0,3:2|0:0,0:0:0:0:
478,294,98915,1,0,3:0:0:0:
348,348,99065,2,0,P|357:274|366:206,1,142.4,10|2,0:0|0:0,0:0:0:0:
289,68,99515,1,2,3:2:0:0:
422,137,99665,1,0,3:2:0:0:
265,180,99815,6,0,P|225:194|140:137,1,142.4,10|2,0:2|3:2,0:0:0:0:
0,0,100265,2,0,P|6:35|11:70,1,71.2,10|2,0:2|3:2,0:0:0:0:
122,157,100565,1,0,0:2:0:0:
52,247,100715,1,10,0:2:0:0:
216,336,100865,5,0,3:2:0:0:
216,336,101015,2,0,P|251:330|286:323,1,71.2,2|0,3:2|0:0,0:0:0:0:
429,305,101315,1,2,3:2:0:0:
278,235,101465,1,8,0:2:0:0:
400,143,101615,2,0,P|406:178|412:213,1,71.2,2|0,3:2|3:2,0:0:0:0:
260,146,101915,1,10,0:2:0:0:
399,41,102065,6,0,P|467:63|497:143,1,142.4,0|0,3:2|3:0,0:0:0:0:
278,235,102515,1,2,3:2:0:0:
400,143,102665,1,10,0:0:0:0:
417,287,102815,1,0,3:0:0:0:
296,129,102965,2,0,L|194:117,1,71.2,10|0,0:0|0:0,0:0:0:0:
104,324,103265,6,0,B|49:342|49:342|-7:279|39:198,1,213.599993481446,6|0,3:2|0:0,0:0:0:0:
128,87,103715,1,2,3:2:0:0:
195,246,103865,2,0,P|247:236|300:228,1,106.8,10|2,0:0|0:0,0:0:0:0:
328,220,104165,1,0,3:0:0:0:
434,316,104315,2,0,P|442:281|449:246,1,71.2,2|0,3:2|3:2,0:0:0:0:
451,72,104615,6,0,B|372:83|409:118|306:132,1,142.4,10|0,0:2|3:2,0:0:0:0:
166,69,105065,1,10,0:2:0:0:
166,69,105215,2,0,P|174:103|182:138,1,71.2,2|0,3:2|0:2,0:0:0:0:
72,203,105515,1,2,0:2:0:0:
265,281,105665,5,2,3:2:0:0:
121,361,105815,2,0,P|112:298|108:269,1,71.2,2|0,3:2|3:2,0:0:0:0:
224,197,106115,1,0,3:2:0:0:
38,107,106265,1,10,0:2:0:0:
161,5,106415,2,0,P|166:41|172:76,1,71.2,2|0,3:2|0:2,0:0:0:0:
131,159,106715,1,2,0:0:0:0:
398,11,106865,6,0,P|385:83|373:151,1,142.4,14|2,0:2|0:0,0:0:0:0:
214,240,107315,1,10,0:0:0:0:
389,313,107465,1,6,3:2:0:0:
186,142,108065,5,10,0:0:0:0:
142,178,108165,5,0,3:0:0:0:
89,171,108265,5,8,0:3:0:0:
56,136,108365,6,0,L|46:83,2,47.4666666666667,4|8|4,0:3|0:3|0:3,0:0:0:0:
35,275,108665,5,6,3:2:0:0:
35,275,109265,6,0,P|69:267|104:260,1,71.2,2|0,0:0|0:0,0:0:0:0:
226,345,109415,6,0,P|176:358|137:340,1,71.2,2|0,0:0|0:0,0:0:0:0:
254,182,109565,6,0,B|276:220|276:220|264:272,1,71.2,2|0,0:0|0:0,0:0:0:0:
39,146,109715,6,0,P|94:177|185:131,1,155.749995246887,2|0,0:0|0:0,0:0:0:0:
92,14,110165,6,0,P|98:49|105:83,1,71.2,10|0,0:0|0:0,0:0:0:0:
254,182,110315,6,0,P|259:146|267:112,1,71.2,2|0,0:0|0:0,0:0:0:0:
450,0,110465,6,0,P|464:105|478:211,1,213.599993481446,4|0,3:1|1:0,0:0:0:0:
200,100,110915,2,0,P|235:86|357:192,1,213.599993481446,0|0,3:0|3:0,0:0:0:0:
171,355,111365,2,0,P|155:275|145:233,1,106.799996740723,0|2,1:0|0:0,0:0:0:0:
42,106,111665,1,2,3:2:0:0:
254,193,111815,1,2,0:0:0:0:
46,287,111965,1,2,1:2:0:0:
213,68,112115,6,0,B|294:53|359:41|359:41|374:73|416:86,1,213.599993481446,2|0,3:2|3:2,0:0:0:0:
306,174,112565,1,2,1:2:0:0:
505,53,112715,2,0,P|495:105|485:158,1,106.799996740723,2|0,0:0|3:0,0:0:0:0:
287,266,113015,1,2,0:0:0:0:
468,338,113165,2,0,P|458:285|448:232,1,106.799996740723,2|2,1:2|3:2,0:0:0:0:
217,200,113465,5,2,0:2:0:0:
410,82,113615,1,2,3:2:0:0:
373,317,113765,1,2,1:2:0:0:
249,101,113915,1,2,0:0:0:0:
177,369,114065,6,0,P|290:348|400:330,1,213.599993481446,6|0,3:2|1:0,0:0:0:0:
193,151,114515,2,0,P|205:203|215:256,1,106.799996740723,0|0,3:0|0:0,0:0:0:0:
386,186,114815,2,0,P|395:133|407:81,1,106.799996740723,2|0,3:2|1:0,0:0:0:0:
312,252,115115,1,2,3:2:0:0:
157,49,115265,6,0,P|95:46|40:180,1,213.599993481446,6|2,3:2|1:2,0:0:0:0:
213,355,115715,2,0,P|319:343|443:330,1,213.599993481446,2|0,3:2|3:0,0:0:0:0:
472,119,116165,1,2,1:2:0:0:
312,252,116315,1,2,0:0:0:0:
236,42,116465,6,0,P|289:51|342:58,1,106.799996740723,6|0,3:2|0:0,0:0:0:0:
102,173,116765,1,2,1:2:0:0:
312,252,116915,2,0,P|230:238|139:340,1,213.599993481446,2|0,0:0|3:0,0:0:0:0:
378,165,117365,1,2,1:2:0:0:
146,94,117515,1,2,0:0:0:0:
344,340,117665,5,4,0:1:0:0:
232,56,117815,1,2,0:0:0:0:
152,367,117965,1,2,1:2:0:0:
322,85,118115,1,2,3:2:0:0:
442,348,118265,6,0,B|354:329|299:318|299:318|247:361,1,213.599993481446,2|0,0:2|1:0,0:0:0:0:
129,186,118715,1,2,1:2:0:0:
292,283,118865,1,2,3:2:0:0:
114,351,119015,2,0,L|105:298,2,53.3999983703614,0|0|2,1:0|3:2|3:2,0:0:0:0:
243,192,119315,1,2,1:2:0:0:
243,192,119390,1,0,3:2:0:0:
243,192,119465,5,0,3:2:0:0:
32,177,119615,1,0,1:2:0:0:
32,177,119690,1,0,3:0:0:0:
32,177,119765,2,0,L|54:253,1,53.3999983703614,2|0,1:2|3:0,0:0:0:0:
188,105,119915,2,0,L|202:53,1,53.3999983703614,2|0,3:2|3:0,0:0:0:0:
330,269,120065,6,0,B|406:255|462:234|462:234|502:265|492:319,1,213.599993481446,6|2,3:2|1:2,0:0:0:0:
293,140,120515,1,0,3:0:0:0:
483,89,120665,2,0,P|475:141|468:194,1,106.799996740723,2|2,0:2|3:2,0:0:0:0:
283,130,120965,2,0,P|275:77|268:24,1,106.799996740723,0|2,1:0|0:0,0:0:0:0:
46,146,121265,1,2,3:2:0:0:
241,226,121415,1,2,0:0:0:0:
156,72,121565,1,2,1:2:0:0:
58,309,121715,6,0,P|82:352|245:321,1,213.599993481446,2|2,3:2|3:2,0:0:0:0:
221,103,122165,1,2,1:2:0:0:
370,232,122315,1,2,0:2:0:0:
153,291,122465,2,0,P|165:239|178:187,1,106.799996740723,4|2,3:2|0:2,0:0:0:0:
373,107,122765,5,2,1:2:0:0:
289,317,122915,1,2,3:2:0:0:
221,103,123065,1,2,0:2:0:0:
459,254,123215,1,2,3:2:0:0:
153,291,123365,1,2,1:2:0:0:
341,20,123515,6,0,P|355:125|369:231,1,213.599993481446,2|2,3:2|0:0,0:0:0:0:
121,139,123965,2,0,P|127:85|134:33,1,106.799996740723,0|0,1:2|3:0,0:0:0:0:
272,171,124265,1,0,0:0:0:0:
92,254,124415,1,0,3:0:0:0:
282,338,124565,1,2,1:2:0:0:
24,134,124715,1,2,3:2:0:0:
24,134,124790,1,0,3:2:0:0:
24,134,124865,6,0,P|41:239|57:344,1,213.599993481446,6|2,3:2|1:2,0:0:0:0:
272,171,125315,2,0,P|219:162|166:154,1,106.799996740723,2|0,3:2|0:0,0:0:0:0:
282,338,125615,2,0,P|334:329|387:321,1,106.799996740723,2|0,3:2|1:0,0:0:0:0:
209,254,125915,1,2,0:0:0:0:
387,88,126065,6,0,P|452:117|434:240,1,173.549992055512,4|0,1:2|0:0,0:0:0:0:
429,244,126365,2,0,L|351:227,1,57.8499973518373,2|0,0:0|0:0,0:0:0:0:
229,52,126515,6,0,B|124:62|191:120|79:130,1,173.549992055512,6|0,1:2|0:0,0:0:0:0:
35,136,126815,2,0,L|62:213,1,57.8499973518373,2|0,0:2|0:0,0:0:0:0:
204,361,126965,6,0,B|255:354|255:354|283:331|283:331|320:349|320:349|375:343,1,173.549992055512,0|0,1:2|0:0,0:0:0:0:
410,335,127265,6,0,P|415:273|424:212,1,124.59999619751,6|0,3:2|3:0,0:0:0:0:
309,130,127865,2,0,P|315:161|321:190,1,62.2999980987549,0|0,3:0|3:0,0:0:0:0:
217,144,128165,2,0,P|223:175|229:204,1,62.2999980987549,8|4,0:3|0:3,0:0:0:0:
21,85,128465,6,0,P|102:92|132:142,1,124.59999619751,0|0,3:2|3:0,0:0:0:0:
222,285,129065,2,0,P|253:278|282:272,1,62.2999980987549,0|0,3:0|3:0,0:0:0:0:
242,372,129365,2,0,P|273:365|302:359,1,62.2999980987549,8|4,0:3|0:3,0:0:0:0:
429,59,129665,6,0,P|421:122|414:182,1,124.59999619751,0|0,3:2|3:0,0:0:0:0:
341,49,130115,2,0,P|333:110|325:172,1,124.59999619751,0|0,0:0|3:0,0:0:0:0:
199,257,130565,2,0,P|195:226|191:195,1,62.2999980987549,10|4,0:3|0:3,0:0:0:0:
113,38,130865,6,0,P|51:62|36:132,1,124.59999619751,2|0,3:2|3:0,0:0:0:0:
182,121,131315,2,0,P|196:60|210:0,2,124.59999619751,0|0|4,0:3|3:0|0:3,0:3:0:0:
371,91,132065,6,0,P|383:152|393:213,1,124.59999619751,2|2,3:2|3:2,0:0:0:0:
167,360,132665,2,0,P|177:298|189:237,1,124.59999619751,2|8,3:2|0:3,0:0:0:0:
156,136,133115,1,4,0:3:0:0:
291,278,133265,2,0,P|281:217|269:156,1,124.59999619751,2|0,3:2|3:0,0:0:0:0:
379,21,133715,2,0,P|435:36|448:122,1,124.59999619751,2|0,0:0|3:0,0:0:0:0:
422,201,134165,1,8,0:3:0:0:
315,110,134315,1,6,0:3:0:0:
271,298,134465,5,4,3:2:0:0:
340,196,134615,1,0,0:0:0:0:
363,352,134765,1,0,1:2:0:0:
208,230,134915,1,8,0:0:0:0:
208,230,134990,1,8,0:0:0:0:
208,230,135065,2,0,L|223:174,1,31.1499990493775,0|0,1:0|0:0,0:0:0:0:
289,33,135215,1,8,0:0:0:0:
325,30,135290,1,8,0:0:0:0:
360,38,135365,1,0,1:0:0:0:
387,62,135440,1,8,0:0:0:0:
411,89,135515,1,8,0:0:0:0:
443,105,135590,1,8,0:0:0:0:
479,109,135665,5,4,1:2:0:0:
198,76,135815,1,0,3:0:0:0:
198,76,136115,6,0,B|210:155|210:155|224:252,1,178,6|2,1:2|0:0,0:0:0:0:
397,369,136565,2,0,B|388:357|388:357|416:236,1,133.5,12|0,0:3|0:0,0:0:0:0:
460,142,136865,6,0,B|404:124|404:124|357:157,1,106.799996740723,6|2,3:2|0:0,0:0:0:0:
209,63,137165,1,2,1:2:0:0:
195,268,137315,2,0,B|239:258|239:258|264:263|264:263|306:256,1,106.799996740723,2|2,3:2|0:0,0:0:0:0:
318,79,137615,1,2,3:2:0:0:
143,186,137765,1,2,1:2:0:0:
249,348,137915,1,2,0:0:0:0:
422,248,138065,1,2,3:2:0:0:
152,350,138215,6,0,B|100:332|100:332|43:345|43:345|-10:335|-10:335|38:314,1,213.599993481446,2|2,0:0|3:2,0:0:0:0:
216,114,138665,2,0,B|240:166|240:166|218:219,1,106.799996740723,2|0,0:2|3:2,0:0:0:0:
77,108,138965,1,2,1:2:0:0:
249,306,139115,2,0,B|323:288|323:288|380:328|380:328|452:338,1,213.599993481446,2|0,0:0|0:0,0:0:0:0:
490,323,139490,1,2,0:0:0:0:
490,323,139565,1,2,1:2:0:0:
363,105,139715,6,0,B|334:148|334:148|357:197,1,106.799996740723,2|0,3:2|0:0,0:0:0:0:
163,132,140015,1,2,3:2:0:0:
284,28,140165,1,2,1:2:0:0:
373,195,140315,1,2,0:0:0:0:
189,276,140465,1,2,3:2:0:0:
58,53,140615,6,0,B|88:84|88:84|72:178,1,106.799996740723,2|0,0:2|1:2,0:0:0:0:
254,346,140915,2,0,B|272:266|272:266|250:213|250:213|271:112,1,213.599993481446,2|2,3:2|3:2,0:0:0:0:
464,157,141365,1,4,1:2:0:0:
412,311,141515,1,2,0:0:0:0:
314,64,141665,6,0,B|264:49|264:49|216:73,1,106.799996740723,4|2,3:2|0:0,0:0:0:0:
127,213,141965,1,0,1:2:0:0:
362,182,142115,1,2,3:2:0:0:
246,364,142265,2,0,B|187:317|187:317|118:350|118:350|18:346,1,213.599993481446,2|0,0:0|1:2,0:0:0:0:
40,107,142715,2,0,B|128:92|128:92|181:120|181:120|273:79,1,213.599993481446,2|2,0:0|0:0,0:0:0:0:
449,48,143165,6,0,B|435:88|435:88|447:108|447:108|434:164,1,106.799996740723,2|0,1:2|3:0,0:0:0:0:
267,198,143465,1,2,0:2:0:0:
286,358,143615,1,2,3:2:0:0:
89,335,143765,2,0,B|61:282|61:282|84:240,1,106.799996740723,0|2,1:2|0:0,0:0:0:0:
176,84,144065,6,0,B|261:116|261:116|273:159|273:159|342:196,1,213.599993481446,6|2,3:2|1:2,0:0:0:0:
161,285,144515,2,0,B|127:241|127:241|155:181,1,106.799996740723,2|0,3:2|0:0,0:0:0:0:
343,90,144815,1,2,3:2:0:0:
302,278,144965,1,2,1:2:0:0:
111,35,145115,6,0,B|3:2|3:2|64:104,1,213.599993481446,0|0,1:2|3:0,0:0:0:0:
216,203,145565,1,0,1:2:0:0:
35,267,145715,2,0,B|11:217|11:217|45:161,1,106.799996740723,2|0,0:0|3:0,0:0:0:0:
281,33,146015,1,2,3:2:0:0:
283,59,146090,1,0,3:0:0:0:
286,85,146165,1,0,3:0:0:0:
289,111,146240,1,8,0:3:0:0:
292,137,146315,1,8,0:3:0:0:
295,163,146390,1,4,0:3:0:0:
298,189,146465,6,0,B|375:170|375:170|459:195|459:195|407:130,1,213.599993481446,6|2,3:2|1:2,0:0:0:0:
319,317,146915,2,0,B|273:290|273:290|217:305,1,106.799996740723,2|0,3:2|0:0,0:0:0:0:
129,157,147215,1,2,3:2:0:0:
62,377,147365,2,0,B|111:366|111:366|129:374|129:374|164:365,1,106.799996740723,2|0,1:2|0:0,0:0:0:0:
262,215,147665,5,2,3:2:0:0:
46,187,147815,2,0,B|14:237|14:237|34:285,1,106.799996740723,2|0,0:2|1:2,0:0:0:0:
328,140,148115,2,0,B|246:118|246:118|209:146|209:146|128:156,1,213.599993481446,2|0,3:2|3:2,0:0:0:0:
12,46,148565,2,0,B|55:10|55:10|121:26,1,106.799996740723,2|2,1:2|0:0,0:0:0:0:
242,78,148865,5,2,3:2:0:0:
106,213,149015,2,0,B|76:169|76:169|92:103,1,106.799996740723,2|0,0:2|1:2,0:0:0:0:
330,15,149315,2,0,B|363:66|363:66|341:130|341:130|340:227,1,213.599993481446,2|0,3:2|3:2,0:0:0:0:
135,358,149765,2,0,B|182:349|182:349|202:333|202:333|237:326,1,106.799996740723,2|0,1:2|0:0,0:0:0:0:
481,181,150065,6,0,B|498:213|498:213|414:193|414:193|321:227,1,213.599993481446,2|0,3:2|1:2,0:0:0:0:
149,128,150515,2,0,B|127:180|127:180|153:237,1,106.799996740723,2|0,3:2|0:0,0:0:0:0:
314,324,150815,1,2,3:2:0:0:
376,146,150965,1,2,1:2:0:0:
232,47,151115,1,2,0:0:0:0:
109,320,151265,6,0,B|206:283|206:283|303:333,1,213.599993481446,6|0,3:2|1:2,0:0:0:0:
507,174,151715,2,0,B|431:154|431:154|410:104|410:104|315:73,1,213.599993481446,2|2,3:2|3:2,0:0:0:0:
83,130,152165,2,0,B|57:178|57:178|92:231,1,106.799996740723,2|2,1:2|0:0,0:0:0:0:
307,172,152465,1,2,3:2:0:0:
206,31,152615,1,2,3:2:0:0:
400,109,152765,1,0,1:2:0:0:
175,179,152915,5,2,0:2:0:0:
175,179,152990,1,0,3:2:0:0:
175,179,153065,1,0,3:2:0:0:
333,41,153215,1,8,0:3:0:0:
413,206,153365,1,8,0:3:0:0:
243,238,153515,1,4,0:3:0:0:
70,56,153665,6,0,B|31:105|31:105|63:157|63:157|71:275,1,186.899994296265,6|0,3:2|0:0,0:0:0:0:
58,250,153965,2,0,L|120:233,1,62.2999980987549,2|0,3:2|0:0,0:0:0:0:
346,335,154115,6,0,B|355:257|355:257|336:213|336:213|350:118,1,186.899994296265,6|0,3:2|0:0,0:0:0:0:
385,132,154415,2,0,L|376:55,1,62.2999980987549,2|0,0:2|0:0,0:0:0:0:
140,318,154565,5,6,3:2:0:0:
256,192,154640,12,2,156065,0:0:0:0:
512,384,163265,5,2,1:2:0:0:
256,0,163715,1,2,1:2:0:0:
0,384,164165,1,0,1:2:0:0:
451,144,164465,6,0,L|361:155,1,71.2,2|0,0:0|0:0,0:0:0:0:
284,257,164615,6,0,P|327:256|356:226,1,71.2,2|0,0:0|0:0,0:0:0:0:
278,74,164765,6,0,B|261:113|261:113|284:158,1,71.2,2|0,0:0|0:0,0:0:0:0:
191,261,164915,6,0,P|128:204|47:229,1,178,2|0,0:0|0:0,0:0:0:0:
93,367,165365,6,0,P|101:332|106:297,1,71.2,2|0,0:0|0:0,0:0:0:0:
32,159,165515,6,0,P|40:194|47:228,1,71.2,2|0,0:0|0:0,0:0:0:0:
234,146,165665,6,0,P|243:102|251:58,1,89,6|0,3:2|0:0,0:0:0:0:
262,24,165890,1,8,0:2:0:0:
262,24,165965,2,0,P|305:32|349:41,1,89,0|8,3:2|0:0,0:0:0:0:
415,182,166265,2,0,P|371:190|327:199,1,89,0|0,3:2|0:0,0:0:0:0:
170,290,166565,2,0,P|213:298|257:307,1,89,8|0,0:0|0:0,0:0:0:0:
66,59,166865,6,0,P|71:103|77:147,1,89,2|2,3:2|0:2,0:0:0:0:
96,177,167090,1,8,0:2:0:0:
96,177,167165,1,2,3:2:0:0:
170,290,167315,2,0,P|236:234|333:265,1,178,10|0,0:0|0:0,0:0:0:0:
416,328,167765,1,10,0:2:0:0:
416,328,167915,2,0,P|424:276|429:240,1,89,2|0,0:2|3:2,0:0:0:0:
415,123,168215,5,2,0:2:0:0:
415,123,168290,1,8,0:2:0:0:
415,123,168365,1,2,3:2:0:0:
306,91,168515,1,10,0:2:0:0:
239,167,168665,1,2,3:2:0:0:
385,16,168815,5,2,0:2:0:0:
196,76,168965,1,10,0:2:0:0:
342,193,169115,1,2,0:0:0:0:
117,237,169265,6,0,P|109:195|100:149,1,89,2|0,3:2|0:0,0:0:0:0:
75,124,169490,1,8,3:2:0:0:
75,124,169565,2,0,P|83:80|91:36,1,89,0|8,3:2|0:0,0:0:0:0:
432,342,170015,6,0,P|387:336|343:329,1,89,2|8,0:0|0:0,0:0:0:0:
117,237,170315,2,0,P|167:172|264:208,1,178,2|0,0:0|0:0,0:0:0:0:
271,218,170690,1,8,0:0:0:0:
271,218,170765,1,2,3:2:0:0:
485,130,170915,6,0,B|413:113|368:103|368:103|324:141,1,178,10|0,0:2|0:0,0:0:0:0:
194,53,171365,1,10,0:0:0:0:
93,168,171515,2,0,L|131:345,1,178,2|0,0:0|0:0,0:0:0:0:
159,362,171890,1,8,0:2:0:0:
159,362,171965,1,2,3:2:0:0:
322,271,172115,6,0,P|338:189|357:96,1,178,8|0,0:0|3:2,0:0:0:0:
185,68,172565,1,10,0:0:0:0:
306,172,172715,1,2,0:0:0:0:
62,260,172865,2,0,P|71:216|81:173,1,89,4|2,3:1|0:0,0:0:0:0:
345,87,173165,5,2,1:2:0:0:
174,207,173315,1,2,1:2:0:0:
416,274,173465,1,2,1:2:0:0:
164,197,173615,1,0,1:0:0:0:
465,74,173765,1,0,1:0:0:0:
296,360,173915,1,2,1:2:0:0:
206,14,174065,6,0,P|202:37|197:70,1,53.4,2|0,1:2|0:0,0:0:0:0:
422,309,174665,5,2,1:2:0:0:
390,290,174740,1,0,1:2:0:0:
355,280,174815,1,0,1:2:0:0:
321,290,174890,1,0,1:2:0:0:
294,314,174965,1,2,1:2:0:0:
268,339,175040,1,0,1:2:0:0:
234,351,175115,1,2,1:2:0:0:
198,346,175190,1,0,1:2:0:0:
165,332,175265,6,0,P|180:212|190:119,1,213.599993481446,4|2,3:1|1:2,0:0:0:0:
66,242,175715,1,0,3:0:0:0:
294,314,175865,2,0,P|287:260|281:207,1,106.799996740723,2|2,0:2|3:2,0:0:0:0:
423,101,176165,2,0,P|416:154|410:207,1,106.799996740723,0|2,1:0|0:0,0:0:0:0:
147,191,176465,1,2,3:2:0:0:
297,21,176615,1,2,0:0:0:0:
313,241,176765,1,2,1:2:0:0:
167,21,176915,6,0,P|107:3|18:111,1,213.599993481446,2|2,3:2|3:2,0:0:0:0:
194,263,177365,1,2,1:2:0:0:
114,99,177515,1,2,0:0:0:0:
4,303,177665,2,0,P|71:286|111:277,1,106.799996740723,4|2,3:2|0:2,0:0:0:0:
269,116,177965,5,2,1:2:0:0:
299,306,178115,1,2,3:2:0:0:
129,85,178265,1,2,0:2:0:0:
154,345,178415,1,2,0:2:0:0:
213,30,178565,1,2,1:2:0:0:
383,337,178715,6,0,P|473:286|457:183,1,213.599993481446,2|2,3:2|0:0,0:0:0:0:
269,116,179165,2,0,P|279:170|288:221,1,106.799996740723,0|0,1:0|3:0,0:0:0:0:
470,90,179465,1,0,0:0:0:0:
385,242,179615,1,0,3:0:0:0:
328,41,179765,1,2,1:2:0:0:
200,297,179915,1,2,0:0:0:0:
200,297,179990,1,0,0:0:0:0:
200,297,180065,6,0,B|108:313|55:249|55:249|101:224,1,213.599993481446,6|2,3:2|1:2,0:0:0:0:
273,114,180515,2,0,P|281:166|290:219,1,106.799996740723,2|0,3:2|0:0,0:0:0:0:
466,324,180815,2,0,P|474:271|483:218,1,106.799996740723,2|0,3:2|1:0,0:0:0:0:
353,267,181115,1,2,0:0:0:0:
307,37,181265,6,0,P|229:42|205:142,1,160.199995111084,4|0,3:2|0:0,0:0:0:0:
177,137,181565,2,0,L|194:220,1,53.3999983703614,2|0,0:0|0:0,0:0:0:0:
363,347,181715,6,0,B|326:352|303:336|303:336|272:360|272:360|240:342|198:353,1,173.549992055512,6|0,1:2|0:0,0:0:0:0:
168,384,182015,2,0,L|155:316,1,53.3999983703614,2|0,0:2|0:0,0:0:0:0:
58,76,182165,6,0,P|101:141|199:111,1,160.199995111084,0|0,1:2|0:0,0:0:0:0:
307,37,182465,6,0,B|378:53|398:91|398:91|427:65|498:70,1,213.599993481446,6|0,3:2|1:2,0:0:0:0:
499,267,182915,2,0,P|437:193|323:237,1,213.599993481446,0|0,3:2|3:2,0:0:0:0:
386,384,183365,2,0,P|395:332|408:280,1,106.799996740723,0|0,1:2|0:0,0:0:0:0:
139,168,183665,6,0,P|242:158|289:67,1,213.599993481446,0|0,3:2|1:2,0:0:0:0:
26,89,184115,2,0,P|42:168|58:246,1,160.199995111084,0|0,3:2|0:0,0:0:0:0:
54,284,184415,1,2,3:2:0:0:
238,368,184565,2,0,P|248:315|261:263,1,106.799996740723,2|0,1:2|0:0,0:0:0:0:
409,145,184865,2,0,P|421:197|432:250,1,106.799996740723,2|0,3:2|0:0,0:0:0:0:
197,166,185165,1,0,1:2:0:0:
336,42,185315,2,0,P|310:145|289:250,1,213.599993481446,0|2,3:2|3:2,0:0:0:0:
57,110,185765,6,0,P|125:35|226:54,1,213.599993481446,2|2,1:2|3:2,0:0:0:0:
335,193,186215,1,0,0:0:0:0:
160,128,186365,1,2,1:2:0:0:
364,11,186515,2,0,P|374:64|387:116,1,106.799996740723,2|0,3:2|0:0,0:0:0:0:
225,266,186815,2,0,P|237:213|247:161,1,106.799996740723,2|0,3:2|1:2,0:0:0:0:
435,213,187115,1,0,0:0:0:0:
264,371,187265,6,0,B|210:323|142:336|180:378|99:388|49:350,1,213.599993481446,6|2,3:2|1:2,0:0:0:0:
9,156,187715,2,0,B|84:140|160:122|160:122|195:168,1,213.599993481446,2|2,3:2|3:2,0:0:0:0:
382,63,188165,2,0,P|331:50|279:36,1,106.799996740723,2|0,1:2|0:0,0:0:0:0:
452,259,188465,6,0,P|467:154|486:49,1,213.599993481446,2|2,3:2|1:2,0:0:0:0:
261,247,188915,2,0,P|253:194|244:141,1,106.799996740723,2|0,3:2|0:0,0:0:0:0:
383,63,189215,1,2,3:2:0:0:
169,0,189365,2,0,P|149:105|132:210,1,213.599993481446,2|2,1:2|3:2,0:0:0:0:
375,164,189815,1,2,0:0:0:0:
302,356,189965,2,0,P|249:346|196:337,1,106.799996740723,0|2,1:2|3:2,0:0:0:0:
116,204,190265,2,0,P|168:194|221:185,1,106.799996740723,0|2,0:0|3:2,0:0:0:0:
461,259,190565,6,0,P|368:296|303:220,1,213.599993481446,2|2,1:2|3:2,0:0:0:0:
450,116,191015,1,0,0:0:0:0:
246,20,191165,2,0,P|259:72|270:124,1,106.799996740723,0|2,1:2|3:2,0:0:0:0:
136,316,191465,2,0,P|188:301|240:290,1,106.799996740723,0|2,0:0|3:2,0:0:0:0:
356,112,191765,1,6,1:2:0:0:
170,206,191915,1,0,0:0:0:0:
400,315,192065,6,0,P|412:264|429:213,1,106.799996740723,6|0,3:2|0:0,0:0:0:0:
493,378,192365,1,2,1:2:0:0:
468,132,192515,2,0,B|348:90|391:200|270:161,1,213.599993481446,6|0,3:2|3:2,0:0:0:0:
53,98,192965,2,0,P|74:171|81:221,1,106.799996740723,6|0,1:2|0:0,0:0:0:0:
303,96,193265,1,4,3:2:0:0:
134,34,193415,1,0,0:0:0:0:
181,205,193565,1,2,1:2:0:0:
269,4,193715,6,0,P|346:7|395:132,1,213.599993481446,6|2,3:2|3:2,0:0:0:0:
374,153,194090,1,0,3:0:0:0:
374,153,194165,2,0,P|321:145|268:137,1,106.799996740723,6|0,1:2|0:0,0:0:0:0:
63,232,194465,1,6,3:2:0:0:
257,293,194615,1,2,0:0:0:0:
157,127,194765,1,0,1:2:0:0:
72,353,194915,6,0,B|149:332|187:351|187:351|204:318|269:307,1,213.599993481446,6|2,3:2|3:2,0:0:0:0:
441,187,195365,1,6,1:2:0:0:
433,384,195515,1,2,0:0:0:0:
295,216,195665,2,0,P|304:163|313:110,1,106.799996740723,6|0,3:2|0:0,0:0:0:0:
439,285,195965,1,0,1:2:0:0:
222,343,196115,2,0,P|212:290|203:237,1,106.799996740723,6|0,3:2|0:0,0:0:0:0:
32,133,196415,1,2,3:2:0:0:
193,15,196565,2,0,P|252:31|260:128,1,160.199995111084,6|0,1:2|0:0,0:0:0:0:
253,160,196865,6,0,B|345:146|407:137|407:137|435:189,1,213.599993481446,6|0,3:2|1:2,0:0:0:0:
313,371,197315,2,0,P|207:354|101:339,1,213.599993481446,6|2,3:2|3:2,0:0:0:0:
253,160,197765,2,0,P|239:211|227:263,1,106.799996740723,6|0,1:2|0:0,0:0:0:0:
0,141,198065,6,0,P|78:110|161:195,1,213.599993481446,6|0,3:2|0:0,0:0:0:0:
223,355,198515,2,0,P|320:382|383:303,1,213.599993481446,2|2,3:2|0:0,0:0:0:0:
285,65,198965,6,0,P|273:117|262:169,1,106.799996740723,6|0,1:2|0:0,0:0:0:0:
63,216,199265,1,6,1:2:0:0:
142,21,199415,2,0,P|153:74|164:126,1,106.799996740723
326,267,199715,6,0,B|247:251|184:238|184:238|137:288,1,213.599993481446,2|2,1:2|0:0,0:0:0:0:
305,147,200165,1,6,1:2:0:0:
80,78,200315,1,2,0:0:0:0:
197,363,200465,6,0,P|124:289|0:344,1,249.19999239502,2|0,1:2|0:0,0:0:0:0:
457,383,200915,2,0,P|473:271|491:128,1,249.19999239502,2|0,1:2|0:0,0:0:0:0:
288,25,201365,6,0,B|184:57|184:57|151:117|151:117|54:147|54:147|90:96,1,311.499990493775,6|0,1:2|0:0,0:0:0:0:
87,111,201815,2,0,B|127:261,1,155.749995246887
