osu file format v14

[General]
AudioFilename: audio.mp3
AudioLeadIn: 0
PreviewTime: 188192
Countdown: 1
SampleSet: Soft
StackLeniency: 0.4
Mode: 0
LetterboxInBreaks: 0
WidescreenStoryboard: 0

[Editor]
Bookmarks: 276192
DistanceSpacing: 3.7
BeatDivisor: 4
GridSize: 32
TimelineZoom: 2

[Metadata]
Title:killy killy JOKER
TitleUnicode:killy killy JOKER
Artist:Wakeshima Kanon
ArtistUnicode:分島花音
Creator:sbsonic
Version:Fate
Source:selector infected WIXOSS
Tags:
BeatmapID:2116006
BeatmapSetID:1010887

[Difficulty]
HPDrainRate:6
CircleSize:3.8
OverallDifficulty:9.2
ApproachRate:9.3
SliderMultiplier:1.8
SliderTickRate:1

[Events]
//Background and Video events
0,0,"bg.jpg",0,0
//Break Periods
//Storyboard Layer 0 (Background)
//Storyboard Layer 1 (Fail)
//Storyboard Layer 2 (Pass)
//Storyboard Layer 3 (Foreground)
//Storyboard Layer 4 (Overlay)
//Storyboard Sound Samples

[TimingPoints]
1526,333.333333333333,4,2,1,30,1,0
1526,-153.846153846154,4,2,1,30,0,0
2859,-181.818181818182,4,2,1,30,0,0
4192,-222.222222222223,4,2,1,30,0,0
5525,-181.818181818182,4,2,1,30,0,0
6192,-222.222222222223,4,2,1,30,0,0
6859,-285.714285714287,4,2,1,30,0,0
7525,-181.818181818182,4,2,1,30,0,0
8192,-222.222222222223,4,2,1,30,0,0
8859,-181.818181818182,4,2,1,30,0,0
9442,-181.818181818182,4,2,1,5,0,0
9525,-181.818181818182,4,2,1,30,0,0
11525,-117.64705882353,4,2,1,50,0,0
12192,-95.2380952380954,4,2,1,60,0,0
16025,-86.9565217391304,4,2,1,70,0,0
17442,-86.9565217391304,4,2,1,5,0,0
17525,-95.2380952380952,4,2,1,65,0,0
21609,-95.2380952380952,4,2,1,5,0,0
21692,-95.2380952380952,4,2,1,60,0,0
22859,-117.647058823529,4,2,1,40,0,0
27692,-117.647058823529,4,2,1,50,0,0
28192,-95.2380952380952,4,2,1,60,0,0
28942,-95.2380952380952,4,2,1,5,0,0
29025,-95.2380952380952,4,2,1,60,0,0
33192,-117.64705882353,4,2,1,60,0,0
33442,-95.2380952380952,4,2,1,5,0,0
33525,-117.647058823529,4,2,1,40,0,0
36109,-117.647058823529,4,2,1,5,0,0
36192,-117.647058823529,4,2,1,40,0,0
38192,-117.647058823529,4,2,1,50,0,0
38859,-95.2380952380952,4,2,1,60,0,0
39609,-95.2380952380952,4,2,1,5,0,0
39692,-95.2380952380952,4,2,1,60,0,0
44192,-105.263157894737,4,2,1,45,0,0
53525,-86.9565217391306,4,2,1,55,0,0
54859,-95.2380952380952,4,2,1,65,0,0
57525,-86.9565217391304,4,2,1,65,0,0
60192,-95.2380952380952,4,2,1,65,0,0
64859,-181.818181818182,4,2,1,65,0,0
65109,-181.818181818182,4,2,1,5,0,0
65192,-74.0740740740741,4,2,1,70,0,0
65442,-95.2380952380952,4,2,1,5,0,0
65525,-86.9565217391304,4,2,1,80,0,1
77525,-86.9565217391304,4,2,1,5,0,1
77692,-86.9565217391304,4,2,1,80,0,1
78192,-74.0740740740741,4,2,1,80,0,1
78859,-86.9565217391304,4,2,1,80,0,0
79192,-117.647058823529,4,2,1,80,0,0
79442,-117.647058823529,4,2,1,5,0,0
79525,-86.9565217391304,4,2,1,80,0,0
79859,-117.647058823529,4,2,1,80,0,0
80109,-117.647058823529,4,2,1,5,0,0
80192,-86.9565217391304,4,2,1,80,0,0
81525,-86.9565217391304,4,2,1,80,0,1
94442,-86.9565217391304,4,2,1,5,0,1
94525,-86.9565217391304,4,2,1,80,0,1
94859,-80,4,2,1,80,0,1
95525,-80,4,2,1,5,0,1
95692,-80,4,2,1,80,0,1
96775,-80,4,2,1,5,0,1
96859,-80,4,2,1,80,0,1
97525,-86.9565217391304,4,2,1,80,0,0
102859,-95.2380952380952,4,2,1,70,0,0
106692,-86.9565217391304,4,2,1,70,0,0
108192,-95.2380952380952,4,2,1,70,0,0
112025,-80,4,2,1,80,0,0
113525,-95.2380952380952,4,2,1,70,0,0
114775,-95.2380952380952,4,2,1,5,0,0
114859,-95.2380952380952,4,2,1,70,0,0
116442,-95.2380952380952,4,2,1,5,0,0
116525,-95.2380952380952,4,2,1,70,0,0
120109,-95.2380952380952,4,2,1,5,0,0
120192,-95.2380952380952,4,2,1,70,0,0
121775,-95.2380952380952,4,2,1,5,0,0
121859,-95.2380952380952,4,2,1,70,0,0
134859,-95.2380952380952,4,2,1,70,0,0
145525,-133.333333333334,4,2,1,40,0,0
156192,-117.64705882353,4,2,1,50,0,0
164192,-117.64705882353,4,2,1,50,0,0
165442,-117.64705882353,4,2,1,5,0,0
165525,-285.714285714289,4,2,1,40,0,0
166525,-86.9565217391304,4,2,1,40,0,0
166775,-74.0740740740741,4,2,1,5,0,0
166859,-105.263157894737,4,2,1,50,0,0
171859,-181.818181818182,4,2,1,50,0,0
172109,-181.818181818182,4,2,1,5,0,0
172192,-105.263157894737,4,2,1,50,0,0
175859,-181.818181818182,4,2,1,50,0,0
176109,-181.818181818182,4,2,1,5,0,0
176192,-86.9565217391306,4,2,1,55,0,0
177525,-95.2380952380954,4,2,1,65,0,0
180192,-95.2380952380954,4,2,1,65,0,0
182859,-95.2380952380954,4,2,1,65,0,0
188192,-153.846153846154,4,2,1,30,0,0
198859,-117.64705882353,4,2,1,50,0,0
208192,-95.2380952380953,4,2,1,50,0,0
208525,-117.647058823529,4,2,1,50,0,0
209192,-153.846153846154,4,2,1,50,0,0
209442,-153.846153846154,4,2,1,5,0,0
209525,-86.9565217391304,4,2,1,80,0,1
221525,-86.9565217391304,4,2,1,5,0,1
221692,-86.9565217391304,4,2,1,80,0,1
222192,-74.0740740740741,4,2,1,80,0,1
222859,-86.9565217391304,4,2,1,80,0,0
223192,-117.647058823529,4,2,1,80,0,0
223442,-117.647058823529,4,2,1,5,0,0
223525,-86.9565217391304,4,2,1,80,0,0
224192,-86.9565217391304,4,2,1,80,0,0
224775,-86.9565217391304,4,2,1,5,0,0
224859,-86.9565217391304,4,2,1,80,0,0
225525,-86.9565217391304,4,2,1,80,0,1
238859,-80,4,2,1,80,0,1
239025,-80,4,2,1,5,0,1
239192,-80,4,2,1,80,0,1
239525,-80,4,2,1,5,0,1
239692,-80,4,2,1,80,0,1
241525,-86.9565217391304,4,2,1,80,0,0
246192,-181.818181818182,4,2,1,30,0,0
247692,-74.0740740740741,4,2,1,50,0,0
248109,-74.0740740740741,4,2,1,5,0,0
248192,-86.9565217391304,4,2,1,70,0,0
265442,-86.9565217391304,4,2,1,5,0,0
265525,-86.9565217391304,4,2,1,70,0,0
272192,-86.9565217391304,4,2,1,55,0,0
273525,-86.9565217391304,4,2,1,40,0,0
274859,-86.9565217391304,4,2,1,25,0,0
276192,-86.9565217391304,4,2,1,5,0,0

[Colours]
Combo1 : 225,66,66
Combo2 : 255,197,60
Combo3 : 112,112,184
Combo4 : 192,192,192

[HitObjects]
119,150,1526,6,0,P|122:91|127:33,3,116.999994644165,2|2|2|2,0:0|0:0|0:0|0:0,0:0:0:0:
296,190,2859,2,0,P|341:176|395:171,3,99.0000030212403,2|2|2|2,0:0|0:0|0:0|0:0,0:0:0:0:
181,305,4192,2,0,B|142:288|100:296,3,80.9999975280763,2|2|2|2,0:0|0:0|0:0|0:0,0:0:0:0:
179,176,5525,6,0,P|109:189|75:252,1,148.50000453186,2|0,0:0|0:0,0:0:0:0:
258,191,6192,2,0,P|215:150|156:139,1,121.499996292114,2|0,0:0|0:0,0:0:0:0:
306,250,6859,2,0,P|306:203|285:161,1,94.499997116089,2|0,0:0|0:0,0:0:0:0:
236,46,7525,6,0,P|182:95|166:166,1,148.50000453186,2|0,0:0|0:0,0:0:0:0:
373,312,8192,2,0,P|385:274|389:234,1,80.9999975280763,2|2,0:0|0:0,0:0:0:0:
111,253,8859,6,0,P|191:285|277:282,1,173.250005287171,2|0,0:0|0:0,0:0:0:0:
307,250,9525,1,2,0:0:0:0:
256,192,9609,12,8,11359,0:2:0:0:
124,57,11525,6,0,P|118:102|114:166,1,76.5000014591217,8|8,0:1|0:2,0:0:0:0:
356,296,11859,1,10,0:3:0:0:
348,258,11942,1,2,0:0:0:0:
327,227,12025,1,2,0:0:0:0:
295,206,12109,1,2,0:0:0:0:
256,196,12192,6,0,B|167:173|168:249|65:216,1,188.999994232178,14|8,0:2|0:1,0:0:0:0:
0,133,12692,1,0,0:0:0:0:
77,313,12859,1,8,0:2:0:0:
182,147,13025,1,10,0:2:0:0:
51,217,13192,1,10,0:1:0:0:
229,312,13359,6,0,P|317:340|396:293,1,188.999994232178,2|0,0:0|0:0,0:0:0:0:
281,138,13859,1,8,0:1:0:0:
281,138,14025,2,0,P|273:200|277:251,1,94.499997116089,10|0,0:2|0:0,0:0:0:0:
339,353,14359,1,8,0:2:0:0:
432,180,14525,2,0,P|448:177|487:173,1,47.2499985580445,10|2,0:1|0:0,0:0:0:0:
394,65,14692,2,0,P|378:62|339:58,1,47.2499985580445,2|2,0:0|0:0,0:0:0:0:
100,129,14859,6,0,P|178:176|266:148,1,188.999994232178,10|8,0:2|0:1,0:0:0:0:
16,34,15359,1,0,0:0:0:0:
98,226,15525,1,8,0:2:0:0:
203,32,15692,1,10,0:2:0:0:
203,32,15775,1,2,0:0:0:0:
203,32,15859,2,0,P|196:73|190:110,1,47.2499985580445,10|2,0:1|0:0,0:0:0:0:
287,288,16025,6,0,P|288:232|297:175,1,103.500001974106,14|0,0:2|0:0,0:0:0:0:
177,84,16359,1,8,0:2:0:0:
101,338,16525,2,0,P|100:282|91:225,1,103.500001974106,10|8,0:1|0:2,0:0:0:0:
83,204,16775,1,8,0:2:0:0:
83,204,16859,1,8,0:2:0:0:
269,307,17025,1,10,0:2:0:0:
323,151,17192,2,0,P|360:86|399:162,1,155.250002961159,8|0,0:1|0:0,0:0:0:0:
448,214,17525,6,0,P|488:131|456:44,1,188.999994232178,14|8,0:2|0:1,0:0:0:0:
323,0,18025,1,0,0:0:0:0:
269,170,18192,2,0,P|316:188|376:181,1,94.499997116089,8|8,0:2|0:2,0:0:0:0:
203,56,18525,1,8,0:1:0:0:
236,271,18692,1,2,0:0:0:0:
236,271,18775,1,2,0:0:0:0:
236,271,18859,5,10,0:2:0:0:
329,97,19025,1,2,0:0:0:0:
125,124,19192,1,8,0:1:0:0:
319,303,19359,2,0,P|326:256|311:212,1,94.499997116089,10|0,0:2|0:0,0:0:0:0:
45,182,19692,2,0,P|101:218|183:207,1,141.749995674133,10|0,0:2|0:0,0:0:0:0:
209,182,20025,2,0,L|199:115,1,47.2499985580445,2|2,0:0|0:0,0:0:0:0:
203,44,20192,6,0,B|292:20|291:96|394:63,1,188.999994232178,10|8,0:2|0:1,0:0:0:0:
493,14,20692,1,0,0:0:0:0:
493,14,20775,1,0,0:0:0:0:
493,14,20859,1,8,0:2:0:0:
433,200,21025,1,10,0:2:0:0:
393,56,21192,1,10,0:1:0:0:
311,180,21359,6,0,P|291:241|304:333,1,141.749995674133,14|0,0:2|0:0,0:0:0:0:
311,351,21692,1,8,0:2:0:0:
221,123,21859,2,0,P|175:98|113:102,1,94.499997116089,10|0,0:1|0:0,0:0:0:0:
9,146,22192,1,8,0:1:0:0:
141,311,22359,1,10,0:3:0:0:
156,293,22442,1,10,0:3:0:0:
167,272,22525,1,10,0:3:0:0:
173,249,22608,1,10,0:3:0:0:
173,226,22692,1,10,0:3:0:0:
168,203,22775,1,10,0:3:0:0:
157,182,22858,5,14,0:2:0:0:
157,182,23192,2,0,L|76:188,1,76.5000014591217,2|0,0:0|0:0,0:0:0:0:
218,93,23525,1,2,0:0:0:0:
218,93,23692,2,0,L|141:87,1,76.5000014591217,2|0,0:0|0:0,0:0:0:0:
293,158,24025,1,2,0:0:0:0:
293,158,24192,6,0,P|318:114|316:68,1,76.5000014591217,2|0,0:0|0:0,0:0:0:0:
436,221,24525,1,2,0:0:0:0:
436,221,24692,2,0,P|411:177|413:131,1,76.5000014591217,2|0,0:0|0:0,0:0:0:0:
328,244,25025,1,2,0:0:0:0:
328,244,25192,2,0,L|319:336,1,76.5000014591217,2|8,0:0|0:2,0:0:0:0:
321,352,25442,1,2,0:0:0:0:
321,352,25525,5,10,0:2:0:0:
321,352,25859,1,2,0:0:0:0:
248,288,26025,1,2,0:0:0:0:
167,350,26192,2,0,L|84:355,1,76.5000014591217,2|2,0:0|0:0,0:0:0:0:
54,236,26525,2,0,L|137:241,1,76.5000014591217,2|2,0:0|0:0,0:0:0:0:
206,158,26859,5,2,0:0:0:0:
206,158,27025,1,2,0:0:0:0:
132,81,27192,1,2,0:0:0:0:
132,81,27359,1,2,0:0:0:0:
227,46,27525,6,0,P|240:84|244:109,1,38.2500007295609,2|0,0:0|0:0,0:0:0:0:
289,173,27692,2,0,P|302:135|306:110,1,38.2500007295609,10|0,0:2|0:0,0:0:0:0:
360,28,27859,2,0,P|354:53|351:89,1,38.2500007295609,10|0,0:1|0:0,0:0:0:0:
422,192,28025,2,0,P|421:174|416:154,1,38.2500007295609,10|0,0:2|0:0,0:0:0:0:
496,14,28192,6,0,P|507:62|513:135,1,94.499997116089,14|0,0:2|0:0,0:0:0:0:
501,271,28525,1,10,0:1:0:0:
279,221,28692,2,0,P|312:184|427:180,1,141.749995674133,2|0,0:0|0:0,0:0:0:0:
437,183,29025,1,10,0:2:0:0:
382,348,29192,1,2,0:0:0:0:
261,203,29359,6,0,P|264:139|268:89,1,94.499997116089,10|0,0:1|0:0,0:0:0:0:
200,268,29692,2,0,P|242:291|296:284,1,94.499997116089,10|8,0:2|0:1,0:0:0:0:
108,220,30025,2,0,P|111:267|113:314,1,94.499997116089,2|8,0:0|0:2,0:0:0:0:
247,98,30359,1,10,0:2:0:0:
96,46,30525,1,10,0:1:0:0:
261,203,30692,1,2,0:0:0:0:
261,203,30775,1,2,0:0:0:0:
261,203,30859,6,0,B|350:179|349:255|452:222,1,188.999994232178,14|8,0:2|0:1,0:0:0:0:
508,130,31359,1,2,0:0:0:0:
433,311,31525,1,10,0:2:0:0:
359,122,31692,2,0,P|300:108|262:115,1,94.499997116089,10|0,0:2|0:0,0:0:0:0:
122,348,32025,6,0,P|167:276|134:168,1,188.999994232178,10|8,0:1|0:2,0:0:0:0:
39,37,32525,1,10,0:1:0:0:
39,37,32692,2,0,P|98:51|136:44,1,94.499997116089,2|8,0:0|0:2,0:0:0:0:
246,5,33025,1,8,0:2:0:0:
246,5,33192,2,0,P|311:-10|386:12,1,114.750002188683,8|0,0:1|0:0,0:0:0:0:
397,26,33525,5,12,0:2:0:0:
397,26,33859,2,0,P|404:69|399:109,1,76.5000014591217,2|0,0:0|0:0,0:0:0:0:
300,148,34192,1,2,0:0:0:0:
300,148,34359,2,0,P|297:110|304:72,1,76.5000014591217,2|0,0:0|0:0,0:0:0:0:
426,234,34692,1,2,0:0:0:0:
426,234,34859,6,0,L|350:230,1,76.5000014591217,2|0,0:0|0:0,0:0:0:0:
284,336,35192,1,2,0:0:0:0:
284,336,35359,2,0,L|360:332,1,76.5000014591217,2|0,0:0|0:0,0:0:0:0:
245,240,35692,1,10,0:2:0:0:
181,331,35859,2,0,B|129:352|129:352|50:343,1,114.750002188683,2|0,0:0|0:0,0:0:0:0:
35,341,36192,5,10,0:2:0:0:
35,341,36525,2,0,L|26:255,1,76.5000014591217,2|0,0:0|0:0,0:0:0:0:
149,180,36859,1,2,0:0:0:0:
149,180,37025,2,0,L|141:256,1,76.5000014591217,2|0,0:0|0:0,0:0:0:0:
36,169,37359,1,2,0:0:0:0:
87,72,37525,5,2,0:0:0:0:
87,72,37692,1,2,0:0:0:0:
173,149,37859,1,2,0:0:0:0:
173,149,38025,1,2,0:0:0:0:
235,39,38192,6,0,L|243:112,1,38.2500007295609,2|2,0:0|0:0,0:0:0:0:
320,153,38359,1,10,0:3:0:0:
320,153,38442,1,10,0:3:0:0:
320,153,38525,2,0,L|325:115,3,38.2500007295609,10|2|2|2,0:3|0:0|0:0|0:0,0:0:0:0:
438,17,38859,6,0,P|442:66|446:135,1,94.499997116089,14|0,0:2|0:0,0:0:0:0:
422,281,39192,1,10,0:1:0:0:
192,193,39359,2,0,P|251:155|321:154,1,141.749995674133,2|0,0:0|0:0,0:0:0:0:
362,171,39692,1,10,0:2:0:0:
293,312,39859,1,2,0:0:0:0:
170,188,40025,6,0,P|152:127|161:89,1,94.499997116089,10|0,0:1|0:0,0:0:0:0:
234,10,40359,1,10,0:2:0:0:
270,200,40525,1,8,0:1:0:0:
149,81,40692,1,2,0:0:0:0:
149,81,40775,1,0,0:0:0:0:
149,81,40859,5,8,0:2:0:0:
323,43,41025,1,10,0:2:0:0:
154,194,41192,1,10,0:1:0:0:
87,4,41359,1,2,0:0:0:0:
87,4,41442,1,2,0:0:0:0:
87,4,41525,5,10,0:2:0:0:
263,115,41692,1,2,0:0:0:0:
65,206,41859,1,10,0:1:0:0:
215,287,42025,2,0,P|264:282|317:280,1,94.499997116089,2|8,0:0|0:2,0:0:0:0:
76,316,42359,1,10,0:2:0:0:
248,200,42525,1,2,0:0:0:0:
90,95,42692,6,0,P|86:147|84:200,1,94.499997116089,10|0,0:1|0:0,0:0:0:0:
310,381,43025,2,0,P|314:329|316:276,1,94.499997116089,10|8,0:2|0:1,0:0:0:0:
469,117,43359,1,2,0:0:0:0:
469,117,43442,1,2,0:0:0:0:
469,117,43525,5,10,0:1:0:0:
225,184,43692,1,10,0:2:0:0:
425,356,44025,5,10,0:2:0:0:
425,356,44109,1,8,0:2:0:0:
425,356,44192,6,0,B|400:262|461:278|477:224|428:209|428:209|413:261|499:284,1,256.499993150711,14|0,0:2|0:0,0:0:0:0:
316,292,44859,2,0,B|341:198|280:214|264:160|313:145|313:145|328:197|242:220,1,256.499993150711,10|0,0:2|0:0,0:0:0:0:
475,141,45525,6,0,B|413:104|421:33|421:33|370:76|288:53,1,256.499993150711,10|0,0:2|0:0,0:0:0:0:
45,204,46192,2,0,B|107:167|99:96|99:96|150:139|232:116,1,256.499993150711,10|0,0:2|0:0,0:0:0:0:
2,298,46859,6,0,B|135:281|73:382|271:360|271:360|263:266|356:235,1,427.499988584519,10|0,0:2|0:0,0:0:0:0:
409,170,47859,2,0,P|434:219|436:258,1,85.4999977169037,10|0,0:2|0:0,0:0:0:0:
457,362,48192,6,0,P|485:297|471:175,1,170.999995433807,10|8,0:2|0:2,0:0:0:0:
471,108,48859,2,0,B|424:103|386:119|386:119|353:86|292:75,1,170.999995433807,10|8,0:2|0:2,0:0:0:0:
210,22,49359,1,2,0:0:0:0:
210,22,49442,1,2,0:0:0:0:
210,22,49525,6,0,B|147:-7|89:42|89:42|129:116|204:106,1,256.499993150711,10|0,0:2|0:0,0:0:0:0:
228,199,50192,2,0,B|291:170|349:219|349:219|309:293|234:283,1,256.499993150711,10|0,0:2|0:0,0:0:0:0:
95,372,50859,6,0,B|132:329|152:287|145:218|101:203|48:210|49:298,1,256.499993150711,10|0,0:2|0:0,0:0:0:0:
239,41,51525,2,0,B|203:83|183:125|190:194|234:209|287:202|286:114,1,256.499993150711,10|0,0:2|0:0,0:0:0:0:
419,39,52192,5,10,0:2:0:0:
475,139,52359,1,2,0:0:0:0:
428,21,52525,1,10,0:2:0:0:
362,192,52692,1,2,0:0:0:0:
258,81,52859,2,0,P|218:57|159:55,1,85.4999977169037,10|8,0:2|0:3,0:0:0:0:
372,175,53192,2,0,P|412:151|471:149,1,85.4999977169037,10|2,0:2|0:0,0:0:0:0:
270,293,53525,5,10,0:2:0:0:
447,233,53692,1,10,0:3:0:0:
194,141,53859,1,8,0:1:0:0:
428,332,54025,2,0,P|352:272|375:171,1,207.000003948212,14|8,0:2|0:1,0:0:0:0:
444,60,54525,1,8,0:1:0:0:
297,133,54692,1,8,0:1:0:0:
447,233,54859,6,0,B|358:210|359:286|256:253,1,188.999994232178,10|8,0:2|0:1,0:0:0:0:
97,164,55359,2,0,P|143:155|188:165,1,94.499997116089,10|0,0:2|0:0,0:0:0:0:
179,336,55692,2,0,P|132:344|87:334,1,94.499997116089,10|8,0:2|0:1,0:0:0:0:
13,215,56025,1,2,0:0:0:0:
135,25,56192,6,0,P|180:84|309:62,1,188.999994232178,10|8,0:2|0:1,0:0:0:0:
434,0,56692,1,10,0:2:0:0:
385,187,56859,2,0,P|391:106|399:81,1,94.499997116089,0|10,0:0|0:2,0:0:0:0:
228,0,57192,1,8,0:1:0:0:
278,184,57359,1,2,0:0:0:0:
412,80,57525,5,10,0:2:0:0:
239,171,57692,1,2,0:0:0:0:
469,265,57859,1,10,0:1:0:0:
217,331,58025,2,0,L|341:309,1,103.500001974106,14|0,0:2|0:0,0:0:0:0:
95,256,58359,1,10,0:2:0:0:
392,117,58525,1,8,0:1:0:0:
108,239,58692,6,0,B|181:225|181:225|250:247|250:247|312:236,1,207.000003948212,14|8,0:2|0:2,0:0:0:0:
16,108,59192,1,8,0:1:0:0:
269,46,59359,2,0,L|259:166,1,103.500001974106,10|0,0:2|0:0,0:0:0:0:
34,360,59692,2,2,L|23:252,1,103.500001974106,6|8,0:2|0:1,0:0:0:0:
130,26,60025,1,10,0:2:0:0:
391,167,60192,6,0,P|399:224|405:293,1,94.499997116089,14|0,0:2|0:0,0:0:0:0:
169,307,60525,1,10,0:1:0:0:
306,356,60692,1,2,0:0:0:0:
150,274,60859,1,10,0:2:0:0:
360,154,61025,1,10,0:2:0:0:
125,95,61192,1,10,0:1:0:0:
335,260,61359,6,0,P|401:320|502:270,1,188.999994232178,14|8,0:2|0:2,0:0:0:0:
292,94,61859,2,0,P|280:149|282:206,1,94.499997116089,8|0,0:1|0:0,0:0:0:0:
319,372,62192,1,8,0:2:0:0:
444,156,62359,1,10,0:2:0:0:
184,166,62525,1,10,0:1:0:0:
420,237,62692,1,2,0:0:0:0:
288,22,62859,5,10,0:2:0:0:
166,189,63025,1,10,0:1:0:0:
153,222,63108,1,8,0:1:0:0:
149,257,63191,1,8,0:1:0:0:
153,292,63275,1,8,0:1:0:0:
165,325,63358,5,8,0:2:0:0:
347,122,63525,1,10,0:1:0:0:
307,125,63608,1,8,0:1:0:0:
267,128,63691,1,8,0:1:0:0:
336,350,63859,1,8,0:2:0:0:
429,222,64025,1,10,0:1:0:0:
427,202,64108,1,8,0:1:0:0:
426,181,64191,5,8,0:2:0:0:
167,62,64359,2,0,L|177:279,1,188.999994232178,8|8,0:1|0:2,0:0:0:0:
182,292,64775,1,2,0:0:0:0:
182,292,64859,2,0,L|267:287,1,74.2500022659302,8|0,0:2|0:0,0:0:0:0:
323,323,65192,2,0,B|232:289|234:364|142:322,1,182.250000695229,8|0,0:1|0:0,0:0:0:0:
110,307,65525,5,14,0:2:0:0:
147,90,65692,1,2,0:0:0:0:
285,236,65858,1,10,0:1:0:0:
91,167,66025,1,2,0:0:0:0:
287,74,66192,5,10,0:2:0:0:
224,339,66359,1,2,0:0:0:0:
65,148,66525,1,10,0:1:0:0:
311,243,66692,1,2,0:0:0:0:
32,287,66859,5,10,0:2:0:0:
353,145,67025,1,2,0:0:0:0:
42,100,67192,1,10,0:1:0:0:
272,232,67359,1,2,0:0:0:0:
61,276,67525,5,10,0:2:0:0:
390,312,67692,1,2,0:0:0:0:
107,181,67859,1,10,0:1:0:0:
381,49,68025,1,2,0:0:0:0:
71,64,68192,6,0,B|169:38|167:122|281:86,1,207.000003948212,10|8,0:2|0:1,0:0:0:0:
409,25,68692,1,2,0:0:0:0:
486,231,68859,2,0,P|490:155|492:101,1,103.500001974106,10|0,0:2|0:0,0:0:0:0:
285,257,69192,2,0,P|287:308|290:360,1,103.500001974106,8|0,0:1|0:0,0:0:0:0:
109,152,69525,5,8,0:2:0:0:
158,345,69692,1,2,0:0:0:0:
243,176,69859,1,10,0:1:0:0:
75,271,70025,2,0,P|149:235|190:241,1,103.500001974106,2|8,0:0|0:2,0:0:0:0:
322,117,70359,2,0,P|248:81|207:87,1,103.500001974106,0|8,0:0|0:1,0:0:0:0:
72,135,70692,1,2,0:0:0:0:
72,135,70775,1,2,0:0:0:0:
72,135,70859,5,14,0:2:0:0:
237,293,71025,1,2,0:0:0:0:
216,66,71192,1,10,0:1:0:0:
82,252,71359,1,2,0:0:0:0:
337,167,71525,5,10,0:2:0:0:
101,119,71692,1,2,0:0:0:0:
394,299,71859,1,10,0:1:0:0:
138,337,72025,1,2,0:0:0:0:
378,151,72192,5,10,0:2:0:0:
90,227,72359,1,2,0:0:0:0:
427,278,72525,1,10,0:1:0:0:
201,46,72692,1,2,0:0:0:0:
284,365,72859,5,10,0:2:0:0:
402,55,73025,1,2,0:0:0:0:
201,320,73192,1,10,0:1:0:0:
113,61,73359,1,2,0:0:0:0:
470,225,73525,6,0,B|371:199|373:283|259:247,1,207.000003948212,10|8,0:2|0:1,0:0:0:0:
21,72,74025,1,2,0:0:0:0:
21,72,74192,2,0,P|46:137|187:117,1,207.000003948212,10|8,0:2|0:1,0:0:0:0:
340,38,74692,1,2,0:0:0:0:
340,38,74775,1,2,0:0:0:0:
340,38,74859,6,0,P|288:32|237:30,1,103.500001974106,10|0,0:2|0:0,0:0:0:0:
398,206,75192,2,0,P|449:204|501:198,1,103.500001974106,8|2,0:1|0:0,0:0:0:0:
332,378,75525,1,10,0:2:0:0:
280,375,75608,1,2,0:0:0:0:
236,349,75691,1,2,0:0:0:0:
210,305,75774,1,2,0:0:0:0:
208,254,75859,2,0,P|208:185|199:120,1,103.500001974106,10|2,0:1|0:0,0:0:0:0:
333,257,76192,6,0,P|392:258|467:266,1,103.500001974106,14|0,0:2|0:0,0:0:0:0:
308,46,76525,1,10,0:1:0:0:
185,166,76692,2,0,P|116:166|51:175,1,103.500001974106,14|0,0:2|0:0,0:0:0:0:
271,356,77025,1,10,0:2:0:0:
339,138,77192,1,10,0:1:0:0:
133,356,77359,6,0,P|129:303|116:245,1,103.500001974106,10|0,0:2|0:0,0:0:0:0:
51,65,77692,1,10,0:2:0:0:
218,221,77859,1,10,0:1:0:0:
0,147,78025,1,2,0:0:0:0:
221,70,78192,2,0,B|333:86|292:1|421:18,2,182.250000695229,10|10|10,0:3|0:3|0:3,0:0:0:0:
388,113,78859,6,0,P|393:165|396:215,1,103.500001974106,10|8,0:2|0:2,0:0:0:0:
75,345,79192,2,0,P|121:309|181:328,1,114.750002188683,12|0,0:1|0:0,0:0:0:0:
203,344,79525,2,0,P|208:291|211:241,1,103.500001974106,10|8,0:2|0:2,0:0:0:0:
419,42,79859,2,0,P|373:78|313:59,1,114.750002188683,8|0,0:1|0:0,0:0:0:0:
291,43,80192,6,0,P|285:95|282:145,1,103.500001974106,10|8,0:2|0:2,0:0:0:0:
74,344,80525,2,0,P|71:292|66:241,1,103.500001974106,12|0,0:1|0:0,0:0:0:0:
212,9,80859,1,10,0:1:0:0:
375,188,81025,1,8,0:1:0:0:
339,225,81108,1,8,0:1:0:0:
291,241,81191,1,10,0:1:0:0:
240,233,81274,1,10,0:1:0:0:
199,202,81359,2,0,L|202:135,1,51.7500009870529,10|10,0:1|0:1,0:0:0:0:
312,25,81525,5,14,0:2:0:0:
417,260,81692,1,2,0:0:0:0:
222,123,81859,1,10,0:1:0:0:
457,64,82025,1,2,0:0:0:0:
315,304,82192,5,10,0:2:0:0:
286,52,82359,1,2,0:0:0:0:
504,214,82525,1,10,0:1:0:0:
240,248,82692,1,2,0:0:0:0:
437,86,82859,5,10,0:2:0:0:
351,338,83025,1,2,0:0:0:0:
187,126,83192,1,10,0:1:0:0:
425,242,83359,1,2,0:0:0:0:
146,329,83525,5,10,0:2:0:0:
398,212,83692,1,2,0:0:0:0:
163,88,83859,1,10,0:1:0:0:
444,142,84025,1,2,0:0:0:0:
239,230,84192,6,0,B|137:186|139:276|23:242,1,207.000003948212,10|8,0:2|0:1,0:0:0:0:
140,54,84692,1,2,0:0:0:0:
263,215,84859,2,0,P|271:290|274:347,1,103.500001974106,10|0,0:2|0:0,0:0:0:0:
454,137,85192,2,0,P|457:85|463:33,1,103.500001974106,8|0,0:1|0:0,0:0:0:0:
435,280,85525,5,8,0:2:0:0:
318,79,85692,1,2,0:0:0:0:
463,164,85859,1,10,0:1:0:0:
250,218,86025,1,2,0:0:0:0:
397,321,86192,2,0,P|448:308|508:306,1,103.500001974106,8|0,0:2|0:0,0:0:0:0:
307,104,86525,1,8,0:1:0:0:
199,287,86692,1,2,0:0:0:0:
199,287,86775,1,2,0:0:0:0:
199,287,86859,5,14,0:2:0:0:
121,40,87025,1,2,0:0:0:0:
350,160,87192,1,10,0:1:0:0:
103,237,87359,1,2,0:0:0:0:
224,8,87525,5,10,0:2:0:0:
315,280,87692,1,2,0:0:0:0:
43,131,87859,1,10,0:1:0:0:
342,38,88025,1,2,0:0:0:0:
197,322,88192,5,10,0:2:0:0:
109,63,88359,1,2,0:0:0:0:
317,298,88525,1,10,0:1:0:0:
361,21,88692,1,2,0:0:0:0:
88,250,88859,5,10,0:2:0:0:
397,133,89025,1,2,0:0:0:0:
84,35,89192,1,10,0:1:0:0:
332,207,89359,1,2,0:0:0:0:
117,272,89525,6,0,B|215:246|213:330|327:294,1,207.000003948212,10|8,0:2|0:1,0:0:0:0:
347,84,90025,1,2,0:0:0:0:
347,84,90192,2,0,P|287:57|186:162,1,207.000003948212,10|8,0:2|0:1,0:0:0:0:
434,144,90692,1,2,0:0:0:0:
434,144,90859,6,0,P|439:75|438:9,1,103.500001974106,10|0,0:2|0:0,0:0:0:0:
269,201,91192,2,0,P|269:252|274:304,1,103.500001974106,8|2,0:1|0:0,0:0:0:0:
146,102,91525,1,10,0:2:0:0:
119,73,91608,1,2,0:0:0:0:
85,57,91691,1,2,0:0:0:0:
46,54,91774,1,2,0:0:0:0:
10,67,91859,2,0,P|6:125|7:181,1,103.500001974106,10|0,0:1|0:0,0:0:0:0:
340,138,92192,6,0,P|295:112|244:108,1,103.500001974106,14|0,0:2|0:0,0:0:0:0:
100,185,92525,1,10,0:1:0:0:
258,366,92692,2,0,P|316:281|264:198,1,207.000003948212,2|0,0:0|0:0,0:0:0:0:
131,78,93192,1,10,0:1:0:0:
225,280,93359,1,2,0:0:0:0:
368,127,93525,6,0,P|373:79|377:15,1,103.500001974106,14|0,0:2|0:0,0:0:0:0:
129,236,93859,2,0,P|132:287|137:339,1,103.500001974106,8|0,0:1|0:0,0:0:0:0:
219,102,94192,2,0,P|140:66|65:80,1,155.250002961159,10|0,0:1|0:0,0:0:0:0:
41,98,94525,2,0,P|36:158|34:214,1,103.500001974106,10|0,0:1|0:0,0:0:0:0:
332,207,94859,6,0,P|267:181|219:187,1,112.5,14|0,0:2|0:0,0:0:0:0:
43,297,95192,1,10,0:1:0:0:
254,380,95359,2,0,P|259:330|261:267,1,112.5,10|0,0:2|0:0,0:0:0:0:
444,139,95692,2,0,P|445:195|451:251,1,112.5,10|8,0:2|0:1,0:0:0:0:
153,74,96025,6,0,B|260:102|252:8|377:50,1,225,14|8,0:2|0:2,0:0:0:0:
93,350,96525,2,0,P|78:279|73:166,1,168.75,14|0,0:1|0:0,0:0:0:0:
78,145,96859,1,10,0:1:0:0:
199,292,97025,1,10,0:1:0:0:
251,310,97108,1,10,0:1:0:0:
303,294,97192,1,10,0:2:0:0:
335,249,97275,1,8,0:3:0:0:
367,204,97358,1,8,0:3:0:0:
420,188,97441,1,8,0:3:0:0:
472,206,97525,6,0,P|479:267|483:342,1,103.500001974106,14|0,0:2|0:0,0:0:0:0:
432,89,97859,1,8,0:1:0:0:
248,203,98025,2,0,P|251:151|257:100,1,103.500001974106,0|8,0:0|0:2,0:0:0:0:
459,196,98359,1,2,0:0:0:0:
262,225,98525,1,10,0:1:0:0:
347,40,98692,1,2,0:0:0:0:
330,288,98859,6,0,P|285:313|234:311,1,103.500001974106,10|0,0:2|0:0,0:0:0:0:
66,215,99192,1,8,0:1:0:0:
208,123,99359,1,0,0:0:0:0:
141,371,99525,2,0,P|140:304|149:254,1,103.500001974106,10|2,0:2|0:0,0:0:0:0:
302,94,99859,2,0,P|308:145|306:196,1,103.500001974106,8|0,0:1|0:0,0:0:0:0:
37,133,100192,6,0,P|88:57|210:75,1,207.000003948212,10|8,0:2|0:1,0:0:0:0:
175,242,100692,2,0,P|120:238|44:224,1,103.500001974106,2|8,0:0|0:2,0:0:0:0:
199,81,101025,1,2,0:0:0:0:
287,188,101192,2,0,P|345:193|419:165,1,103.500001974106,10|0,0:1|0:0,0:0:0:0:
473,67,101525,5,10,0:2:0:0:
421,293,101692,1,2,0:0:0:0:
435,243,101775,1,2,0:0:0:0:
426,193,101858,1,10,0:1:0:0:
395,152,101941,1,10,0:1:0:0:
363,111,102025,1,10,0:1:0:0:
354,61,102108,1,10,0:1:0:0:
369,11,102191,5,10,0:1:0:0:
305,306,102359,1,10,0:2:0:0:
53,81,102693,5,8,0:1:0:0:
53,81,102776,1,8,0:1:0:0:
53,81,102859,6,0,B|141:53|140:137|259:87,1,188.999994232178,14|8,0:2|0:1,0:0:0:0:
337,38,103359,1,0,0:0:0:0:
256,202,103525,1,8,0:2:0:0:
156,46,103692,1,10,0:2:0:0:
338,147,103859,1,10,0:1:0:0:
133,324,104025,6,0,P|88:288|107:154,1,188.999994232178,2|0,0:0|0:0,0:0:0:0:
302,266,104525,1,8,0:1:0:0:
302,266,104692,2,0,P|244:274|187:277,1,94.499997116089,10|0,0:2|0:0,0:0:0:0:
254,103,105025,1,10,0:2:0:0:
387,234,105192,2,0,L|391:173,1,47.2499985580445,10|2,0:1|0:0,0:0:0:0:
467,75,105359,2,0,L|470:122,1,47.2499985580445,2|2,0:0|0:0,0:0:0:0:
334,338,105525,6,0,P|288:299|311:164,1,188.999994232178,10|8,0:2|0:1,0:0:0:0:
388,83,106025,1,0,0:0:0:0:
255,178,106192,1,8,0:2:0:0:
418,250,106359,1,10,0:2:0:0:
418,250,106442,1,2,0:0:0:0:
418,250,106525,2,0,P|388:246|357:244,1,47.2499985580445,10|2,0:1|0:0,0:0:0:0:
110,353,106692,6,0,P|166:347|239:343,1,103.500001974106,14|0,0:2|0:0,0:0:0:0:
294,90,107025,1,8,0:2:0:0:
159,256,107192,2,0,P|103:250|30:246,1,103.500001974106,10|0,0:1|0:0,0:0:0:0:
13,249,107442,1,8,0:3:0:0:
13,249,107525,1,4,0:3:0:0:
73,11,107692,1,14,0:2:0:0:
279,111,107859,2,2,P|308:105|341:102,3,51.7500009870529,10|2|2|2,0:1|0:0|0:0|0:0,0:0:0:0:
266,142,108192,6,0,B|354:114|353:198|472:148,1,188.999994232178,14|8,0:2|0:1,0:0:0:0:
296,224,108692,1,0,0:0:0:0:
398,55,108859,1,8,0:2:0:0:
460,242,109025,1,8,0:2:0:0:
281,100,109192,1,8,0:1:0:0:
474,144,109359,1,2,0:0:0:0:
474,144,109442,1,2,0:0:0:0:
474,144,109525,5,10,0:2:0:0:
310,255,109692,2,0,P|305:302|302:349,1,94.499997116089,2|8,0:0|0:1,0:0:0:0:
122,303,110025,2,0,P|168:307|215:300,1,94.499997116089,10|0,0:2|0:0,0:0:0:0:
380,187,110359,2,0,P|329:166|285:160,1,94.499997116089,10|8,0:2|0:1,0:0:0:0:
42,57,110692,1,2,0:0:0:0:
42,57,110775,1,2,0:0:0:0:
42,57,110859,6,0,P|123:79|216:5,1,188.999994232178,10|8,0:2|0:1,0:0:0:0:
277,174,111359,1,0,0:0:0:0:
360,38,111525,1,8,0:2:0:0:
420,269,111692,2,0,B|417:233|418:198,1,47.2499985580445,10|2,0:2|0:0,0:0:0:0:
493,89,111859,2,0,B|493:100|490:136,1,47.2499985580445,10|2,0:1|0:0,0:0:0:0:
295,353,112025,6,0,P|236:344|176:337,1,112.5,14|0,0:2|0:0,0:0:0:0:
26,334,112359,1,8,0:2:0:0:
252,242,112525,1,10,0:1:0:0:
13,190,112692,2,0,L|78:184,1,56.25,8|8,0:3|0:3,0:0:0:0:
265,99,112859,2,0,L|200:93,1,56.25,8|8,0:3|0:3,0:0:0:0:
0,83,113025,1,10,0:3:0:0:
170,344,113192,2,0,P|174:304|179:274,1,56.25,10|0,0:1|0:0,0:0:0:0:
265,178,113359,2,0,P|268:205|271:233,1,56.25,10|0,0:1|0:0,0:0:0:0:
447,368,113525,6,0,P|449:304|458:248,1,94.499997116089,14|0,0:2|0:0,0:0:0:0:
375,88,113859,2,0,P|380:134|380:182,1,94.499997116089,8|0,0:1|0:0,0:0:0:0:
297,329,114192,1,8,0:2:0:0:
244,161,114359,1,8,0:2:0:0:
132,337,114525,2,0,P|118:251|116:174,1,141.749995674133,10|0,0:1|0:0,0:0:0:0:
108,157,114859,6,0,P|116:100|119:47,1,94.499997116089,8|0,0:2|0:0,0:0:0:0:
266,200,115192,2,0,P|269:247|276:293,1,94.499997116089,8|0,0:1|0:0,0:0:0:0:
469,111,115525,2,0,P|421:103|359:100,1,94.499997116089,10|8,0:2|0:2,0:0:0:0:
213,114,115859,1,10,0:1:0:0:
403,233,116025,1,2,0:0:0:0:
291,328,116192,6,0,P|200:335|127:328,1,141.749995674133,10|0,0:2|0:0,0:0:0:0:
114,304,116525,2,0,P|64:300|17:298,1,94.499997116089,8|0,0:1|0:0,0:0:0:0:
219,239,116859,1,10,0:2:0:0:
73,183,117025,1,10,0:2:0:0:
261,119,117192,1,8,0:1:0:0:
24,51,117359,6,0,B|120:69|104:4|213:11,1,188.999994232178,14|8,0:2|0:2,0:0:0:0:
372,93,117859,1,8,0:1:0:0:
229,218,118025,1,2,0:0:0:0:
229,218,118109,1,2,0:0:0:0:
229,218,118192,5,10,0:2:0:0:
220,21,118359,1,10,0:2:0:0:
361,253,118525,1,10,0:1:0:0:
97,190,118692,1,2,0:0:0:0:
294,90,118859,6,0,P|334:85|396:82,1,94.499997116089,10|0,0:2|0:0,0:0:0:0:
256,277,119192,2,0,P|216:272|154:269,1,94.499997116089,8|0,0:1|0:0,0:0:0:0:
286,110,119525,1,8,0:2:0:0:
349,289,119692,1,8,0:2:0:0:
446,41,119859,2,0,P|456:112|454:185,1,141.749995674133,10|0,0:1|0:0,0:0:0:0:
448,228,120192,6,0,P|440:273|439:339,1,94.499997116089,0|8,0:0|0:2,0:0:0:0:
294,136,120525,2,0,P|292:88|284:42,1,94.499997116089,8|0,0:1|0:0,0:0:0:0:
226,253,120859,2,0,P|288:268|344:264,1,94.499997116089,10|8,0:2|0:2,0:0:0:0:
181,100,121192,1,10,0:1:0:0:
113,293,121359,1,2,0:0:0:0:
0,75,121525,6,0,P|64:82|152:76,1,141.749995674133,10|0,0:2|0:0,0:0:0:0:
181,100,121859,2,0,P|235:91|287:88,1,94.499997116089,8|0,0:1|0:0,0:0:0:0:
423,110,122192,1,10,0:2:0:0:
244,193,122359,1,10,0:2:0:0:
472,240,122525,1,8,0:1:0:0:
331,354,122692,6,0,B|293:252|369:243|339:149,1,188.999994232178,14|8,0:2|0:2,0:0:0:0:
239,36,123192,1,8,0:1:0:0:
103,205,123359,1,2,0:0:0:0:
103,205,123442,1,2,0:0:0:0:
103,205,123525,2,0,P|156:213|222:209,1,94.499997116089,10|10,0:2|0:2,0:0:0:0:
321,157,123859,1,10,0:1:0:0:
151,67,124025,2,0,P|144:103|143:133,1,47.2499985580445,10|8,0:1|0:1,0:0:0:0:
286,346,124192,6,0,P|288:298|288:244,1,94.499997116089,14|0,0:2|0:0,0:0:0:0:
448,328,124525,1,8,0:1:0:0:
424,106,124692,2,0,P|424:153|426:200,1,94.499997116089,2|8,0:0|0:2,0:0:0:0:
264,237,125025,1,10,0:2:0:0:
358,37,125192,6,0,P|396:16|516:87,1,188.999994232178,10|0,0:1|0:0,0:0:0:0:
446,227,125692,1,8,0:2:0:0:
446,227,125859,2,0,P|390:232|318:234,1,94.499997116089,8|0,0:1|0:0,0:0:0:0:
186,75,126192,2,0,P|242:80|314:82,1,94.499997116089,10|8,0:2|0:2,0:0:0:0:
163,205,126525,1,10,0:1:0:0:
66,51,126692,1,2,0:0:0:0:
10,275,126859,6,0,B|117:237|93:331|217:292,1,188.999994232178,10|8,0:2|0:1,0:0:0:0:
314,225,127359,2,0,P|334:289|332:330,1,94.499997116089,2|8,0:0|0:2,0:0:0:0:
482,93,127692,1,10,0:2:0:0:
447,265,127859,1,8,0:1:0:0:
326,59,128025,6,0,P|289:107|158:97,1,188.999994232178,14|8,0:2|0:2,0:0:0:0:
64,17,128525,1,10,0:1:0:0:
147,250,128692,1,10,0:1:0:0:
147,250,128775,1,8,0:1:0:0:
147,250,128859,5,10,0:2:0:0:
233,32,129025,1,10,0:2:0:0:
64,155,129192,1,10,0:1:0:0:
276,229,129359,1,2,0:0:0:0:
47,290,129525,6,0,P|84:338|215:328,1,188.999994232178,14|8,0:2|0:1,0:0:0:0:
260,216,130025,2,0,P|207:210|154:207,1,94.499997116089,2|8,0:0|0:2,0:0:0:0:
320,368,130359,1,10,0:2:0:0:
454,234,130525,6,0,B|488:143|417:148|448:26,1,188.999994232178,10|0,0:1|0:0,0:0:0:0:
256,11,131025,1,8,0:2:0:0:
256,11,131192,2,0,P|262:77|264:128,1,94.499997116089,8|0,0:1|0:0,0:0:0:0:
79,242,131525,2,0,P|81:194|86:147,1,94.499997116089,10|8,0:2|0:2,0:0:0:0:
116,10,131859,1,10,0:1:0:0:
288,122,132025,1,2,0:0:0:0:
91,262,132192,6,0,P|182:254|239:342,1,188.999994232178,10|8,0:2|0:1,0:0:0:0:
397,197,132692,2,0,P|387:242|382:304,1,94.499997116089,2|8,0:0|0:2,0:0:0:0:
214,69,133025,1,10,0:2:0:0:
296,223,133192,1,8,0:1:0:0:
482,76,133359,6,0,B|394:52|400:137|290:98,1,188.999994232178,14|8,0:2|0:2,0:0:0:0:
17,50,133859,2,0,P|78:34|156:32,1,125.999996154785,10|8,0:1|0:1,0:0:0:0:
220,175,134192,5,10,0:2:0:0:
231,220,134275,1,0,0:0:0:0:
222,266,134358,1,10,0:1:0:0:
193,303,134442,1,8,0:1:0:0:
151,324,134525,1,10,0:1:0:0:
105,324,134608,1,8,0:1:0:0:
62,304,134692,1,10,0:1:0:0:
33,268,134775,1,8,0:1:0:0:
23,222,134859,6,0,P|81:215|142:216,1,94.499997116089,14|0,0:2|0:0,0:0:0:0:
199,367,135192,2,0,P|151:365|105:358,1,94.499997116089,8|0,0:1|0:0,0:0:0:0:
200,163,135525,1,8,0:2:0:0:
300,314,135692,1,8,0:2:0:0:
446,142,135859,6,0,P|433:77|311:55,1,188.999994232178,10|8,0:1|0:2,0:0:0:0:
218,175,136359,1,2,0:0:0:0:
360,124,136525,1,10,0:1:0:0:
179,88,136692,1,2,0:0:0:0:
390,161,136859,1,10,0:2:0:0:
151,238,137025,1,2,0:0:0:0:
391,305,137192,1,10,0:1:0:0:
114,155,137359,1,2,0:0:0:0:
333,31,137525,6,0,P|422:42|469:128,1,188.999994232178,10|8,0:2|0:1,0:0:0:0:
331,227,138025,2,0,P|276:218|207:211,1,94.499997116089,2|8,0:0|0:2,0:0:0:0:
372,123,138359,1,8,0:2:0:0:
410,289,138525,2,0,P|465:280|534:273,1,94.499997116089,10|12,0:1|0:2,0:0:0:0:
248,327,138859,5,2,0:0:0:0:
355,213,139025,1,10,0:2:0:0:
152,192,139192,1,10,0:1:0:0:
327,254,139359,1,2,0:0:0:0:
143,327,139525,1,10,0:2:0:0:
263,111,139692,1,10,0:2:0:0:
279,346,139859,1,10,0:1:0:0:
118,171,140025,1,2,0:0:0:0:
292,85,140192,6,0,P|350:78|403:75,1,94.499997116089,14|2,0:2|0:0,0:0:0:0:
224,227,140525,1,10,0:1:0:0:
224,227,140609,1,2,0:0:0:0:
224,227,140692,2,0,P|166:220|113:217,1,94.499997116089,2|8,0:0|0:2,0:0:0:0:
305,354,141025,1,2,0:0:0:0:
469,260,141192,6,0,P|449:199|318:206,1,188.999994232178,10|0,0:1|0:0,0:0:0:0:
231,115,141692,2,0,P|235:65|236:16,1,94.499997116089,10|8,0:2|0:1,0:0:0:0:
214,262,142025,1,2,0:0:0:0:
140,83,142192,1,10,0:2:0:0:
316,165,142359,1,10,0:2:0:0:
100,194,142525,1,10,0:1:0:0:
248,7,142692,1,2,0:0:0:0:
388,251,142859,6,0,P|382:320|379:364,1,94.499997116089,10|0,0:2|0:0,0:0:0:0:
297,139,143192,1,10,0:1:0:0:
184,239,143359,2,0,P|190:308|193:352,1,94.499997116089,2|8,0:0|0:2,0:0:0:0:
140,83,143692,1,10,0:2:0:0:
331,20,143859,2,0,P|325:89|319:177,1,141.749995674133,10|0,0:1|0:0,0:0:0:0:
316,212,144192,5,2,0:0:0:0:
198,16,144359,2,0,P|140:4|90:6,1,94.499997116089,10|8,0:2|0:1,0:0:0:0:
90,190,144692,1,2,0:0:0:0:
224,132,144859,1,10,0:2:0:0:
31,95,145025,1,2,0:0:0:0:
299,35,145192,2,0,L|296:82,3,47.2499985580445,10|8|8|8,0:3|0:3|0:3|0:3,0:0:0:0:
331,20,145525,6,0,L|342:101,1,67.5000025749208,14|0,0:2|0:0,0:0:0:0:
401,156,145859,2,0,L|391:222,1,67.5000025749208,10|8,0:1|0:2,0:0:0:0:
370,311,146192,1,2,0:0:0:0:
370,311,146359,2,0,L|278:295,1,67.5000025749208,8|10,0:1|0:2,0:0:0:0:
213,279,146692,1,0,0:0:0:0:
213,279,146859,6,0,L|121:295,1,67.5000025749208,10|0,0:1|0:0,0:0:0:0:
47,314,147192,1,8,0:2:0:0:
47,314,147359,2,0,L|53:228,1,67.5000025749208,10|0,0:1|0:0,0:0:0:0:
53,139,147692,1,8,0:1:0:0:
52,127,147775,1,8,0:1:0:0:
51,116,147858,1,10,0:1:0:0:
50,105,147942,1,8,0:1:0:0:
49,94,148025,1,8,0:1:0:0:
49,82,148108,1,8,0:1:0:0:
48,71,148192,6,0,B|121:52|116:97|182:78,1,135.000005149842,10|10,0:2|0:1,0:0:0:0:
257,28,148692,1,8,0:2:0:0:
257,28,148859,2,0,P|303:45|334:45,1,67.5000025749208,2|8,0:0|0:1,0:0:0:0:
463,77,149192,2,0,P|417:94|386:94,1,67.5000025749208,10|0,0:2|0:0,0:0:0:0:
314,135,149525,6,0,L|308:221,1,67.5000025749208,10|0,0:1|0:0,0:0:0:0:
387,259,149859,1,10,0:2:0:0:
387,259,150025,2,0,L|381:345,1,67.5000025749208,10|0,0:1|0:0,0:0:0:0:
295,372,150359,1,8,0:1:0:0:
295,360,150442,1,8,0:1:0:0:
293,349,150525,1,8,0:1:0:0:
292,338,150609,1,8,0:1:0:0:
291,328,150692,1,8,0:1:0:0:
290,316,150775,1,8,0:1:0:0:
290,305,150859,6,0,B|223:321|223:321|153:301,1,135.000005149842,10|10,0:2|0:1,0:0:0:0:
73,268,151359,2,0,L|80:188,1,67.5000025749208,8|2,0:2|0:0,0:0:0:0:
147,135,151692,1,8,0:1:0:0:
147,135,151859,2,0,L|140:55,1,67.5000025749208,10|0,0:2|0:0,0:0:0:0:
231,28,152192,6,0,P|274:54|320:55,1,67.5000025749208,10|0,0:1|0:0,0:0:0:0:
420,56,152525,1,8,0:2:0:0:
420,56,152692,2,0,P|452:46|480:27,1,67.5000025749208,10|0,0:1|0:0,0:0:0:0:
360,129,153025,1,8,0:1:0:0:
360,141,153108,1,8,0:1:0:0:
362,152,153191,1,10,0:1:0:0:
363,163,153275,1,8,0:1:0:0:
364,173,153358,1,8,0:1:0:0:
365,185,153441,1,8,0:1:0:0:
365,196,153525,6,0,L|376:338,1,135.000005149842,10|10,0:2|0:1,0:0:0:0:
297,384,154025,1,8,0:2:0:0:
297,384,154192,2,0,L|224:371,1,67.5000025749208,2|8,0:0|0:1,0:0:0:0:
173,305,154525,2,0,L|106:316,1,67.5000025749208,10|0,0:2|0:0,0:0:0:0:
32,262,154859,6,0,P|20:216|23:191,1,67.5000025749208,10|0,0:1|0:0,0:0:0:0:
120,212,155192,1,8,0:3:0:0:
120,212,155359,2,0,P|132:166|129:141,1,67.5000025749208,10|0,0:1|0:0,0:0:0:0:
53,79,155692,1,8,0:1:0:0:
65,67,155775,1,8,0:1:0:0:
79,58,155858,1,10,0:1:0:0:
94,51,155942,1,8,0:1:0:0:
110,46,156025,1,8,0:1:0:0:
127,43,156108,1,8,0:1:0:0:
144,42,156192,6,0,L|244:53,1,76.5000014591217,14|0,0:1|0:0,0:0:0:0:
302,155,156525,2,0,L|202:166,1,76.5000014591217,8|0,0:3|0:0,0:0:0:0:
351,18,156859,1,6,0:3:0:0:
402,99,157025,2,0,B|417:137|417:137|408:254,1,153.000002918243,8|4,0:3|0:3,0:0:0:0:
330,365,157525,6,0,P|339:328|331:290,1,76.5000014591217,10|0,0:3|0:0,0:0:0:0:
251,330,157859,1,4,0:3:0:0:
251,330,158025,1,4,0:3:0:0:
182,278,158192,1,6,0:3:0:0:
182,278,158359,1,4,0:3:0:0:
98,370,158525,2,0,P|88:333|96:295,1,76.5000014591217,8|8,0:1|0:3,0:0:0:0:
62,274,158775,1,8,0:3:0:0:
62,274,158858,6,0,P|71:237|63:199,1,76.5000014591217,10|0,0:1|0:0,0:0:0:0:
26,42,159192,2,0,P|18:79|27:116,1,76.5000014591217,8|0,0:3|0:0,0:0:0:0:
150,146,159525,1,2,0:0:0:0:
208,78,159692,2,0,P|265:61|371:85,1,153.000002918243,8|4,0:3|0:3,0:0:0:0:
476,57,160192,6,0,L|459:160,1,76.5000014591217,10|0,0:3|0:0,0:0:0:0:
441,244,160525,1,4,0:3:0:0:
441,244,160692,1,4,0:3:0:0:
347,171,160859,1,6,0:3:0:0:
347,171,161025,1,4,0:3:0:0:
253,247,161192,2,0,L|260:340,1,76.5000014591217,12|0,0:1|0:0,0:0:0:0:
298,346,161442,1,8,0:3:0:0:
298,346,161525,6,0,L|304:270,1,76.5000014591217,10|0,0:2|0:0,0:0:0:0:
167,186,161859,2,0,L|172:262,1,76.5000014591217,8|0,0:3|0:0,0:0:0:0:
319,120,162192,1,6,0:3:0:0:
242,37,162359,2,0,B|154:22|170:86|77:61,1,153.000002918243,8|4,0:3|0:3,0:0:0:0:
10,183,162859,6,0,P|73:162|113:162,1,76.5000014591217,10|0,0:3|0:0,0:0:0:0:
219,193,163192,1,4,0:3:0:0:
219,193,163359,1,4,0:3:0:0:
124,276,163525,1,6,0:3:0:0:
219,341,163692,1,4,0:3:0:0:
150,266,163859,2,0,P|114:250|77:244,1,76.5000014591217,10|8,0:1|0:3,0:0:0:0:
194,165,164192,6,0,B|241:153|300:173|325:226|325:226|341:121|417:106|493:111|539:180|543:263|475:298|386:301|424:188,1,573.750010943413,14|0,0:1|0:0,0:0:0:0:
416,222,165525,6,0,P|403:287|419:350,1,125.999996154785,2|2,0:0|0:0,0:0:0:0:
259,283,166359,1,0,0:0:0:0:
259,283,166442,1,0,0:0:0:0:
259,283,166525,2,0,P|184:263|214:316,1,155.250002961159,2|0,0:0|0:0,0:0:0:0:
277,359,166859,6,0,B|306:299|297:238|262:204|262:204|304:210|333:266,1,256.499993150711,10|0,0:2|0:0,0:0:0:0:
119,362,167525,2,0,B|84:304|88:243|120:206|120:206|79:215|55:274,1,256.499993150711,10|0,0:2|0:0,0:0:0:0:
185,99,168192,6,0,B|239:154|237:214|237:214|256:156|325:130,1,256.499993150711,10|0,0:2|0:0,0:0:0:0:
469,243,168859,2,0,B|415:298|417:358|417:358|398:300|329:274,1,256.499993150711,10|0,0:2|0:0,0:0:0:0:
383,54,169525,6,0,B|476:125|405:260|290:228|290:228|275:162|324:137|324:137|325:165|309:179,1,427.499988584519,10|0,0:2|0:0,0:0:0:0:
208,262,170525,2,0,P|161:275|106:264,1,85.4999977169037,10|0,0:2|0:0,0:0:0:0:
0,158,170859,6,0,P|40:215|143:242,1,170.999995433807,10|8,0:2|0:2,0:0:0:0:
157,21,171525,2,0,P|144:84|140:141,1,85.4999977169037,10|0,0:2|0:0,0:0:0:0:
110,134,171775,1,2,0:0:0:0:
110,134,171859,2,0,L|98:47,1,74.2500022659302,10|0,0:2|0:0,0:0:0:0:
264,60,172192,6,0,B|274:152|240:235|240:235|264:186|298:152,1,256.499993150711,10|0,0:2|0:0,0:0:0:0:
440,163,172859,2,0,B|431:261|464:338|464:338|440:289|406:255,1,256.499993150711,10|0,0:2|0:0,0:0:0:0:
226,251,173525,6,0,B|210:253|196:249|196:249|116:212|156:152|209:198|158:260|158:260|134:299|143:345,1,256.499993150711,10|0,0:2|0:0,0:0:0:0:
277,111,174192,2,0,B|293:113|306:109|306:109|386:72|347:12|294:58|344:120|344:120|369:159|360:205,1,256.499993150711,10|0,0:2|0:0,0:0:0:0:
421,274,174859,5,10,0:2:0:0:
300,336,175025,1,2,0:0:0:0:
437,247,175192,1,10,0:2:0:0:
270,199,175359,1,2,0:0:0:0:
430,103,175525,2,0,B|441:61|441:61|426:12,1,85.4999977169037,10|8,0:2|0:3,0:0:0:0:
255,87,175859,2,0,P|258:129|264:175,1,74.2500022659302,10|0,0:2|0:0,0:0:0:0:
268,196,176192,5,10,0:2:0:0:
341,52,176359,1,10,0:3:0:0:
380,263,176525,1,8,0:1:0:0:
172,31,176692,2,0,B|121:124|224:138|159:249,1,207.000003948212,14|8,0:2|0:1,0:0:0:0:
124,347,177192,1,8,0:1:0:0:
71,141,177359,1,8,0:1:0:0:
217,315,177525,6,0,P|272:362|402:309,1,188.999994232178,10|8,0:2|0:1,0:0:0:0:
466,237,178025,2,0,P|464:182|459:132,1,94.499997116089,10|0,0:2|0:0,0:0:0:0:
304,67,178359,2,0,P|299:114|298:161,1,94.499997116089,10|8,0:2|0:1,0:0:0:0:
309,277,178692,1,2,0:0:0:0:
420,67,178859,6,0,P|317:23|249:89,1,188.999994232178,10|8,0:2|0:1,0:0:0:0:
149,230,179359,2,0,P|145:179|133:123,1,94.499997116089,10|0,0:2|0:0,0:0:0:0:
325,264,179692,2,0,P|316:310|312:357,1,94.499997116089,10|8,0:2|0:1,0:0:0:0:
134,249,180025,1,2,0:0:0:0:
134,249,180109,1,2,0:0:0:0:
134,249,180192,5,10,0:2:0:0:
338,112,180359,1,2,0:0:0:0:
298,367,180525,1,10,0:1:0:0:
190,161,180692,2,0,P|194:103|224:40,1,94.499997116089,14|0,0:2|0:0,0:0:0:0:
434,178,181025,1,10,0:2:0:0:
242,281,181192,1,8,0:1:0:0:
365,39,181359,6,0,P|439:30|484:149,1,188.999994232178,14|8,0:2|0:2,0:0:0:0:
413,251,181859,1,10,0:1:0:0:
413,251,182025,2,0,P|404:190|406:142,1,94.499997116089,10|0,0:2|0:0,0:0:0:0:
264,22,182359,2,0,P|263:69|255:115,1,94.499997116089,6|8,0:2|0:1,0:0:0:0:
199,296,182692,1,10,0:2:0:0:
63,95,182859,5,14,0:2:0:0:
149,224,183025,1,2,0:0:0:0:
170,63,183192,1,10,0:1:0:0:
119,259,183359,1,2,0:0:0:0:
28,57,183525,1,10,0:2:0:0:
244,150,183692,1,10,0:2:0:0:
18,249,183859,1,10,0:1:0:0:
242,346,184025,6,0,B|344:372|344:285|458:327,1,188.999994232178,14|8,0:2|0:2,0:0:0:0:
487,157,184525,2,0,P|434:153|388:153,1,94.499997116089,8|0,0:1|0:0,0:0:0:0:
201,198,184859,1,8,0:2:0:0:
371,110,185025,1,10,0:2:0:0:
187,86,185192,1,10,0:1:0:0:
280,266,185359,1,10,0:2:0:0:
346,33,185525,6,0,P|251:61|196:57,1,141.749995674133,10|0,0:2|0:0,0:0:0:0:
167,52,185859,1,8,0:3:0:0:
77,301,186025,2,0,P|54:236|60:185,1,94.499997116089,12|6,0:1|0:3,0:0:0:0:
60,175,186275,1,0,0:0:0:0:
60,175,186359,1,0,0:0:0:0:
313,263,186525,2,0,P|268:315|221:335,1,94.499997116089,12|0,0:1|0:0,0:0:0:0:
212,340,186775,1,8,0:3:0:0:
212,340,186859,5,6,0:1:0:0:
210,117,187081,1,8,0:1:0:0:
228,130,187192,2,0,P|231:163|234:207,2,62.9999980773926,10|8|8,0:1|0:1|0:3,0:0:0:0:
304,81,187525,2,0,P|305:49|309:18,2,62.9999980773926,6|4|4,0:3|0:3|0:3,0:0:0:0:
416,132,187859,1,6,0:3:0:0:
78,378,188192,6,0,B|89:298|149:277|149:277|229:193|154:129|27:201|149:277|149:277|210:352|318:377|409:345|425:272|410:201|334:162|270:193|246:269,1,877.49995983124,14|0,0:2|0:0,0:0:0:0:
508,205,190859,6,0,B|469:239|458:311|458:311|475:187|403:115|307:108|238:154|238:154|154:215|56:224|-5:138|39:38|125:35|191:86,1,877.49995983124,2|0,0:0|0:0,0:0:0:0:
436,190,193525,6,0,B|466:276|396:350|396:350|310:286|307:161|374:84|483:24|483:24|373:80|253:35,1,818.999962509157,2|0,0:0|0:0,0:0:0:0:
77,45,196192,6,0,B|137:100|270:127|270:127|144:119|49:147|7:216|16:312|76:380|207:374|236:275|205:207,1,760.499965187074,2|0,0:0|0:0,0:0:0:0:
212,230,198525,1,2,0:0:0:0:
58,45,198859,6,0,L|145:56,1,76.5000014591217,10|0,0:2|0:0,0:0:0:0:
196,138,199192,2,0,L|108:144,1,76.5000014591217,2|0,0:0|0:0,0:0:0:0:
220,27,199525,2,0,L|307:38,1,76.5000014591217,2|0,0:0|0:0,0:0:0:0:
358,120,199859,2,0,L|270:126,1,76.5000014591217,2|8,0:0|0:2,0:0:0:0:
415,39,200192,6,0,P|451:79|458:124,1,76.5000014591217,2|0,0:0|0:0,0:0:0:0:
458,183,200525,2,0,P|441:234|405:262,1,76.5000014591217,10|0,0:2|0:0,0:0:0:0:
356,296,200859,2,0,P|303:307|260:290,1,76.5000014591217,2|2,0:0|0:0,0:0:0:0:
201,263,201192,1,2,0:0:0:0:
148,327,201359,1,2,0:0:0:0:
81,278,201525,6,0,B|47:152|140:169|88:50,1,229.500004377365,10|2,0:2|0:0,0:0:0:0:
210,72,202192,2,0,P|276:38|375:55,1,153.000002918243,2|0,0:0|0:0,0:0:0:0:
426,83,202692,1,8,0:2:0:0:
382,155,202859,6,0,P|345:135|302:124,1,76.5000014591217,0|0,0:0|0:0,0:0:0:0:
472,160,203192,2,0,P|476:203|469:251,1,76.5000014591217,8|0,0:2|0:0,0:0:0:0:
313,295,203525,2,0,P|309:256|313:218,1,76.5000014591217,0|0,0:0|0:0,0:0:0:0:
455,188,203859,2,0,P|459:226|456:265,1,76.5000014591217,0|0,0:0|0:0,0:0:0:0:
399,347,204192,6,0,L|286:334,1,76.5000014591217,10|0,0:2|0:0,0:0:0:0:
180,284,204525,2,0,L|256:276,1,76.5000014591217,10|0,0:2|0:0,0:0:0:0:
111,156,204859,2,0,L|109:233,1,76.5000014591217,10|0,0:2|0:0,0:0:0:0:
191,100,205192,2,0,L|189:24,1,76.5000014591217,10|0,0:2|0:0,0:0:0:0:
279,173,205525,5,10,0:1:0:0:
300,204,205608,1,8,0:1:0:0:
332,225,205691,1,10,0:1:0:0:
369,231,205775,1,8,0:1:0:0:
406,223,205858,1,10,0:1:0:0:
437,201,205941,1,8,0:1:0:0:
457,168,206025,1,10,0:1:0:0:
463,131,206108,1,8,0:1:0:0:
453,94,206191,1,10,0:1:0:0:
430,64,206275,1,8,0:1:0:0:
397,45,206359,1,10,0:1:0:0:
360,40,206441,1,8,0:1:0:0:
324,51,206525,1,10,0:1:0:0:
288,63,206608,1,8,0:1:0:0:
250,65,206691,1,10,0:1:0:0:
213,55,206775,1,8,0:1:0:0:
182,35,206859,6,0,P|170:110|161:211,1,153.000002918243,10|8,0:2|0:1,0:0:0:0:
45,136,207359,1,0,0:0:0:0:
6,252,207525,2,0,P|-2:310|-4:364,2,76.5000014591217,10|8|4,0:2|0:3|0:3,0:0:0:0:
120,320,208025,1,4,0:3:0:0:
179,205,208192,6,0,P|219:183|319:195,1,125.999996154785,14|8,0:1|0:1,0:0:0:0:
365,258,208525,2,0,L|374:315,2,51.0000009727478,10|8|8,0:1|0:1|0:1,0:0:0:0:
446,182,208859,2,0,L|453:131,2,51.0000009727478,10|8|4,0:3|0:3|0:3,0:0:0:0:
313,52,209192,6,0,L|225:66,1,87.749995983124,10|0,0:1|0:0,0:0:0:0:
185,77,209525,5,14,0:2:0:0:
275,288,209692,1,2,0:0:0:0:
359,73,209859,1,10,0:1:0:0:
178,235,210025,1,2,0:0:0:0:
411,156,210192,5,10,0:2:0:0:
152,67,210359,1,2,0:0:0:0:
202,328,210525,1,10,0:1:0:0:
273,25,210692,1,2,0:0:0:0:
76,311,210859,5,10,0:2:0:0:
347,226,211025,1,2,0:0:0:0:
24,167,211192,1,10,0:1:0:0:
309,266,211359,1,2,0:0:0:0:
118,55,211525,5,10,0:2:0:0:
231,349,211692,1,2,0:0:0:0:
387,54,211859,1,10,0:1:0:0:
89,230,212025,1,2,0:0:0:0:
396,347,212192,6,0,P|438:301|391:150,1,207.000003948212,10|8,0:2|0:1,0:0:0:0:
256,86,212692,1,2,0:0:0:0:
222,236,212859,2,0,P|277:233|349:227,1,103.500001974106,10|0,0:2|0:0,0:0:0:0:
231,62,213192,2,0,P|175:59|104:53,1,103.500001974106,8|0,0:1|0:0,0:0:0:0:
55,247,213525,5,8,0:2:0:0:
11,47,213692,1,2,0:0:0:0:
135,186,213859,1,10,0:1:0:0:
210,38,214025,2,0,B|308:1|307:97|419:52,1,207.000003948212,2|0,0:0|0:0,0:0:0:0:
279,137,214525,1,8,0:1:0:0:
474,215,214692,1,2,0:0:0:0:
210,296,214859,5,14,0:2:0:0:
443,186,215025,1,2,0:0:0:0:
187,71,215192,1,10,0:1:0:0:
320,334,215359,1,2,0:0:0:0:
423,60,215525,5,10,0:2:0:0:
158,205,215692,1,2,0:0:0:0:
419,305,215859,1,10,0:1:0:0:
301,30,216025,1,2,0:0:0:0:
174,325,216192,5,10,0:2:0:0:
415,160,216359,1,2,0:0:0:0:
110,131,216525,1,10,0:1:0:0:
443,323,216692,1,2,0:0:0:0:
189,35,216859,5,10,0:2:0:0:
342,368,217025,1,2,0:0:0:0:
461,23,217192,1,10,0:1:0:0:
254,317,217359,1,2,0:0:0:0:
64,45,217525,6,0,B|162:8|161:104|273:59,1,207.000003948212,10|8,0:2|0:1,0:0:0:0:
454,216,218025,1,2,0:0:0:0:
454,216,218192,2,0,P|347:248|348:348,1,207.000003948212,10|8,0:2|0:1,0:0:0:0:
101,230,218692,1,2,0:0:0:0:
101,230,218775,1,2,0:0:0:0:
101,230,218859,6,0,P|104:155|104:96,1,103.500001974106,10|0,0:2|0:0,0:0:0:0:
353,15,219192,2,0,P|353:66|356:118,1,103.500001974106,8|2,0:1|0:0,0:0:0:0:
198,297,219525,1,10,0:0:0:0:
158,330,219608,1,2,0:0:0:0:
109,346,219691,1,2,0:0:0:0:
58,341,219775,1,2,0:0:0:0:
13,317,219859,2,0,P|10:265|10:214,1,103.500001974106,10|2,0:1|0:0,0:0:0:0:
340,137,220192,6,0,P|392:132|444:127,1,103.500001974106,14|0,0:2|0:0,0:0:0:0:
266,48,220525,1,10,0:1:0:0:
209,236,220692,2,0,P|157:230|105:225,1,103.500001974106,14|0,0:2|0:0,0:0:0:0:
387,280,221025,1,10,0:2:0:0:
169,117,221192,1,10,0:1:0:0:
455,19,221359,6,0,P|456:86|450:143,1,103.500001974106,10|0,0:2|0:0,0:0:0:0:
380,302,221692,1,10,0:2:0:0:
273,134,221859,1,10,0:1:0:0:
178,316,222025,1,2,0:0:0:0:
178,316,222109,1,0,0:0:0:0:
178,316,222192,2,0,B|81:288|98:364|2:330,2,182.250000695229,6|6|6,0:3|0:3|0:3,0:0:0:0:
132,198,222859,6,0,P|187:190|241:187,1,103.500001974106,10|8,0:2|0:2,0:0:0:0:
466,357,223192,2,0,P|425:324|355:332,1,114.750002188683,12|0,0:1|0:0,0:0:0:0:
332,347,223525,2,0,P|340:286|348:232,1,103.500001974106,10|8,0:2|0:2,0:0:0:0:
110,49,223859,2,0,P|117:100|124:151,1,103.500001974106,8|2,0:1|0:0,0:0:0:0:
132,198,224109,1,2,0:0:0:0:
132,198,224192,5,10,0:2:0:0:
251,10,224359,1,8,0:2:0:0:
438,232,224525,2,0,P|395:165|320:156,1,155.250002961159,14|0,0:1|0:0,0:0:0:0:
292,176,224859,2,0,L|282:244,1,51.7500009870529,10|0,0:1|0:0,0:0:0:0:
216,325,225025,1,8,0:1:0:0:
173,352,225108,1,8,0:1:0:0:
122,356,225191,1,10,0:2:0:0:
75,335,225275,1,10,0:1:0:0:
44,295,225359,2,0,L|56:216,1,51.7500009870529,10|10,0:1|0:1,0:0:0:0:
127,45,225525,5,14,0:2:0:0:
223,297,225692,1,2,0:0:0:0:
21,156,225859,1,10,0:1:0:0:
272,88,226025,1,2,0:0:0:0:
104,284,226192,5,10,0:2:0:0:
115,21,226359,1,2,0:0:0:0:
305,221,226525,1,10,0:1:0:0:
34,109,226692,1,2,0:0:0:0:
301,41,226859,5,10,0:2:0:0:
216,328,227025,1,2,0:0:0:0:
128,46,227192,1,10,0:1:0:0:
323,259,227359,1,2,0:0:0:0:
443,25,227525,5,10,0:2:0:0:
174,161,227692,1,2,0:0:0:0:
394,340,227859,1,10,0:1:0:0:
287,16,228025,1,2,0:0:0:0:
62,175,228192,6,0,P|97:246|214:266,1,207.000003948212,10|8,0:2|0:1,0:0:0:0:
311,113,228692,1,2,0:0:0:0:
413,216,228859,2,0,P|418:289|418:344,1,103.500001974106,10|0,0:2|0:0,0:0:0:0:
174,161,229192,2,0,P|175:109|179:57,1,103.500001974106,8|0,0:1|0:0,0:0:0:0:
383,194,229525,5,8,0:2:0:0:
184,335,229692,1,2,0:0:0:0:
293,133,229859,1,10,0:1:0:0:
392,339,230025,1,2,0:0:0:0:
215,250,230192,2,0,P|203:202|202:141,1,103.500001974106,8|0,0:2|0:0,0:0:0:0:
291,18,230525,1,8,0:1:0:0:
372,182,230692,1,2,0:0:0:0:
372,182,230775,1,2,0:0:0:0:
372,182,230859,5,14,0:2:0:0:
119,88,231025,1,2,0:0:0:0:
381,0,231192,1,10,0:1:0:0:
239,254,231359,1,2,0:0:0:0:
178,4,231525,5,10,0:2:0:0:
401,207,231692,1,2,0:0:0:0:
114,250,231859,1,10,0:1:0:0:
355,27,232025,1,2,0:0:0:0:
323,329,232192,5,10,0:2:0:0:
192,32,232359,1,2,0:0:0:0:
205,352,232525,1,10,0:1:0:0:
337,54,232692,1,2,0:0:0:0:
113,282,232859,5,10,0:2:0:0:
427,108,233026,1,2,0:0:0:0:
75,153,233192,1,10,0:1:0:0:
417,270,233359,1,2,0:0:0:0:
245,71,233525,6,0,B|139:96|145:0|25:37,1,207.000003948212,10|8,0:2|0:1,0:0:0:0:
95,348,234025,1,2,0:0:0:0:
95,348,234192,2,0,P|114:290|248:271,1,207.000003948212,10|8,0:2|0:1,0:0:0:0:
370,362,234692,1,2,0:0:0:0:
370,362,234859,6,0,P|372:302|383:231,1,103.500001974106,10|0,0:2|0:0,0:0:0:0:
199,57,235192,2,0,P|205:108|206:160,1,103.500001974106,8|2,0:1|0:0,0:0:0:0:
476,214,235525,1,10,0:2:0:0:
442,175,235608,1,2,0:0:0:0:
394,156,235691,1,2,0:0:0:0:
343,161,235775,1,2,0:0:0:0:
300,189,235859,2,0,P|283:271|281:325,1,103.500001974106,8|0,0:1|0:0,0:0:0:0:
456,63,236192,6,0,P|402:58|347:54,1,103.500001974106,14|0,0:2|0:0,0:0:0:0:
249,306,236525,1,10,0:1:0:0:
16,111,236692,2,0,B|116:85|110:163|214:143,1,207.000003948212,2|0,0:0|0:0,0:0:0:0:
327,28,237192,1,10,0:1:0:0:
377,258,237359,1,2,0:0:0:0:
126,26,237525,6,0,P|123:93|120:165,1,103.500001974106,14|0,0:2|0:0,0:0:0:0:
119,351,237859,1,10,0:1:0:0:
323,175,238025,2,0,P|391:160|472:281,1,207.000003948212,2|0,0:0|0:0,0:0:0:0:
263,354,238525,2,0,P|260:302|258:250,1,103.500001974106,10|0,0:1|0:0,0:0:0:0:
364,68,238859,6,0,P|426:62|490:60,1,112.5,14|0,0:2|0:0,0:0:0:0:
211,99,239192,1,10,0:1:0:0:
433,293,239359,2,0,P|436:242|429:177,1,112.5,10|0,0:2|0:0,0:0:0:0:
271,9,239692,1,10,0:2:0:0:
205,253,239859,1,8,0:1:0:0:
34,56,240025,6,0,P|73:115|225:76,1,225,14|8,0:2|0:2,0:0:0:0:
334,226,240525,2,0,P|335:282|327:337,1,112.5,14|0,0:1|0:0,0:0:0:0:
117,168,240859,1,10,0:1:0:0:
329,111,241025,1,10,0:1:0:0:
329,111,241109,1,8,0:1:0:0:
329,111,241192,1,8,0:2:0:0:
211,258,241359,1,10,0:3:0:0:
211,258,241442,1,8,0:3:0:0:
211,258,241525,6,0,B|111:239|132:338|-4:304,1,207.000003948212,14|8,0:2|0:1,0:0:0:0:
59,117,242025,2,0,P|53:182|50:235,1,103.500001974106,0|8,0:0|0:2,0:0:0:0:
192,349,242359,1,2,0:0:0:0:
247,171,242525,1,10,0:1:0:0:
67,328,242692,1,2,0:0:0:0:
16,29,242859,6,0,B|129:0|108:98|238:75,1,207.000003948212,10|8,0:2|0:1,0:0:0:0:
378,151,243359,1,0,0:0:0:0:
234,275,243525,2,0,P|227:221|229:163,1,103.500001974106,10|2,0:2|0:0,0:0:0:0:
495,235,243859,2,0,P|495:286|489:337,1,103.500001974106,8|0,0:1|0:0,0:0:0:0:
286,98,244192,6,0,P|397:47|476:108,1,207.000003948212,10|8,0:2|0:1,0:0:0:0:
411,280,244692,2,0,P|350:257|274:259,1,103.500001974106,0|8,0:0|0:2,0:0:0:0:
159,365,245025,1,2,0:0:0:0:
337,342,245192,1,10,0:1:0:0:
130,269,245359,1,2,0:0:0:0:
378,151,245525,1,8,0:2:0:0:
233,25,245692,5,10,0:1:0:0:
183,23,245775,1,10,0:1:0:0:
139,44,245858,1,10,0:1:0:0:
98,72,245942,1,10,0:1:0:0:
51,87,246025,1,10,0:1:0:0:
2,84,246108,1,10,0:1:0:0:
2,84,247692,5,6,0:3:0:0:
2,84,247775,1,6,0:3:0:0:
2,84,247859,2,0,P|21:144|73:75,1,182.250000695229,14|0,0:1|0:0,0:0:0:0:
84,51,248192,6,0,P|145:76|200:66,1,103.500001974106,6|0,0:2|0:0,0:0:0:0:
482,188,248525,2,0,P|430:188|384:166,1,103.500001974106,8|0,0:1|0:0,0:0:0:0:
300,44,248859,1,10,0:2:0:0:
266,213,249025,2,0,P|259:282|259:328,1,103.500001974106,0|8,0:0|0:1,0:0:0:0:
84,153,249359,6,0,P|91:222|91:268,1,103.500001974106,0|10,0:0|0:2,0:0:0:0:
36,16,249692,1,0,0:0:0:0:
176,129,249859,2,0,P|229:129|279:126,1,103.500001974106,8|0,0:1|0:0,0:0:0:0:
444,45,250192,1,10,0:2:0:0:
390,223,250359,1,0,0:0:0:0:
220,36,250525,1,8,0:1:0:0:
281,222,250692,1,0,0:0:0:0:
470,30,250859,6,0,P|419:20|366:32,1,103.500001974106,10|0,0:2|0:0,0:0:0:0:
249,119,251192,1,8,0:1:0:0:
419,129,251359,1,0,0:0:0:0:
275,336,251525,2,0,P|266:281|258:213,1,103.500001974106,10|0,0:2|0:0,0:0:0:0:
433,146,251859,2,0,P|426:197|418:248,1,103.500001974106,8|0,0:1|0:0,0:0:0:0:
179,179,252192,6,0,P|232:142|291:143,1,103.500001974106,10|0,0:2|0:0,0:0:0:0:
497,304,252525,2,0,P|444:341|385:340,1,103.500001974106,8|0,0:1|0:0,0:0:0:0:
351,53,252859,2,0,P|381:99|389:150,1,103.500001974106,10|0,0:2|0:0,0:0:0:0:
290,349,253192,1,10,0:1:0:0:
191,144,253359,1,0,0:0:0:0:
62,277,253525,6,0,B|164:312|151:216|272:256,1,207.000003948212,10|8,0:2|0:1,0:0:0:0:
116,63,254025,1,0,0:0:0:0:
116,63,254192,2,0,P|85:109|77:160,1,103.500001974106,10|0,0:2|0:0,0:0:0:0:
292,156,254525,2,0,P|199:143|159:149,1,103.500001974106,8|0,0:1|0:0,0:0:0:0:
220,340,254859,6,0,P|271:339|321:327,1,103.500001974106,10|0,0:2|0:0,0:0:0:0:
316,134,255192,2,0,P|266:117|215:112,1,103.500001974106,8|0,0:1|0:0,0:0:0:0:
54,175,255525,1,10,0:2:0:0:
249,233,255692,1,0,0:0:0:0:
110,78,255859,1,8,0:1:0:0:
85,291,256025,1,0,0:0:0:0:
230,93,256192,6,0,P|350:124|426:36,1,207.000003948212,10|8,0:2|0:1,0:0:0:0:
453,267,256692,1,2,0:0:0:0:
453,267,256859,2,0,P|333:298|257:210,1,207.000003948212,10|8,0:2|0:1,0:0:0:0:
186,187,257359,1,2,0:0:0:0:
186,187,257525,6,0,P|168:246|186:321,1,103.500001974106,10|0,0:2|0:0,0:0:0:0:
311,107,257859,1,10,0:1:0:0:
215,26,258025,2,0,B|110:2|126:90|6:52,1,207.000003948212,2|0,0:0|0:0,0:0:0:0:
80,226,258525,1,10,0:1:0:0:
124,80,258692,1,2,0:0:0:0:
213,178,258859,6,0,P|273:212|384:125,1,207.000003948212,6|8,0:2|0:1,0:0:0:0:
477,34,259359,1,0,0:0:0:0:
477,34,259525,2,0,P|484:98|486:153,1,103.500001974106,10|0,0:2|0:0,0:0:0:0:
329,329,259859,2,0,P|331:277|337:225,1,103.500001974106,8|0,0:1|0:0,0:0:0:0:
259,83,260192,6,0,P|211:56|135:55,1,103.500001974106,10|0,0:2|0:0,0:0:0:0:
10,99,260525,1,10,0:1:0:0:
130,292,260692,2,0,P|186:268|177:140,1,207.000003948212,2|0,0:0|0:0,0:0:0:0:
7,335,261192,2,0,P|55:362|131:363,1,103.500001974106,10|0,0:1|0:0,0:0:0:0:
283,343,261525,6,0,P|288:290|289:231,1,103.500001974106,10|0,0:2|0:0,0:0:0:0:
440,56,261859,2,0,P|441:107|446:159,1,103.500001974106,8|0,0:1|0:0,0:0:0:0:
478,306,262192,1,10,0:2:0:0:
302,198,262359,1,2,0:0:0:0:
397,362,262525,1,10,0:1:0:0:
468,141,262692,1,2,0:0:0:0:
282,310,262859,6,0,P|228:323|148:314,1,103.500001974106,10|0,0:2|0:0,0:0:0:0:
54,245,263192,1,10,0:1:0:0:
216,159,263359,1,2,0:0:0:0:
74,117,263525,1,10,0:2:0:0:
246,193,263692,1,2,0:0:0:0:
98,90,263859,1,10,0:1:0:0:
270,48,264025,1,2,0:0:0:0:
74,210,264192,6,0,P|-9:159|3:62,1,207.000003948212,10|8,0:2|0:1,0:0:0:0:
182,15,264692,1,0,0:0:0:0:
182,15,264859,2,0,L|166:129,1,103.500001974106,10|0,0:2|0:0,0:0:0:0:
314,306,265192,2,0,P|397:255|402:203,1,155.250002961159,10|0,0:1|0:0,0:0:0:0:
377,170,265525,6,0,L|367:50,1,103.500001974106,10|0,0:2|0:0,0:0:0:0:
201,62,265859,2,0,L|185:176,1,103.500001974106,8|0,0:1|0:0,0:0:0:0:
235,314,266192,2,0,P|288:336|335:332,1,103.500001974106,10|0,0:2|0:0,0:0:0:0:
134,265,266525,2,0,P|81:287|34:283,1,103.500001974106,8|0,0:1|0:0,0:0:0:0:
289,129,266859,6,0,L|305:243,1,103.500001974106,10|0,0:2|0:0,0:0:0:0:
104,116,267192,2,0,L|118:13,1,103.500001974106,8|0,0:1|0:0,0:0:0:0:
337,53,267525,2,0,P|410:49|463:24,1,103.500001974106,10|0,0:2|0:0,0:0:0:0:
303,231,267859,2,0,P|230:227|179:200,1,103.500001974106,8|0,0:1|0:0,0:0:0:0:
449,337,268192,5,10,0:2:0:0:
510,123,268359,1,2,0:0:0:0:
351,304,268525,1,10,0:1:0:0:
301,315,268608,1,2,0:0:0:0:
251,300,268691,1,2,0:0:0:0:
215,264,268774,1,2,0:0:0:0:
202,214,268859,2,0,P|236:206|279:208,1,51.7500009870529,10|2,0:2|0:0,0:0:0:0:
421,213,269025,1,10,0:2:0:0:
441,166,269109,1,10,0:1:0:0:
437,115,269192,1,10,0:1:0:0:
409,72,269274,1,8,0:3:0:0:
364,47,269359,1,4,0:3:0:0:
313,47,269442,1,4,0:3:0:0:
268,71,269524,5,2,0:0:0:0:
180,204,269692,1,10,0:1:0:0:
340,148,269859,2,0,P|305:152|272:154,1,51.7500009870529,10|0,0:2|0:0,0:0:0:0:
131,86,270025,2,0,P|159:92|199:92,1,51.7500009870529,10|0,0:2|0:0,0:0:0:0:
296,17,270192,1,14,0:1:0:0:
76,182,270359,5,10,0:3:0:0:
49,226,270442,1,8,0:3:0:0:
41,276,270525,1,10,0:3:0:0:
53,327,270608,1,4,0:3:0:0:
82,369,270692,1,14,0:2:0:0:
256,192,270775,12,0,276192,0:0:0:0:
