osu file format v14

[General]
AudioFilename: audio.mp3
AudioLeadIn: 0
PreviewTime:46581
Countdown: 0
SampleSet: Soft
StackLeniency: 0.7
Mode: 2
LetterboxInBreaks: 0
WidescreenStoryboard: 0

[Editor]
Bookmarks: 8498,9331,14665,25331,35998,43998,82665
DistanceSpacing: 0.7
BeatDivisor: 4
GridSize: 8
TimelineZoom: 1.7

[Metadata]
Title:killy killy JOKER (TV Size)
TitleUnicode:killy killy JOKER (TV Size)
Artist:Wakeshima Kanon
ArtistUnicode:分島花音
Creator:Greaper
Version:Dako's Rain
Source:selector infected WIXOSS
Tags:Dako Jemzuu AJamez Ascendance opening op card game ruko kominato tama naotyu- japanese pop j-pop jpop anime
BeatmapID:2559893
BeatmapSetID:1231406

[Difficulty]
HPDrainRate:6
CircleSize:4
OverallDifficulty:9
ApproachRate:9
SliderMultiplier:1.8
SliderTickRate:2

[Events]
//Background and Video events
0,0,"bg.jpg",0,0
//Break Periods
//Storyboard Layer 0 (Background)
//Storyboard Layer 1 (Fail)
//Storyboard Layer 2 (Pass)
//Storyboard Layer 3 (Foreground)
//Storyboard Layer 4 (Overlay)
//Storyboard Sound Samples

[TimingPoints]
1332,333.333333333333,4,2,11,60,1,0
7998,-100,4,2,11,5,0,0
8498,-100,4,2,11,60,0,0
14665,-100,4,2,11,50,0,0
19998,-100,4,2,11,60,0,0
25332,-100,4,2,11,50,0,0
33332,-100,4,2,11,60,0,0
35998,-100,4,2,11,55,0,0
39832,-100,4,2,11,60,0,0
41331,-66.6666666666667,4,2,11,60,0,0
42498,-100,4,2,11,60,0,0
43998,-100,4,2,11,65,0,0
46665,-100,4,2,11,75,0,1
54665,-66.6666666666667,4,2,11,75,0,1
55331,-40,4,2,11,75,0,1
55998,-100,4,2,11,75,0,1
57331,-100,4,2,11,65,0,0
62665,-100,4,2,11,75,0,1
73331,-100,4,2,11,65,0,0
83998,-100,4,2,11,60,0,0
88832,-100,4,2,11,70,0,0

[Colours]
Combo1 : 174,38,38
Combo2 : 149,89,64
Combo3 : 99,99,177

[HitObjects]
256,192,6665,12,0,7998,2:0:0:0:
159,213,8498,5,8,2:3:0:0:
312,216,8665,2,0,L|312:106,1,90,8|8,2:0|2:3,2:0:0:0:
150,220,8998,1,8,2:3:0:0:
112,199,9081,1,0,2:0:0:0:
116,157,9165,1,0,2:0:0:0:
156,144,9248,1,0,2:0:0:0:
339,332,9331,6,0,B|429:332|429:332|332:322,1,180,4|8,2:0|2:0,2:0:0:0:
159,329,9998,1,8,2:3:0:0:
312,170,10165,1,8,2:3:0:0:
464,167,10331,1,8,2:0:0:0:
215,295,10498,6,0,P|129:277|131:200,1,180,0|0,2:0|2:0,2:0:0:0:
284,192,10998,1,8,2:0:0:0:
131,289,11165,2,0,L|131:182,1,90,8|0,2:3|2:0,2:0:0:0:
293,285,11498,2,0,L|405:286,1,90,8|8,2:3|2:0,2:0:0:0:
229,285,11831,1,0,2:0:0:0:
183,283,11915,1,0,2:0:0:0:
347,209,11998,6,0,P|404:188|429:75,1,180,8|8,2:3|2:0,2:0:0:0:
251,80,12665,1,8,2:3:0:0:
403,81,12831,1,8,2:3:0:0:
251,80,12998,1,8,2:0:0:0:
484,254,13165,6,0,P|486:187|366:157,1,180,4|8,2:0|2:3,2:0:0:0:
115,166,13665,2,0,L|9:166,1,90,8|0,2:0|2:0,2:0:0:0:
178,166,13998,1,8,2:3:0:0:
331,171,14165,1,8,2:3:0:0:
178,166,14331,1,8,2:3:0:0:
25,171,14498,1,0,2:0:0:0:
270,321,14665,5,4,2:0:0:0:
432,324,14998,2,0,L|432:228,1,90,2|0,2:0|2:0,2:0:0:0:
279,207,15331,2,0,L|177:207,2,90,0|2|0,2:0|2:0|2:0,2:0:0:0:
369,205,15831,1,0,2:0:0:0:
216,162,15998,6,0,L|112:163,1,90,2|0,2:0|2:0,2:0:0:0:
126,162,16331,1,0,2:0:0:0:
279,305,16498,2,0,L|406:302,1,90,2|0,2:0|2:0,2:0:0:0:
368,302,16831,1,0,2:0:0:0:
215,303,16998,2,0,L|215:199,1,90,2|8,2:0|2:3,2:0:0:0:
450,215,17331,5,4,2:0:0:0:
306,141,17665,2,0,L|417:140,1,90,2|0,2:0|2:0,2:0:0:0:
243,134,17998,2,0,L|129:131,2,90,0|2|0,2:0|2:0|2:0,2:0:0:0:
332,142,18498,1,0,2:0:0:0:
176,343,18665,6,0,L|173:227,1,90,2|0,2:0|2:0,2:0:0:0:
262,239,18998,1,0,2:0:0:0:
105,178,19165,2,0,L|106:79,1,90,2|0,2:0|2:0,2:0:0:0:
214,82,19498,1,8,2:3:0:0:
451,80,19665,2,0,L|334:79,1,90,8|8,2:0|2:3,2:0:0:0:
90,343,19998,6,0,L|89:217,1,90,4|0,2:0|2:0,2:0:0:0:
242,267,20331,2,0,P|309:227|238:185,1,180,8|8,2:0|2:3,2:0:0:0:
160,179,20831,1,8,2:3:0:0:
250,179,20998,1,0,2:0:0:0:
488,329,21165,6,0,L|279:329,1,180,8|8,2:0|2:3,2:0:0:0:
155,321,21665,2,0,P|157:270|271:176,1,180,8|8,2:0|2:3,2:0:0:0:
332,178,22165,1,8,2:3:0:0:
180,191,22331,2,0,L|89:192,1,90,8|0,2:0|2:0,2:0:0:0:
328,86,22665,6,0,L|238:86,2,90,8|0|8,2:3|2:0|2:0,2:0:0:0:
172,348,23165,2,0,L|172:257,1,90,0|8,2:0|2:3,2:0:0:0:
326,271,23498,2,0,L|448:269,1,90,8|0,2:3|2:0,2:0:0:0:
137,219,23831,6,0,P|134:167|261:108,1,180,8|8,2:0|2:3,2:0:0:0:
319,99,24331,1,8,2:0:0:0:
166,103,24498,1,0,2:0:0:0:
319,99,24665,1,8,2:0:0:0:
80,336,24831,2,0,L|14:270,1,90,4|0,2:3|2:0,2:0:0:0:
116,261,25165,1,0,2:0:0:0:
378,253,25331,6,0,P|442:203|370:167,1,180,4|8,2:0|2:3,2:0:0:0:
291,160,25831,1,0,2:0:0:0:
137,165,25998,2,0,L|134:73,1,90,8|0,2:3|2:0,2:0:0:0:
44,167,26331,2,0,L|41:75,1,90,8|0,2:3|2:0,2:0:0:0:
288,345,26665,6,0,P|290:288|192:240,1,180,8|8,2:3|2:3,2:0:0:0:
101,242,27165,1,0,2:0:0:0:
253,182,27331,2,0,L|441:180,1,180,8|8,2:3|2:3,2:0:0:0:
432,180,27831,1,4,2:3:0:0:
182,359,27998,6,0,P|83:316|212:180,1,360,8|8,2:3|2:3,2:0:0:0:
292,174,28831,1,0,2:0:0:0:
202,175,28998,1,8,2:3:0:0:
356,351,29165,6,0,L|357:148,1,180,0|0,2:0|2:0,2:0:0:0:
266,111,29665,2,0,L|172:111,1,90,8|0,2:3|2:0,2:0:0:0:
328,348,29998,2,0,P|393:300|316:262,1,180,8|0,2:3|2:0,2:0:0:0:
243,257,30498,1,4,2:3:0:0:
89,197,30665,6,0,L|280:198,1,180,8|8,2:3|2:3,2:0:0:0:
485,215,31331,2,0,L|483:25,1,180,8|8,2:3|2:3,2:0:0:0:
402,38,31831,1,0,2:0:0:0:
239,49,31998,6,0,L|52:46,1,180,8|8,2:3|2:3,2:0:0:0:
149,108,32498,1,0,2:0:0:0:
302,266,32665,2,0,L|107:269,1,180,8|8,2:3|2:3,2:0:0:0:
212,269,33165,1,0,2:0:0:0:
440,268,33331,5,8,2:3:0:0:
296,214,33498,1,2,2:0:0:0:
151,122,33665,1,8,2:3:0:0:
296,214,33831,1,0,2:0:0:0:
440,268,33998,1,10,2:3:0:0:
440,268,34165,1,0,2:0:0:0:
296,127,34331,2,0,L|195:126,1,90,8|0,2:3|2:0,2:0:0:0:
448,67,34665,6,0,L|355:66,2,90,8|8|8,2:3|2:3|2:0,2:0:0:0:
179,316,35165,2,0,L|178:178,1,90,4|0,2:0|2:0,2:0:0:0:
322,222,35498,1,8,2:0:0:0:
178,226,35665,1,8,2:0:0:0:
322,222,35831,1,8,2:0:0:0:
79,162,35998,6,0,L|179:163,1,90,8|0,2:3|2:0,2:0:0:0:
313,168,36331,1,8,2:0:0:0:
168,162,36498,2,0,L|169:65,1,90,8|0,2:3|2:0,2:0:0:0:
16,162,36831,2,0,L|16:57,1,90,8|8,2:3|2:0,2:0:0:0:
168,72,37165,1,0,2:0:0:0:
406,276,37331,6,0,L|496:275,1,90,8|0,2:3|2:0,2:0:0:0:
495,275,37665,1,8,2:0:0:0:
335,280,37831,2,0,B|256:278|256:278|255:177,1,180,8|8,2:3|2:3,2:0:0:0:
413,184,38331,1,8,2:0:0:0:
322,186,38498,1,0,2:0:0:0:
78,114,38665,5,8,2:3:0:0:
230,115,38831,1,0,2:0:0:0:
78,114,38998,1,8,2:0:0:0:
340,305,39165,2,0,L|340:210,1,90,4|0,2:0|2:0,2:0:0:0:
187,301,39498,2,0,L|187:207,1,90,8|8,2:3|2:0,2:0:0:0:
420,222,39831,6,0,L|220:223,1,180,4|8,2:0|2:3,2:0:0:0:
394,171,40331,1,8,2:0:0:0:
148,164,40498,2,0,L|148:39,1,90,4|0,2:0|2:0,2:0:0:0:
394,171,40831,2,0,P|443:152|448:24,1,180,4|0,2:0|2:0,2:0:0:0:
169,344,41331,6,0,P|83:289|181:196,1,270,4|8,2:0|2:0,2:0:0:0:
318,201,41831,1,0,2:0:0:0:
406,201,41998,1,8,2:3:0:0:
318,201,42165,1,8,2:3:0:0:
174,194,42331,1,8,2:0:0:0:
434,330,42498,6,0,P|489:268|429:213,1,180,4|8,2:0|2:3,2:0:0:0:
278,236,42998,2,0,L|161:236,1,90,8|0,2:0|2:0,2:0:0:0:
341,238,43331,1,8,2:3:0:0:
341,238,43498,1,8,2:3:0:0:
61,83,43665,1,8,2:0:0:0:
61,83,43831,1,0,2:0:0:0:
306,300,43998,5,4,2:0:0:0:
351,300,44081,1,0,2:0:0:0:
342,255,44165,1,8,2:0:0:0:
297,245,44248,1,8,2:0:0:0:
151,228,44331,2,0,L|74:227,1,45,8|8,2:0|2:0,2:0:0:0:
252,185,44498,2,0,L|380:185,1,90,4|8,2:0|2:0,2:0:0:0:
297,128,44748,1,8,2:0:0:0:
252,127,44831,1,8,2:0:0:0:
206,128,44915,1,8,2:0:0:0:
61,135,44998,2,0,B|39:95|39:95|66:144,1,90,4|8,2:0|2:0,2:0:0:0:
332,49,45331,5,4,2:0:0:0:
61,326,45498,2,0,P|61:266|161:203,1,180,8|8,2:0|2:3,2:0:0:0:
206,199,45915,1,0,2:0:0:0:
372,195,45998,2,0,L|372:79,1,90,8|8,2:0|2:3,2:0:0:0:
118,182,46331,1,8,2:0:0:0:
19,142,46498,2,0,L|65:142,1,45,0|0,2:0|2:0,2:0:0:0:
266,299,46665,6,0,L|381:298,1,90,4|0,2:0|2:0,2:0:0:0:
112,326,46998,2,0,L|112:208,1,90,8|0,2:0|2:0,2:0:0:0:
276,210,47331,2,0,L|366:210,1,90,0|0,2:3|2:0,2:0:0:0:
212,123,47665,1,8,2:0:0:0:
60,122,47831,1,0,2:0:0:0:
295,115,47998,6,0,L|295:225,1,90,8|0,2:3|2:0,2:0:0:0:
60,212,48331,2,0,L|60:102,1,90,8|0,2:0|2:0,2:0:0:0:
216,118,48665,1,8,2:3:0:0:
359,125,48831,1,0,2:0:0:0:
216,118,48998,1,8,2:0:0:0:
359,125,49165,1,0,2:0:0:0:
108,357,49331,6,0,P|109:293|221:246,1,180,8|8,2:3|2:0,2:0:0:0:
310,243,49831,1,0,2:0:0:0:
58,253,49998,2,0,P|80:206|206:150,1,180,8|8,2:3|2:0,2:0:0:0:
280,133,50498,1,0,2:0:0:0:
37,131,50665,5,8,2:3:0:0:
189,132,50831,1,0,2:0:0:0:
37,131,50998,1,8,2:0:0:0:
289,233,51165,2,0,L|289:141,1,90,0|8,2:0|2:3,2:0:0:0:
126,337,51498,2,0,L|15:337,2,90,0|8|0,2:0|2:0|2:0,2:0:0:0:
180,337,51915,1,0,2:0:0:0:
351,342,51998,5,4,2:0:0:0:
441,350,52165,1,0,2:0:0:0:
288,344,52331,2,0,L|288:233,1,90,8|0,2:0|2:0,2:0:0:0:
442,172,52665,2,0,L|350:172,1,90,8|0,2:3|2:0,2:0:0:0:
99,175,52998,2,0,L|191:175,1,90,8|0,2:0|2:0,2:0:0:0:
479,315,53331,6,0,L|479:212,1,90,8|0,2:3|2:0,2:0:0:0:
325,228,53665,1,8,2:0:0:0:
218,226,53831,1,0,2:0:0:0:
480,172,53998,1,8,2:3:0:0:
335,172,54165,1,0,2:0:0:0:
191,168,54331,1,8,2:0:0:0:
46,171,54498,1,0,2:0:0:0:
317,348,54665,6,0,L|47:348,1,270,8|8,2:3|2:0,2:0:0:0:
47,348,55165,1,0,2:0:0:0:
271,296,55331,2,0,L|523:296,1,225,8|0,2:3|2:0,2:0:0:0:
346,228,55665,1,8,2:0:0:0:
199,232,55831,1,0,2:0:0:0:
451,242,55998,6,0,P|451:200|338:143,1,180,8|8,2:3|2:0,2:0:0:0:
262,227,56498,1,0,2:0:0:0:
18,227,56665,2,0,L|206:227,1,180,8|8,2:3|2:0,2:0:0:0:
108,225,57165,1,0,2:0:0:0:
351,241,57331,6,0,L|351:132,1,90,8|0,2:3|2:0,2:0:0:0:
261,149,57665,1,8,2:0:0:0:
494,182,57831,2,0,L|494:73,1,90,4|0,2:0|2:0,2:0:0:0:
349,95,58165,1,8,2:3:0:0:
206,97,58331,1,8,2:0:0:0:
449,340,58498,6,0,P|449:289|343:228,1,180,8|8,2:3|2:3,2:0:0:0:
197,225,58998,1,8,2:0:0:0:
197,225,59165,1,0,2:0:0:0:
440,200,59331,2,0,L|440:102,1,90,12|0,2:0|2:0,2:0:0:0:
274,113,59581,2,0,L|167:114,1,90,12|0,2:0|2:0,2:0:0:0:
350,119,59831,2,0,L|418:119,1,45,12|0,2:0|2:0,2:0:0:0:
214,315,59998,6,0,L|107:315,1,90,8|8,2:3|2:3,2:0:0:0:
379,182,60331,2,0,L|379:290,1,90,12|0,2:0|2:0,2:0:0:0:
133,267,60665,2,0,L|250:265,1,90,8|8,2:3|2:3,2:0:0:0:
493,272,60998,2,0,L|493:174,1,90,8|0,2:0|2:0,2:0:0:0:
429,188,61248,1,0,2:0:0:0:
248,192,61331,6,0,L|149:192,1,90,8|8,2:3|2:3,2:0:0:0:
442,165,61665,2,0,L|443:72,1,90,8|0,2:0|2:0,2:0:0:0:
189,345,61998,1,8,2:0:0:0:
140,316,62081,1,8,2:0:0:0:
148,264,62165,1,8,2:0:0:0:
196,248,62248,1,8,2:0:0:0:
360,344,62331,1,8,2:3:0:0:
409,315,62415,1,8,2:3:0:0:
244,264,62498,1,8,2:0:0:0:
196,248,62581,1,8,2:0:0:0:
378,213,62665,6,0,L|476:213,1,90,4|0,2:0|2:0,2:0:0:0:
315,170,62998,1,8,2:0:0:0:
224,170,63165,1,0,2:0:0:0:
353,170,63331,2,0,L|446:170,1,90,8|0,2:3|2:0,2:0:0:0:
397,114,63581,1,0,2:0:0:0:
222,68,63665,2,0,L|95:68,1,90,8|0,2:0|2:0,2:0:0:0:
367,348,63998,6,0,L|367:227,1,90,8|0,2:3|2:0,2:0:0:0:
214,344,64331,2,0,L|98:343,1,90,8|0,2:0|2:0,2:0:0:0:
278,265,64665,1,8,2:3:0:0:
188,265,64831,1,0,2:0:0:0:
360,199,64998,2,0,L|360:103,1,90,8|0,2:0|2:0,2:0:0:0:
106,191,65331,6,0,P|107:133|224:82,1,180,8|8,2:3|2:0,2:0:0:0:
293,80,65831,1,0,2:0:0:0:
44,192,65998,2,0,L|250:192,1,180,8|8,2:3|2:0,2:0:0:0:
314,195,66498,1,0,2:0:0:0:
78,128,66665,6,0,L|78:38,1,90,8|0,2:3|2:0,2:0:0:0:
231,127,66998,1,8,2:0:0:0:
384,125,67165,1,0,2:0:0:0:
231,127,67331,2,0,L|231:235,1,90,8|0,2:3|2:0,2:0:0:0:
385,223,67665,1,8,2:0:0:0:
475,223,67831,2,0,L|425:223,1,45,0|0,2:0|2:0,2:0:0:0:
244,218,67998,5,4,2:0:0:0:
180,218,68165,1,0,2:0:0:0:
333,165,68331,1,8,2:0:0:0:
397,165,68498,1,0,2:0:0:0:
244,218,68665,1,8,2:3:0:0:
127,222,68831,1,0,2:0:0:0:
289,111,68998,1,8,2:0:0:0:
289,111,69165,1,0,2:0:0:0:
28,139,69331,6,0,L|28:38,1,90,8|0,2:3|2:0,2:0:0:0:
182,52,69665,2,0,L|182:153,1,90,8|0,2:0|2:0,2:0:0:0:
335,142,69998,1,8,2:3:0:0:
182,142,70165,1,0,2:0:0:0:
335,142,70331,1,8,2:0:0:0:
182,142,70498,1,0,2:0:0:0:
434,350,70665,6,0,P|492:299|429:238,1,180,4|8,2:0|2:0,2:0:0:0:
344,238,71165,1,0,2:0:0:0:
191,236,71331,2,0,L|295:236,1,90,8|0,2:3|2:0,2:0:0:0:
127,239,71665,1,8,2:0:0:0:
127,149,71831,1,0,2:0:0:0:
380,141,71998,6,0,L|201:141,1,180,8|8,2:3|2:0,2:0:0:0:
200,141,72498,1,0,2:0:0:0:
353,94,72665,1,8,2:3:0:0:
393,94,72748,1,0,2:0:0:0:
433,94,72831,1,0,2:0:0:0:
281,86,72998,1,8,2:0:0:0:
191,91,73165,1,0,2:0:0:0:
469,265,73331,6,0,L|469:163,1,90,8|0,2:3|2:0,2:0:0:0:
314,181,73665,1,8,2:0:0:0:
77,204,73831,2,0,P|29:147|106:90,1,180,0|0,2:0|2:0,2:0:0:0:
248,56,74331,1,8,2:0:0:0:
392,57,74498,1,0,2:0:0:0:
152,221,74665,6,0,P|151:162|270:117,1,180,4|8,2:0|2:0,2:0:0:0:
336,109,75165,1,0,2:0:0:0:
184,219,75331,2,0,L|184:122,1,90,8|0,2:3|2:0,2:0:0:0:
413,226,75665,2,0,L|481:157,1,90,8|0,2:0|2:0,2:0:0:0:
206,315,75998,6,0,L|312:314,2,90,4|0|8,2:0|2:0|2:0,2:0:0:0:
458,319,76498,2,0,L|458:222,1,90,8|0,2:0|2:0,2:0:0:0:
206,315,76831,2,0,L|206:218,1,90,8|8,2:3|2:0,2:0:0:0:
493,210,77165,6,0,L|291:210,1,180,0|8,2:0|2:3,2:0:0:0:
69,204,77665,2,0,L|148:125,1,90,8|0,2:0|2:0,2:0:0:0:
377,335,77998,2,0,L|493:335,1,90,8|8,2:0|2:0,2:0:0:0:
454,301,78248,1,8,2:0:0:0:
273,255,78331,1,8,2:0:0:0:
243,214,78415,1,8,2:0:0:0:
273,255,78498,1,8,2:3:0:0:
313,278,78581,1,8,2:3:0:0:
494,180,78665,6,0,L|385:180,2,90
235,184,79165,2,0,L|334:184,1,90,0|8,2:0|2:3,2:0:0:0:
177,183,79498,1,0,2:0:0:0:
33,182,79665,1,8,2:0:0:0:
177,183,79831,1,0,2:0:0:0:
421,317,79998,5,8,2:3:0:0:
267,320,80165,1,0,2:0:0:0:
421,317,80331,1,8,2:0:0:0:
321,137,80498,1,0,2:0:0:0:
158,133,80665,2,0,L|68:133,3,90,8|0|8|0,2:3|2:0|2:0|2:0,2:0:0:0:
308,342,81331,6,0,L|488:342,1,180,8|8,2:3|2:0,2:0:0:0:
244,340,81831,2,0,L|150:340,1,90,0|8,2:0|2:3,2:0:0:0:
308,252,82165,1,0,2:0:0:0:
156,253,82331,2,0,L|156:138,1,90,8|0,2:0|2:0,2:0:0:0:
466,253,82665,6,0,P|466:209|377:150,1,135,8|8,2:3|2:3,2:0:0:0:
240,147,82998,1,8,2:3:0:0:
195,147,83081,1,8,2:3:0:0:
209,105,83165,1,8,2:0:0:0:
254,105,83248,1,8,2:0:0:0:
439,358,83331,2,0,L|456:304,1,45,12|0,2:0|2:0,2:0:0:0:
254,105,83498,1,8,2:0:0:0:
69,98,83831,2,0,L|69:41,1,45,0|0,2:0|2:0,2:0:0:0:
254,105,83998,6,0,L|351:105,1,90,8|0,2:3|2:0,2:0:0:0:
119,255,84331,2,0,L|28:255,1,90,8|0,2:0|2:0,2:0:0:0:
192,193,84665,1,8,2:3:0:0:
29,255,84831,1,8,2:3:0:0:
192,193,84998,1,8,2:0:0:0:
440,194,85165,6,0,L|440:6,1,180,0|0,2:0|2:0,2:0:0:0:
287,18,85665,1,8,2:0:0:0:
43,203,85831,2,0,L|43:106,1,90,8|0,2:3|2:0,2:0:0:0:
289,196,86165,2,0,L|289:99,1,90,8|8,2:3|2:0,2:0:0:0:
43,113,86498,2,0,L|105:113,1,45,0|0,2:0|2:0,2:0:0:0:
273,304,86665,6,0,P|321:300|343:216,1,135,8|0,2:3|2:0,2:0:0:0:
182,224,86998,2,0,L|80:224,1,90,8|0,2:0|2:0,2:0:0:0:
328,163,87331,1,8,2:3:0:0:
100,105,87498,2,0,L|171:105,1,45,8|0,2:3|2:0,2:0:0:0:
321,103,87665,2,0,L|371:52,1,45,8|0,2:0|2:0,2:0:0:0:
164,303,87831,6,0,P|103:263|172:210,1,180,4|8,2:0|2:3,2:0:0:0:
406,203,88331,2,0,L|405:102,1,90,8|8,2:0|2:3,2:0:0:0:
350,117,88581,1,8,2:3:0:0:
295,122,88665,1,8,2:3:0:0:
61,122,88831,1,8,2:0:0:0:
295,122,88998,1,8,2:0:0:0:
25,122,89165,1,12,2:0:0:0:
