osu file format v14

[General]
AudioFilename: audio.mp3
AudioLeadIn: 0
PreviewTime:46581
Countdown: 0
SampleSet: Soft
StackLeniency: 0.7
Mode: 2
LetterboxInBreaks: 0
WidescreenStoryboard: 1

[Editor]
Bookmarks: 9331,13165,19998,25331,33331,34665,35998,38665,41331,42498,43998,45331,46665,49331,51998,54665,57331,59331,61331,62665,65331,67998,70665,73331,75998,77165,78665,81331,83331,83998,86665,87831,88831,89165
DistanceSpacing: 0.7
BeatDivisor: 2
GridSize: 16
TimelineZoom: 1

[Metadata]
Title:killy killy JOKER (TV Size)
TitleUnicode:killy killy JOKER (TV Size)
Artist:Wakeshima Kanon
ArtistUnicode:分島花音
Creator:Greaper
Version:Cup
Source:selector infected WIXOSS
Tags:Dako Jemzuu AJamez Ascendance opening op card game ruko kominato tama naotyu- japanese pop j-pop jpop anime
BeatmapID:2747484
BeatmapSetID:1231406

[Difficulty]
HPDrainRate:3
CircleSize:2.5
OverallDifficulty:6
ApproachRate:6
SliderMultiplier:1.2
SliderTickRate:1

[Events]
//Background and Video events
0,0,"bg.jpg",0,0
//Break Periods
//Storyboard Layer 0 (Background)
//Storyboard Layer 1 (Fail)
//Storyboard Layer 2 (Pass)
//Storyboard Layer 3 (Foreground)
//Storyboard Layer 4 (Overlay)
//Storyboard Sound Samples

[TimingPoints]
1332,333.333333333333,4,2,11,60,1,0
7998,-100,4,2,11,5,0,0
8665,-100,4,2,11,60,0,0
14665,-100,4,2,11,50,0,0
19998,-100,4,2,11,60,0,0
25331,-100,4,2,11,50,0,0
33332,-100,4,2,11,60,0,0
35998,-100,4,2,11,55,0,0
39832,-100,4,2,11,60,0,0
43998,-100,4,2,11,65,0,0
46665,-90.9090909090909,4,2,11,75,0,1
57331,-100,4,2,11,65,0,0
62665,-90.9090909090909,4,2,11,75,0,1
73331,-100,4,2,11,65,0,0
83998,-100,4,2,11,60,0,0
88832,-100,4,2,11,70,0,0

[Colours]
Combo1 : 174,38,38
Combo2 : 149,89,64
Combo3 : 99,99,177

[HitObjects]
256,192,6665,12,0,7998,2:0:0:0:
155,213,8665,6,0,L|146:75,1,120,8|8,2:0|2:3,2:0:0:0:
298,96,9331,6,0,P|373:191|299:247,1,240,4|8,2:0|2:3,2:0:0:0:
179,259,10331,1,8,2:0:0:0:
317,293,10665,6,0,L|501:306,1,180,8|8,2:3|2:3,2:0:0:0:
488,216,11498,1,8,2:3:0:0:
268,212,11998,6,0,L|124:202,1,120,8|8,2:3|2:0,2:0:0:0:
275,153,12665,2,0,L|278:84,1,60,8|8,2:3|2:3,2:0:0:0:
213,78,12998,1,8,2:0:0:0:
131,73,13165,6,0,P|75:122|125:205,1,180,4|8,2:0|2:0,2:0:0:0:
236,204,13998,2,0,L|378:233,1,120,8|8,2:3|2:3,2:0:0:0:
209,279,14665,5,4,2:0:0:0:
90,277,14998,2,0,L|87:122,1,120,2|0,2:0|2:0,2:0:0:0:
149,149,15498,1,2,2:0:0:0:
273,140,15831,1,0,2:0:0:0:
194,95,15998,6,0,L|188:232,1,120,2|0,2:0|2:0,2:0:0:0:
246,221,16498,2,0,L|380:232,1,120,2|0,2:0|2:0,2:0:0:0:
365,293,16998,1,2,2:0:0:0:
206,299,17331,5,4,2:0:0:0:
87,302,17665,2,0,L|74:156,1,120,2|0,2:0|2:0,2:0:0:0:
137,168,18165,1,2,2:0:0:0:
261,150,18498,1,0,2:0:0:0:
351,134,18665,6,0,L|363:263,1,120,2|0,2:0|2:0,2:0:0:0:
303,262,19165,1,2,2:0:0:0:
182,282,19498,2,0,L|178:206,1,60,8|8,2:3|2:0,2:0:0:0:
334,303,19998,6,0,L|473:296,1,120,4|8,2:0|2:0,2:0:0:0:
457,231,20498,1,0,2:0:0:0:
287,215,20998,1,0,2:0:0:0:
366,200,21165,6,0,L|493:188,1,120,8|8,2:0|2:3,2:0:0:0:
485,122,21665,1,8,2:0:0:0:
364,169,21998,2,0,L|241:159,1,120,8|8,2:3|2:0,2:0:0:0:
392,140,22665,6,0,L|396:17,1,120,8|8,2:3|2:0,2:0:0:0:
337,12,23165,1,0,2:0:0:0:
222,27,23498,2,0,L|221:103,1,60,8|0,2:3|2:0,2:0:0:0:
294,96,23831,6,0,L|100:116,1,180,8|8,2:0|2:0,2:0:0:0:
244,157,24665,2,0,L|325:165,1,60,8|4,2:0|2:3,2:0:0:0:
305,222,25165,1,0,2:0:0:0:
217,341,25331,6,0,L|207:220,1,120,4|8,2:0|2:3,2:0:0:0:
327,293,25998,2,0,L|334:156,1,120,8|8,2:3|2:3,2:0:0:0:
194,137,26665,6,0,L|58:127,1,120,8|8,2:3|2:3,2:0:0:0:
208,93,27331,2,0,L|356:108,1,120,8|8,2:3|2:3,2:0:0:0:
322,167,27831,1,4,2:3:0:0:
237,177,27998,6,0,P|154:238|261:299,1,240,8|8,2:3|2:3,2:0:0:0:
356,311,28998,1,8,2:3:0:0:
443,303,29165,6,0,P|485:248|398:157,1,180,0|8,2:0|2:3,2:0:0:0:
313,164,29998,2,0,L|306:298,1,120,8|0,2:3|2:0,2:0:0:0:
435,281,30665,6,0,L|275:295,1,120,8|8,2:3|2:3,2:0:0:0:
196,313,31331,2,0,L|318:308,1,120,8|8,2:3|2:3,2:0:0:0:
161,236,31998,6,0,L|148:88,1,120,8|8,2:3|2:3,2:0:0:0:
274,108,32665,2,0,L|411:99,1,120,8|8,2:3|2:3,2:0:0:0:
232,72,33331,6,0,P|178:121|266:243,1,240,8|10,2:3|2:3,2:0:0:0:
374,233,34331,1,8,2:3:0:0:
226,283,34665,6,0,L|103:298,1,120,8|8,2:3|2:0,2:0:0:0:
102,229,35165,1,4,2:0:0:0:
223,208,35498,2,0,L|226:114,1,60,8|8,2:0|2:0,2:0:0:0:
76,133,35998,6,0,L|206:132,1,120,8|8,2:3|2:0,2:0:0:0:
254,126,36498,1,8,2:3:0:0:
257,44,36831,1,8,2:3:0:0:
136,40,37165,1,0,2:0:0:0:
206,39,37331,6,0,L|336:49,1,120,8|8,2:3|2:0,2:0:0:0:
383,104,37831,2,0,L|394:239,1,120,8|8,2:3|2:3,2:0:0:0:
276,240,38498,1,0,2:0:0:0:
354,246,38665,6,0,L|488:273,1,120,8|8,2:3|2:0,2:0:0:0:
408,315,39165,2,0,L|284:299,1,120,4|8,2:0|2:3,2:0:0:0:
135,286,39831,6,0,P|76:253|141:181,1,180,4|8,2:0|2:0,2:0:0:0:
194,165,40498,1,4,2:0:0:0:
54,179,40831,2,0,L|42:46,1,120,4|0,2:0|2:0,2:0:0:0:
120,47,41331,6,0,L|255:41,1,120,4|8,2:0|2:0,2:0:0:0:
125,109,41998,2,0,L|115:234,1,120,8|8,2:3|2:0,2:0:0:0:
194,228,42498,6,0,L|403:244,1,180,4|8,2:0|2:0,2:0:0:0:
368,302,43331,1,8,2:3:0:0:
249,317,43665,1,8,2:0:0:0:
406,320,43998,6,0,L|280:318,1,120,4|8,2:0|2:0,2:0:0:0:
177,255,44665,2,0,L|306:260,1,120,8|4,2:0|2:0,2:0:0:0:
456,254,45331,5,4,2:0:0:0:
460,172,45498,2,0,L|309:154,1,120,8|8,2:0|2:3,2:0:0:0:
283,153,45998,2,0,L|275:284,1,120,8|8,2:0|2:0,2:0:0:0:
432,276,46665,6,0,L|284:295,1,132,4|8,2:0|2:0,2:0:0:0:
431,220,47331,2,0,L|430:83,1,132,0|8,2:3|2:0,2:0:0:0:
295,83,47998,6,0,L|136:75,1,132,8|8,2:3|2:0,2:0:0:0:
296,142,48665,2,0,L|434:158,1,132,8|8,2:3|2:0,2:0:0:0:
261,152,49331,6,0,P|202:231|270:300,1,198,8|0,2:3|2:0,2:0:0:0:
324,302,49998,1,8,2:3:0:0:
324,220,50331,1,8,2:0:0:0:
164,184,50665,5,8,2:3:0:0:
100,162,50831,2,0,L|95:95,1,66,0|8,2:0|2:0,2:0:0:0:
158,77,51165,2,0,L|333:67,1,132,0|0,2:0|2:0,2:0:0:0:
296,134,51831,1,0,2:0:0:0:
198,138,51998,6,0,L|45:149,1,132,4|8,2:0|2:0,2:0:0:0:
207,192,52665,2,0,L|216:328,1,132,8|8,2:3|2:0,2:0:0:0:
67,318,53331,6,0,L|213:324,1,132,8|8,2:3|2:0,2:0:0:0:
330,320,53998,2,0,L|334:184,1,132,8|8,2:3|2:0,2:0:0:0:
166,185,54665,6,0,P|171:137|301:51,1,198,8|0,2:3|2:0,2:0:0:0:
348,51,55331,1,8,2:3:0:0:
474,52,55665,1,8,2:0:0:0:
388,123,55831,6,0,L|236:142,2,132,0|0|0,2:0|2:0|2:0,2:0:0:0:
456,144,56665,1,8,2:3:0:0:
322,198,56998,2,0,L|249:212,1,66,8|0,2:0|2:0,2:0:0:0:
167,216,57331,6,0,L|160:75,1,120,8|8,2:3|2:0,2:0:0:0:
226,90,57831,2,0,L|364:81,1,120,4|8,2:0|2:3,2:0:0:0:
352,149,58331,1,8,2:0:0:0:
274,155,58498,5,8,2:3:0:0:
151,169,58831,2,0,L|147:241,1,60,8|8,2:3|2:0,2:0:0:0:
310,240,59331,2,0,L|418:251,2,90,12|12|12,2:0|2:0|2:0,2:0:0:0:
248,219,59998,6,0,L|239:83,1,120,8|12,2:3|2:0,2:0:0:0:
360,146,60665,2,0,L|367:17,1,120,8|8,2:3|2:0,2:0:0:0:
215,26,61331,6,0,L|75:19,1,120,8|8,2:3|2:0,2:0:0:0:
225,86,61998,2,0,L|235:223,1,120,8|8,2:0|2:3,2:0:0:0:
81,215,62665,6,0,L|212:225,1,132,4|8,2:0|2:0,2:0:0:0:
89,153,63331,2,0,L|85:16,1,132,8|8,2:3|2:0,2:0:0:0:
238,139,63998,6,0,L|242:5,1,132,8|8,2:3|2:0,2:0:0:0:
380,151,64665,2,0,L|386:13,1,132,8|8,2:3|2:0,2:0:0:0:
230,24,65331,6,0,L|19:21,1,198,8|0,2:3|2:0,2:0:0:0:
36,95,65998,1,8,2:3:0:0:
164,99,66331,1,8,2:0:0:0:
335,116,66665,5,8,2:3:0:0:
401,131,66831,2,0,L|401:213,1,66,0|8,2:0|2:0,2:0:0:0:
330,185,67165,2,0,L|200:206,1,132,0|0,2:0|2:0,2:0:0:0:
340,244,67831,1,0,2:0:0:0:
241,263,67998,6,0,L|96:276,1,132,4|8,2:0|2:0,2:0:0:0:
249,313,68665,2,0,L|381:305,1,132,8|8,2:3|2:0,2:0:0:0:
219,255,69331,6,0,L|208:124,1,132,8|8,2:3|2:0,2:0:0:0:
336,113,69998,2,0,L|486:108,1,132,8|8,2:3|2:0,2:0:0:0:
296,76,70665,6,0,P|228:155|291:209,1,198,4|0,2:0|2:0,2:0:0:0:
348,213,71331,1,8,2:3:0:0:
473,218,71665,2,0,L|480:288,1,66,8|0,2:0|2:0,2:0:0:0:
390,302,71998,6,0,L|235:316,1,132,8|8,2:3|2:0,2:0:0:0:
190,321,72498,2,0,L|186:241,1,66,0|8,2:0|2:3,2:0:0:0:
313,223,72998,1,8,2:0:0:0:
148,156,73331,6,0,L|21:146,1,120,8|8,2:3|2:0,2:0:0:0:
23,84,73831,1,0,2:0:0:0:
210,81,74331,2,0,L|215:176,1,60,8|0,2:0|2:0,2:0:0:0:
139,158,74665,6,0,L|273:166,1,120,4|8,2:0|2:0,2:0:0:0:
381,175,75331,2,0,L|390:307,1,120,8|8,2:3|2:0,2:0:0:0:
231,301,75998,6,0,L|82:297,1,120,4|8,2:0|2:0,2:0:0:0:
106,218,76498,1,8,2:0:0:0:
226,199,76831,1,8,2:3:0:0:
391,187,77165,6,0,P|446:136|380:72,1,180,0|8,2:0|2:0,2:0:0:0:
268,72,77998,2,0,L|266:209,1,120,8|8,2:0|2:0,2:0:0:0:
409,197,78665,6,0,L|264:202,1,120,4|8,2:0|2:0,2:0:0:0:
283,268,79165,1,0,2:0:0:0:
409,221,79498,2,0,L|410:296,1,60,0|8,2:0|2:0,2:0:0:0:
335,303,79831,6,0,L|105:324,1,180,0|8,2:0|2:0,2:0:0:0:
273,250,80665,2,0,L|274:177,1,60,8|0,2:3|2:0,2:0:0:0:
161,179,81165,1,0,2:0:0:0:
73,173,81331,6,0,L|66:41,1,120,8|8,2:3|2:0,2:0:0:0:
188,45,81998,1,8,2:3:0:0:
129,60,82165,2,0,L|125:131,1,60,0|8,2:0|2:0,2:0:0:0:
258,127,82665,6,0,L|389:132,1,120,8|8,2:3|2:3,2:0:0:0:
222,176,83331,2,0,L|216:237,1,60,12|8,2:0|2:0,2:0:0:0:
430,134,83998,6,0,L|436:283,1,120,8|8,2:3|2:0,2:0:0:0:
314,272,84665,2,0,L|251:282,2,60,8|8|8,2:3|2:3|2:0,2:0:0:0:
394,259,85165,6,0,P|446:208|396:124,1,180,0|8,2:0|2:0,2:0:0:0:
331,117,85831,1,8,2:3:0:0:
198,113,86165,2,0,L|190:246,1,120,8|0,2:3|2:0,2:0:0:0:
277,241,86665,6,0,L|411:248,2,120,8|8|8,2:3|2:0|2:3,2:0:0:0:
155,228,87665,1,8,2:0:0:0:
246,183,87831,6,0,L|253:36,1,120,4|8,2:0|2:3,2:0:0:0:
177,53,88331,1,8,2:0:0:0:
405,67,88831,2,0,L|487:73,2,60,8|8|12,2:0|2:0|2:0,2:0:0:0:
