osu file format v14

[General]
AudioFilename: audio.mp3
AudioLeadIn: 0
PreviewTime:46581
Countdown: 0
SampleSet: Soft
StackLeniency: 0.7
Mode: 2
LetterboxInBreaks: 0
WidescreenStoryboard: 1

[Editor]
DistanceSpacing: 0.7
BeatDivisor: 2
GridSize: 32
TimelineZoom: 1.9

[Metadata]
Title:killy killy JOKER (TV Size)
TitleUnicode:killy killy JOKER (TV Size)
Artist:Wakeshima Kanon
ArtistUnicode:分島花音
Creator:Greaper
Version:Ascendance's Overdose
Source:selector infected WIXOSS
Tags:Dako Jemzuu AJamez Ascendance opening op card game ruko kominato tama naotyu- japanese pop j-pop jpop anime
BeatmapID:2763128
BeatmapSetID:1231406

[Difficulty]
HPDrainRate:6
CircleSize:4.2
OverallDifficulty:9.2
ApproachRate:9.2
SliderMultiplier:2.1
SliderTickRate:2

[Events]
//Background and Video events
0,0,"bg.jpg",0,0
//Break Periods
//Storyboard Layer 0 (Background)
//Storyboard Layer 1 (Fail)
//Storyboard Layer 2 (Pass)
//Storyboard Layer 3 (Foreground)
//Storyboard Layer 4 (Overlay)
//Storyboard Sound Samples

[TimingPoints]
1332,333.333333333333,4,2,11,60,1,0
1332,-125,4,2,11,60,0,0
7998,-100,4,2,11,25,0,0
8331,-100,4,2,11,35,0,0
8498,-100,4,2,11,60,0,0
14665,-100,4,2,11,50,0,0
14998,-117.647058823529,4,2,11,50,0,0
19665,-100,4,2,11,50,0,0
19998,-100,4,2,11,60,0,0
25331,-117.647058823529,4,2,11,50,0,0
33332,-100,4,2,11,60,0,0
35998,-100,4,2,11,55,0,0
39832,-100,4,2,11,60,0,0
43998,-100,4,2,11,65,0,0
46665,-100,4,2,11,75,0,1
57331,-100,4,2,11,65,0,0
59331,-100,4,2,11,65,0,0
59581,-100,4,2,11,65,0,0
59998,-100,4,2,11,65,0,0
62665,-100,4,2,11,75,0,1
73331,-100,4,2,11,65,0,0
83998,-100,4,2,11,60,0,0
88832,-100,4,2,11,70,0,0

[Colours]
Combo1 : 174,38,38
Combo2 : 149,89,64
Combo3 : 99,99,177

[HitObjects]
216,73,1332,6,0,L|31:51,1,168,2|0,0:0|0:0,0:0:0:0:
217,185,1998,2,0,L|32:164,1,168
223,265,2665,2,0,L|408:243,1,168,2|0,0:0|0:0,0:0:0:0:
222,377,3331,2,0,L|407:356,1,168
176,315,3998,5,2,0:0:0:0:
64,216,4331,1,0,0:0:0:0:
98,74,4664,1,0,0:0:0:0:
239,40,4998,1,0,0:0:0:0:
87,75,5331,2,0,L|70:261,1,168,2|0,0:0|0:0,0:0:0:0:
248,152,5998,2,0,L|231:338,1,168
392,122,6665,5,2,0:0:0:0:
256,192,6748,12,0,7998,2:0:0:0:
152,184,8331,5,0,0:0:0:0:
266,187,8498,1,8,2:3:0:0:
18,134,8665,2,0,L|18:256,1,105,8|8,2:0|2:3,0:0:0:0:
249,182,8998,2,0,L|316:182,1,52.5,8|0,2:3|2:0,0:0:0:0:
127,112,9165,2,0,L|69:113,1,52.5,0|0,2:0|2:0,0:0:0:0:
292,58,9331,6,0,L|515:57,1,210,4|8,2:0|2:0,0:0:0:0:
376,137,9831,2,0,L|369:193,2,52.5,0|0|8,2:0|0:0|2:3,0:0:0:0:
497,254,10165,2,0,L|386:241,1,105,8|8,2:3|2:0,0:0:0:0:
149,135,10498,6,0,L|375:105,1,210,0|0,2:0|2:0,0:0:0:0:
222,42,10998,1,8,2:0:0:0:
360,245,11165,2,0,L|374:137,1,105,8|0,2:3|2:0,0:0:0:0:
91,74,11498,2,0,L|109:303,1,210,8|0,2:3|2:0,0:0:0:0:
164,292,11915,1,0,2:0:0:0:
346,319,11998,6,0,L|462:299,1,105,8|0,2:3|2:0,0:0:0:0:
279,226,12331,2,0,L|166:213,1,105,8|0,2:0|2:0,0:0:0:0:
44,198,12665,1,8,2:3:0:0:
173,175,12831,1,8,2:3:0:0:
44,198,12998,1,8,2:0:0:0:
347,106,13165,6,0,L|113:76,1,210,4|8,2:0|2:3,0:0:0:0:
428,212,13665,2,0,L|439:332,1,105,8|0,2:0|2:0,0:0:0:0:
187,210,13998,1,8,2:3:0:0:
306,257,14165,2,0,L|319:212,9,35,8|0|0|8|0|0|0|0|0|4,2:3|0:0|0:0|2:3|0:0|0:0|2:0|0:0|0:0|2:0,0:0:0:0:
171,141,14998,6,0,L|353:119,1,178.500003404617,2|0,2:0|2:0,0:0:0:0:
251,100,15498,1,2,2:0:0:0:
73,49,15831,2,0,L|163:37,1,89.2500017023087,0|2,2:0|2:0,0:0:0:0:
318,208,16331,2,0,L|228:196,1,89.2500017023087,0|2,2:0|2:0,0:0:0:0:
95,334,16831,2,0,L|185:322,1,89.2500017023087,0|2,2:0|2:0,0:0:0:0:
336,307,17165,2,0,L|388:301,1,44.6250008511543,8|0,2:3|2:0,0:0:0:0:
160,213,17331,5,4,2:0:0:0:
252,212,17665,2,0,L|60:196,1,178.500003404617,2|0,2:0|2:0,0:0:0:0:
170,179,18165,1,2,2:0:0:0:
331,188,18498,1,0,2:0:0:0:
219,180,18665,6,0,L|208:85,3,89.2500017023087,2|0|0|2,2:0|0:0|2:0|2:0,0:0:0:0:
348,264,19331,1,0,2:0:0:0:
405,264,19415,1,0,0:0:0:0:
405,264,19498,1,8,2:3:0:0:
348,264,19581,1,0,0:0:0:0:
191,262,19665,2,0,L|120:263,1,52.5,8|0,2:0|0:0,0:0:0:0:
191,262,19831,2,0,L|251:263,1,52.5,8|0,2:3|0:0,0:0:0:0:
416,337,19998,6,0,P|472:300|408:191,1,210,4|8,2:0|2:0,0:0:0:0:
304,193,20498,1,0,2:0:0:0:
436,95,20665,2,0,L|446:210,1,105,8|8,2:3|2:3,0:0:0:0:
318,193,20998,1,0,2:0:0:0:
90,216,21165,6,0,L|313:217,1,210,8|8,2:0|2:3,0:0:0:0:
438,223,21665,1,8,2:0:0:0:
311,226,21831,2,0,L|308:335,1,105,0|8,2:0|2:3,0:0:0:0:
438,223,22165,2,0,L|463:116,1,105,8|8,2:3|2:0,0:0:0:0:
347,73,22498,1,0,2:0:0:0:
113,69,22665,6,0,L|-7:69,2,105,8|0|8,2:3|2:0|2:0,0:0:0:0:
265,204,23165,2,0,P|327:158|261:61,1,210,0|8,2:0|2:3,0:0:0:0:
142,62,23665,1,0,2:0:0:0:
440,188,23831,6,0,L|204:189,1,210,8|8,2:0|2:3,0:0:0:0:
390,319,24331,2,0,L|400:203,1,105,8|0,2:0|2:0,0:0:0:0:
174,159,24665,1,8,2:0:0:0:
415,61,24831,1,4,2:3:0:0:
415,61,25165,1,0,2:0:0:0:
174,159,25331,6,0,L|174:362,1,178.500003404617,4|8,2:0|2:3,0:0:0:0:
356,160,25998,2,0,L|358:372,1,178.500003404617,8|8,2:3|2:3,0:0:0:0:
181,143,26665,2,0,L|0:133,1,178.500003404617,8|8,2:3|2:3,0:0:0:0:
200,244,27331,2,0,L|14:233,1,178.500003404617,8|8,2:3|2:3,0:0:0:0:
280,306,27998,6,0,L|470:313,2,178.500003404617,8|8|8,2:3|2:3|2:3,0:0:0:0:
158,207,28998,2,0,L|265:191,1,89.2500017023087,8|0,2:3|2:0,0:0:0:0:
364,311,29331,2,0,L|177:293,1,178.500003404617,10|8,2:3|2:3,0:0:0:0:
410,226,29998,2,0,L|219:207,1,178.500003404617,8|0,2:3|2:0,0:0:0:0:
52,232,30665,6,0,L|42:34,1,178.500003404617,8|8,2:3|2:3,0:0:0:0:
221,133,31331,2,0,L|404:115,1,178.500003404617,8|8,2:3|2:3,0:0:0:0:
226,241,31998,2,0,L|440:223,1,178.500003404617,8|8,2:3|2:3,0:0:0:0:
222,342,32665,2,0,L|35:331,1,178.500003404617,8|8,2:3|2:3,0:0:0:0:
220,258,33331,5,8,2:3:0:0:
458,250,33498,2,0,L|326:231,2,105,2|8|0,2:0|2:3|2:0,0:0:0:0:
338,129,33998,2,0,L|206:148,2,105,10|0|8,2:3|2:0|2:3,0:0:0:0:
444,108,34498,1,0,2:0:0:0:
184,69,34665,5,8,2:3:0:0:
287,54,34831,1,8,2:3:0:0:
390,37,34998,1,8,2:0:0:0:
66,105,35165,2,0,L|72:321,1,210,4|8,2:0|2:0,0:0:0:0:
229,191,35665,1,8,2:0:0:0:
66,106,35831,1,8,2:0:0:0:
366,305,35998,6,0,P|437:231|365:152,1,210,8|8,2:3|2:0,0:0:0:0:
241,104,36498,2,0,L|227:218,1,105,8|0,2:3|2:0,0:0:0:0:
361,91,36831,1,8,2:3:0:0:
238,79,36998,1,8,2:0:0:0:
373,93,37165,1,0,2:0:0:0:
118,257,37331,6,0,L|351:231,1,210,8|8,2:3|2:0,0:0:0:0:
171,140,37831,2,0,L|396:113,1,210,8|8,2:3|2:3,0:0:0:0:
229,264,38331,2,0,L|220:152,1,105,8|0,2:0|2:0,0:0:0:0:
471,333,38665,5,8,2:3:0:0:
358,300,38831,1,0,2:0:0:0:
471,333,38998,1,8,2:0:0:0:
176,200,39165,2,0,L|394:168,1,210,4|8,2:0|2:3,0:0:0:0:
265,142,39665,1,8,2:0:0:0:
32,98,39831,6,0,L|246:61,1,210,4|8,2:0|2:3,0:0:0:0:
503,103,40331,1,8,2:0:0:0:
222,174,40498,2,0,L|106:161,1,105,4|0,2:0|2:0,0:0:0:0:
379,307,40831,2,0,L|487:294,1,105,4|8,2:0|2:0,0:0:0:0:
339,227,41165,1,0,2:0:0:0:
86,146,41331,6,0,L|315:120,1,210,4|8,2:0|2:0,0:0:0:0:
169,91,41831,1,0,2:0:0:0:
456,239,41998,2,0,L|342:224,2,105,8|8|8,2:3|2:3|2:0,0:0:0:0:
117,357,42498,6,0,L|346:325,1,210,4|8,2:0|2:3,0:0:0:0:
41,161,42998,2,0,L|33:278,1,105,8|0,2:0|2:0,0:0:0:0:
167,177,43331,1,8,2:3:0:0:
42,128,43498,1,8,2:3:0:0:
339,253,43665,2,0,L|452:232,1,105,8|0,2:0|2:0,0:0:0:0:
126,327,43998,5,4,2:0:0:0:
79,304,44081,1,0,0:0:0:0:
58,257,44164,1,8,2:0:0:0:
72,208,44248,1,8,2:0:0:0:
115,179,44331,1,8,2:0:0:0:
339,253,44498,1,4,2:0:0:0:
385,230,44581,1,0,0:0:0:0:
406,183,44664,1,8,2:0:0:0:
392,134,44748,1,8,2:0:0:0:
349,105,44831,1,8,2:0:0:0:
103,101,44998,1,4,2:0:0:0:
349,105,45165,2,0,L|409:104,1,52.5,8|8,2:0|2:0,0:0:0:0:
226,32,45331,6,0,L|137:33,1,52.5,4|0,2:0|0:0,0:0:0:0:
409,271,45498,2,0,P|470:202|387:122,1,210,8|8,2:0|2:3,0:0:0:0:
348,122,45915,1,0,2:0:0:0:
84,86,45998,2,0,L|194:85,1,105,8|8,2:0|2:3,0:0:0:0:
459,226,46331,2,0,L|267:224,1,157.5,8|0,2:0|2:0,0:0:0:0:
70,226,46665,5,4,2:0:0:0:
197,224,46831,1,0,2:0:0:0:
70,226,46998,1,8,2:0:0:0:
197,224,47165,1,0,2:0:0:0:
451,225,47331,1,0,2:3:0:0:
337,226,47498,1,0,2:0:0:0:
451,225,47665,1,8,2:0:0:0:
197,224,47832,1,0,2:0:0:0:
337,226,47998,5,8,2:3:0:0:
197,224,48165,1,0,2:0:0:0:
337,226,48331,1,8,2:0:0:0:
197,224,48498,1,0,2:0:0:0:
464,228,48665,1,8,2:3:0:0:
337,226,48831,1,0,2:0:0:0:
71,226,48998,1,8,2:0:0:0:
197,224,49165,1,0,2:0:0:0:
464,228,49331,6,0,L|222:228,1,210,8|8,2:3|2:0,0:0:0:0:
368,186,49831,1,0,2:0:0:0:
95,98,49998,2,0,L|311:95,1,210,8|8,2:3|2:0,0:0:0:0:
182,57,50498,1,0,2:0:0:0:
59,55,50665,5,8,2:3:0:0:
310,151,50831,2,0,L|423:149,1,105,0|8,2:0|2:0,0:0:0:0:
103,205,51165,2,0,L|99:317,1,105,0|8,2:0|2:3,0:0:0:0:
254,207,51498,2,0,L|257:100,1,105,0|8,2:0|2:0,0:0:0:0:
108,79,51831,2,0,L|43:76,1,52.5,0|0,2:0|2:0,0:0:0:0:
257,70,51998,5,4,2:0:0:0:
389,70,52165,1,0,2:0:0:0:
257,70,52331,1,8,2:0:0:0:
389,70,52498,1,0,2:0:0:0:
161,69,52665,1,8,2:3:0:0:
29,69,52832,1,0,2:0:0:0:
161,69,52998,1,8,2:0:0:0:
29,69,53165,1,0,2:0:0:0:
315,67,53331,5,8,2:3:0:0:
183,68,53498,1,0,2:0:0:0:
315,67,53665,1,8,2:0:0:0:
183,69,53831,1,0,2:0:0:0:
438,136,53998,2,0,L|446:271,1,105,8|0,2:3|2:0,0:0:0:0:
85,140,54331,2,0,L|79:33,1,105,8|0,2:0|2:0,0:0:0:0:
429,167,54665,6,0,L|196:152,1,210,8|8,2:3|2:0,0:0:0:0:
94,144,55165,1,0,2:0:0:0:
405,343,55331,2,0,P|470:296|416:193,1,210,8|8,2:3|2:0,0:0:0:0:
314,186,55831,1,0,2:0:0:0:
83,253,55998,6,0,P|18:206|72:103,1,210,8|8,2:3|2:0,0:0:0:0:
174,96,56498,1,0,2:0:0:0:
431,101,56665,2,0,L|431:216,1,105,8|0,2:3|0:0,0:0:0:0:
308,85,56998,1,8,2:0:0:0:
431,87,57165,1,0,2:0:0:0:
131,227,57331,6,0,L|361:227,1,210,8|8,2:3|2:0,0:0:0:0:
39,106,57831,1,4,2:0:0:0:
170,86,58165,2,0,L|55:78,1,105,8|8,2:3|2:0,0:0:0:0:
314,276,58498,6,0,L|483:254,1,157.5,8|0,2:3|0:0,0:0:0:0:
415,239,58831,1,8,2:3:0:0:
265,207,58998,1,8,2:0:0:0:
415,239,59165,2,0,L|351:227,1,52.5,0|0,2:0|2:0,0:0:0:0:
66,153,59331,6,0,L|224:124,2,157.5,12|12|12,2:0|2:0|2:0,0:0:0:0:
315,195,59998,2,0,L|435:218,1,105,8|8,2:3|2:3,0:0:0:0:
53,337,60331,2,0,L|49:224,1,105,12|0,2:0|2:0,0:0:0:0:
169,208,60665,1,8,2:3:0:0:
47,133,60831,1,8,2:3:0:0:
352,285,60998,2,0,L|459:272,1,105,8|0,2:0|2:0,0:0:0:0:
157,188,61331,6,0,L|48:205,1,105,8|8,2:3|2:3,0:0:0:0:
356,270,61665,1,8,2:0:0:0:
122,173,61831,1,0,2:0:0:0:
356,270,61998,2,0,L|420:262,1,52.5,8|8,2:0|2:0,0:0:0:0:
197,142,62165,2,0,L|141:150,1,52.5,8|8,2:0|2:0,0:0:0:0:
328,210,62331,2,0,L|383:205,1,52.5,8|8,2:3|2:3,0:0:0:0:
141,93,62498,2,0,L|74:100,1,52.5,8|8,2:0|2:0,0:0:0:0:
301,98,62665,5,4,2:0:0:0:
443,101,62831,1,0,2:0:0:0:
301,98,62998,1,8,2:0:0:0:
443,101,63164,1,0,2:0:0:0:
68,93,63331,1,8,2:3:0:0:
196,91,63498,1,0,2:0:0:0:
68,93,63665,1,8,2:0:0:0:
301,98,63831,1,0,2:0:0:0:
177,98,63998,5,8,2:3:0:0:
301,98,64165,1,0,2:0:0:0:
177,98,64331,1,8,2:0:0:0:
301,98,64498,1,0,2:0:0:0:
41,95,64665,1,8,2:3:0:0:
150,95,64831,1,0,2:0:0:0:
471,95,64998,1,8,2:0:0:0:
362,95,65164,1,0,2:0:0:0:
101,57,65331,6,0,L|335:57,1,210,8|8,2:3|2:0,0:0:0:0:
432,57,65831,1,0,2:0:0:0:
138,328,65998,2,0,P|70:274|154:178,1,210,8|8,2:3|2:0,0:0:0:0:
240,177,66498,1,0,2:0:0:0:
122,175,66665,5,8,2:3:0:0:
411,159,66831,2,0,L|413:269,1,105,0|8,2:0|2:0,0:0:0:0:
276,147,67165,2,0,L|163:147,1,105,0|8,2:0|2:3,0:0:0:0:
323,239,67498,2,0,L|445:239,2,105,0|8|0,2:0|2:0|2:0,0:0:0:0:
264,239,67915,1,0,2:0:0:0:
57,239,67998,5,4,2:0:0:0:
179,242,68165,1,0,2:0:0:0:
57,239,68331,1,8,2:0:0:0:
179,242,68498,1,0,2:0:0:0:
455,239,68665,1,8,2:3:0:0:
333,242,68832,1,0,2:0:0:0:
455,239,68998,1,8,2:0:0:0:
333,242,69165,1,0,2:0:0:0:
42,239,69331,5,8,2:3:0:0:
164,242,69498,1,0,2:0:0:0:
42,239,69664,1,8,2:0:0:0:
164,242,69831,1,0,2:0:0:0:
423,242,69998,2,0,L|426:352,1,105,8|0,2:3|2:0,0:0:0:0:
75,155,70331,2,0,L|72:32,1,105,8|0,2:0|2:0,0:0:0:0:
316,329,70665,6,0,P|381:261|313:178,1,210,4|8,2:0|2:0,0:0:0:0:
193,175,71165,1,0,2:0:0:0:
331,71,71331,2,0,L|342:199,1,105,8|0,2:3|0:0,0:0:0:0:
175,162,71665,2,0,L|163:44,1,105,8|0,2:0|2:0,0:0:0:0:
404,316,71998,6,0,L|175:293,1,210,8|8,2:3|2:0,0:0:0:0:
316,221,72498,1,0,2:0:0:0:
184,131,72665,2,0,L|170:248,1,105,8|0,2:3|2:0,0:0:0:0:
341,141,72998,2,0,L|328:36,1,105,8|0,2:0|2:0,0:0:0:0:
270,28,73248,1,0,0:0:0:0:
59,351,73331,6,0,L|303:320,1,210,8|8,2:3|2:0,0:0:0:0:
136,192,73831,2,0,L|137:304,1,105,0|0,2:0|0:0,0:0:0:0:
261,170,74165,1,0,2:0:0:0:
121,171,74331,2,0,L|112:61,1,105,8|0,2:0|2:0,0:0:0:0:
362,333,74665,6,0,P|433:277|378:174,1,210,4|8,2:0|2:0,0:0:0:0:
287,171,75165,1,0,2:0:0:0:
47,197,75331,2,0,L|36:72,1,105,8|0,2:3|2:0,0:0:0:0:
336,268,75665,2,0,L|475:253,1,105,8|0,2:0|2:0,0:0:0:0:
154,340,75998,6,0,P|100:300|161:217,1,157.5,4|0,2:0|2:0,0:0:0:0:
306,204,76331,2,0,L|364:212,1,52.5,8|0,2:0|0:0,0:0:0:0:
185,97,76498,2,0,L|60:112,1,105,8|0,2:0|2:0,0:0:0:0:
379,280,76831,1,8,2:3:0:0:
135,227,76998,1,8,2:0:0:0:
416,283,77165,6,0,P|485:239|416:127,1,210,0|8,2:0|2:3,0:0:0:0:
168,54,77665,2,0,L|296:38,1,105,8|0,2:0|0:0,0:0:0:0:
499,13,77998,1,8,2:0:0:0:
212,160,78165,2,0,L|150:150,1,52.5,8|8,2:0|2:0,0:0:0:0:
318,261,78331,2,0,L|379:246,1,52.5,8|8,2:0|2:0,0:0:0:0:
212,160,78498,2,0,L|150:150,1,52.5,8|8,2:3|2:3,0:0:0:0:
319,261,78665,6,0,L|457:284,2,105,4|0|8,2:0|2:0|2:0,0:0:0:0:
191,338,79165,2,0,P|124:269|191:190,1,210,0|0,2:0|2:0,0:0:0:0:
313,186,79665,1,8,2:0:0:0:
144,205,79831,6,0,P|76:157|140:70,1,210,0|0,2:0|2:0,0:0:0:0:
241,64,80331,1,8,2:0:0:0:
138,52,80498,1,0,2:0:0:0:
287,131,80665,2,0,L|409:131,2,105,8|0|8,2:3|2:0|2:0,0:0:0:0:
180,131,81165,1,0,2:0:0:0:
463,249,81331,6,0,L|463:359,1,105,8|0,2:3|2:0,0:0:0:0:
326,190,81665,2,0,L|327:294,1,105,8|0,2:0|2:0,0:0:0:0:
469,125,81998,2,0,L|362:111,1,105,8|0,2:3|2:0,0:0:0:0:
115,185,82331,2,0,L|106:75,1,105,8|0,2:0|2:0,0:0:0:0:
256,207,82665,5,8,2:3:0:0:
115,294,82831,2,0,L|176:284,1,52.5,8|8,2:3|2:3,0:0:0:0:
346,330,82998,2,0,L|406:321,1,52.5,8|8,2:3|2:3,0:0:0:0:
223,242,83165,2,0,L|146:258,1,52.5,8|8,2:0|2:0,0:0:0:0:
375,149,83331,2,0,L|508:168,1,105,12|8,2:0|2:0,0:0:0:0:
376,147,83831,2,0,L|297:155,1,52.5,0|0,2:0|2:0,0:0:0:0:
131,269,83998,6,0,P|55:224|111:119,1,210,8|8,2:3|2:0,0:0:0:0:
237,89,84498,2,0,L|295:99,2,52.5,0|0|8,2:0|0:0|2:3,0:0:0:0:
73,48,84831,2,0,L|184:27,1,105,8|8,2:3|2:0,0:0:0:0:
417,232,85165,6,0,L|195:208,1,210,0|0,2:0|2:0,0:0:0:0:
339,139,85665,1,8,2:0:0:0:
202,153,85831,2,0,L|192:40,1,105,8|0,2:3|2:0,0:0:0:0:
456,226,86165,2,0,L|466:334,1,105,8|8,2:3|2:0,0:0:0:0:
201,151,86498,2,0,L|191:96,1,52.5,0|0,2:0|2:0,0:0:0:0:
456,225,86665,6,0,L|242:211,1,210,8|8,2:3|2:0,0:0:0:0:
116,201,87165,1,0,2:0:0:0:
248,147,87331,1,8,2:3:0:0:
93,198,87498,2,0,L|34:188,1,52.5,8|0,2:3|2:0,0:0:0:0:
230,316,87665,2,0,L|291:306,1,52.5,8|0,2:0|2:0,0:0:0:0:
78,351,87831,6,0,P|18:293|105:191,1,210,4|8,2:0|2:3,0:0:0:0:
323,237,88331,1,8,2:0:0:0:
371,221,88414,1,8,2:3:0:0:
399,177,88497,1,8,2:3:0:0:
393,126,88580,1,8,2:3:0:0:
356,91,88664,1,8,2:3:0:0:
115,84,88831,1,8,2:0:0:0:
352,69,88998,1,8,2:0:0:0:
58,19,89165,5,12,2:0:0:0:
