osu file format v14

[General]
AudioFilename: audio.mp3
AudioLeadIn: 0
PreviewTime: 46581
Countdown: 0
SampleSet: Soft
StackLeniency: 0.5
Mode: 0
LetterboxInBreaks: 0
WidescreenStoryboard: 0

[Editor]
DistanceSpacing: 1.4
BeatDivisor: 4
GridSize: 16
TimelineZoom: 2.6

[Metadata]
Title:killy killy JOKER (TV Size)
TitleUnicode:killy killy JOKER (TV Size)
Artist:Wakeshima Kanon
ArtistUnicode:分島花音
Creator:Alexsander
Version:Ruling
Source:selector infected WIXOSS
Tags:opening card game Ruko Kominato Tama naotyu-
BeatmapID:1667534
BeatmapSetID:793931

[Difficulty]
HPDrainRate:6.5
CircleSize:4.5
OverallDifficulty:9
ApproachRate:9.2
SliderMultiplier:1.8
SliderTickRate:1

[Events]
//Background and Video events
0,0,"bg.jpg",0,0
Video,94,"wixoss.avi"
//Break Periods
//Storyboard Layer 0 (Background)
//Storyboard Layer 1 (Fail)
//Storyboard Layer 2 (Pass)
//Storyboard Layer 3 (Foreground)
//Storyboard Sound Samples

[TimingPoints]
1332,333.333333333333,4,2,3,40,1,0
1332,-166.666666666667,4,2,3,40,0,0
7915,-166.666666666667,4,2,3,5,0,0
7998,-166.666666666667,4,2,3,40,0,0
8498,-166.666666666667,4,2,1,40,0,0
8665,-125,4,2,1,50,0,0
8831,-125,4,2,1,40,0,0
9081,-125,4,2,5,40,0,0
9331,-100,4,2,1,70,0,0
9581,-100,4,2,1,5,0,0
9665,-100,4,2,1,60,0,0
9831,-100,4,2,1,30,0,0
9998,-100,4,2,1,50,0,0
10331,-100,4,2,1,60,0,0
10498,-100,4,2,2,60,0,0
10831,-100,4,2,1,30,0,0
10998,-100,4,2,1,60,0,0
11165,-100,4,2,1,65,0,0
11331,-100,4,2,1,30,0,0
11498,-100,4,2,1,65,0,0
11665,-100,4,2,1,60,0,0
11748,-100,4,2,4,40,0,0
11998,-100,4,2,1,70,0,0
12248,-100,4,2,1,5,0,0
12331,-100,4,2,1,60,0,0
12498,-100,4,2,1,30,0,0
12665,-100,4,2,1,50,0,0
12998,-100,4,2,1,60,0,0
13165,-100,4,2,1,70,0,0
13498,-100,4,2,1,30,0,0
13665,-100,4,2,1,60,0,0
13831,-100,4,2,1,45,0,0
14165,-100,4,2,1,50,0,0
14665,-142.857142857143,4,2,5,30,0,0
17165,-142.857142857143,4,2,1,30,0,0
17248,-142.857142857143,4,2,2,30,0,0
17331,-142.857142857143,4,2,1,30,0,0
17665,-142.857142857143,4,2,5,30,0,0
19498,-142.857142857143,4,2,1,40,0,0
19665,-125,4,2,1,50,0,0
19915,-125,4,2,1,5,0,0
19998,-100,4,2,1,70,0,0
20331,-100,4,2,1,60,0,0
20498,-100,4,2,1,50,0,0
20998,-100,4,2,1,60,0,0
21415,-100,4,2,1,5,0,0
21498,-100,4,2,1,50,0,0
21665,-100,4,2,1,60,0,0
21831,-100,4,2,1,30,0,0
21998,-100,4,2,1,50,0,0
22331,-100,4,2,1,60,0,0
22498,-100,4,2,1,30,0,0
22665,-100,4,2,1,50,0,0
22998,-100,4,2,1,60,0,0
23165,-100,4,2,1,50,0,0
23831,-100,4,2,1,60,0,0
23998,-100,4,2,1,30,0,0
24165,-100,4,2,1,50,0,0
24331,-100,4,2,1,60,0,0
24498,-100,4,2,1,45,0,0
24665,-100,4,2,1,60,0,0
24831,-100,4,2,1,40,0,0
25165,-200,4,2,5,35,0,0
25331,-200,4,3,3,30,0,0
25498,-200,4,3,3,25,0,0
25665,-200,4,3,3,30,0,0
25831,-200,4,3,3,25,0,0
25998,-200,4,3,3,30,0,0
26498,-200,4,3,3,40,0,0
26665,-200,4,3,3,30,0,0
27165,-200,4,3,3,40,0,0
27331,-200,4,3,3,30,0,0
27831,-200,4,3,3,40,0,0
27998,-200,4,3,3,30,0,0
28165,-200,4,3,3,25,0,0
28331,-200,4,3,3,30,0,0
28498,-200,4,3,3,25,0,0
28665,-200,4,3,3,30,0,0
28831,-200,4,3,3,25,0,0
28998,-200,4,3,3,30,0,0
29165,-200,4,2,4,25,0,0
29331,-200,4,3,3,30,0,0
30498,-200,4,3,3,25,0,0
30665,-200,4,3,3,30,0,0
30831,-200,4,3,3,25,0,0
30998,-200,4,3,3,30,0,0
31165,-200,4,3,3,25,0,0
31331,-200,4,3,3,30,0,0
31831,-200,4,3,3,25,0,0
31998,-200,4,3,3,30,0,0
32498,-200,4,3,3,25,0,0
32665,-200,4,3,3,30,0,0
33331,-133.333333333333,4,2,3,50,0,0
34998,-133.333333333333,4,2,1,50,0,0
35998,-100,4,2,1,70,0,0
36165,-100,4,2,1,30,0,0
36331,-100,4,2,1,60,0,0
36665,-100,4,2,1,30,0,0
36831,-100,4,2,1,60,0,0
37165,-100,4,2,1,50,0,0
37331,-100,4,2,1,70,0,0
37498,-100,4,2,1,30,0,0
37665,-100,4,2,1,60,0,0
37998,-100,4,2,1,30,0,0
38165,-100,4,2,1,60,0,0
38498,-100,4,2,1,50,0,0
38665,-100,4,2,1,70,0,0
38831,-100,4,2,1,30,0,0
38998,-100,4,2,1,60,0,0
39165,-90.9090909090909,4,2,1,70,0,0
39331,-90.9090909090909,4,2,1,30,0,0
39498,-90.9090909090909,4,2,1,70,0,0
39831,-100,4,2,1,70,0,0
40165,-100,4,2,1,30,0,0
40331,-100,4,2,1,60,0,0
40498,-90.9090909090909,4,2,1,70,0,0
40665,-90.9090909090909,4,2,1,30,0,0
40831,-90.9090909090909,4,2,1,70,0,0
40998,-90.9090909090909,4,2,1,60,0,0
41165,-100,4,2,1,50,0,0
41331,-100,4,2,1,70,0,0
41498,-100,4,2,1,30,0,0
41665,-100,4,2,1,60,0,0
41831,-100,4,2,1,30,0,0
41998,-100,4,2,1,50,0,0
42331,-100,4,2,1,60,0,0
42498,-100,4,2,1,70,0,0
42831,-100,4,2,1,40,0,0
42998,-100,4,2,1,60,0,0
43165,-100,4,2,1,30,0,0
43331,-100,4,2,1,50,0,0
43665,-100,4,2,1,60,0,0
43831,-100,4,2,1,50,0,0
43998,-100,4,2,1,70,0,0
44165,-100,4,2,3,60,0,0
44665,-100,4,2,3,50,0,0
44998,-100,4,2,3,60,0,0
45165,-100,4,2,3,50,0,0
45498,-100,4,2,5,60,0,0
45831,-100,4,2,5,30,0,0
45998,-100,4,2,1,50,0,0
46248,-100,4,2,1,5,0,0
46331,-100,4,2,1,60,0,0
46581,-100,4,2,1,5,0,0
46665,-90.9090909090909,4,2,1,80,0,1
46831,-90.9090909090909,4,2,3,65,0,1
46998,-90.9090909090909,4,2,1,80,0,1
47165,-90.9090909090909,4,2,3,65,0,1
47331,-90.9090909090909,4,2,1,80,0,1
47831,-90.9090909090909,4,2,3,65,0,1
47998,-90.9090909090909,4,2,1,80,0,1
48165,-90.9090909090909,4,2,3,65,0,1
48331,-90.9090909090909,4,2,1,80,0,1
48498,-90.9090909090909,4,2,3,65,0,1
48665,-90.9090909090909,4,2,1,80,0,1
49165,-90.9090909090909,4,2,1,60,0,1
49331,-90.9090909090909,4,2,1,80,0,1
49831,-90.9090909090909,4,2,3,60,0,1
49998,-90.9090909090909,4,2,1,80,0,1
50165,-90.9090909090909,4,2,1,40,0,1
50331,-90.9090909090909,4,2,1,80,0,1
50831,-90.9090909090909,4,2,3,80,0,1
50998,-90.9090909090909,4,2,1,80,0,1
51165,-90.9090909090909,4,2,3,80,0,1
51331,-90.9090909090909,4,2,1,80,0,1
51831,-90.9090909090909,4,2,1,60,0,1
51998,-90.9090909090909,4,2,1,80,0,1
52165,-90.9090909090909,4,2,3,65,0,1
52331,-90.9090909090909,4,2,1,80,0,1
52498,-90.9090909090909,4,2,3,65,0,1
52665,-90.9090909090909,4,2,1,80,0,1
53165,-90.9090909090909,4,2,3,65,0,1
53331,-90.9090909090909,4,2,1,80,0,1
53498,-90.9090909090909,4,2,3,65,0,1
53665,-90.9090909090909,4,2,1,80,0,1
53831,-90.9090909090909,4,2,3,65,0,1
53998,-90.9090909090909,4,2,1,80,0,1
54498,-90.9090909090909,4,2,1,60,0,1
54665,-90.9090909090909,4,2,1,80,0,1
55165,-90.9090909090909,4,2,3,60,0,1
55331,-90.9090909090909,4,2,1,80,0,1
55498,-90.9090909090909,4,2,1,40,0,1
55665,-90.9090909090909,4,2,1,80,0,1
55831,-90.9090909090909,4,2,3,70,0,1
55998,-90.9090909090909,4,2,1,80,0,1
56665,-90.9090909090909,4,2,1,60,0,1
56998,-90.9090909090909,4,2,1,80,0,1
57081,-90.9090909090909,4,2,1,60,0,1
57331,-90.9090909090909,4,2,1,80,0,1
57581,-90.9090909090909,4,2,1,5,0,1
57665,-90.9090909090909,4,2,1,80,0,1
57998,-90.9090909090909,4,2,1,65,0,1
58165,-90.9090909090909,4,2,1,80,0,1
58748,-90.9090909090909,4,2,1,5,0,1
58831,-90.9090909090909,4,2,1,80,0,1
58998,-90.9090909090909,4,2,1,80,0,1
59165,-90.9090909090909,4,2,1,70,0,1
59331,-90.9090909090909,4,2,1,80,0,1
60165,-90.9090909090909,4,2,1,65,0,1
60331,-90.9090909090909,4,2,1,80,0,1
60581,-90.9090909090909,4,2,1,5,0,1
60665,-90.9090909090909,4,2,1,80,0,1
60831,-90.9090909090909,4,2,1,65,0,1
60998,-90.9090909090909,4,2,1,80,0,1
61165,-90.9090909090909,4,2,1,65,0,1
61331,-90.9090909090909,4,2,1,80,0,1
61498,-90.9090909090909,4,2,1,65,0,1
61665,-90.9090909090909,4,2,1,80,0,1
61831,-90.9090909090909,4,2,1,65,0,1
61998,-90.9090909090909,4,2,3,70,0,1
62665,-90.9090909090909,4,2,1,80,0,1
62831,-90.9090909090909,4,2,3,65,0,1
62998,-90.9090909090909,4,2,1,80,0,1
63165,-90.9090909090909,4,2,3,65,0,1
63331,-90.9090909090909,4,2,1,80,0,1
63831,-90.9090909090909,4,2,3,65,0,1
63998,-90.9090909090909,4,2,1,80,0,1
64165,-90.9090909090909,4,2,3,65,0,1
64331,-90.9090909090909,4,2,1,80,0,1
64498,-90.9090909090909,4,2,3,65,0,1
64665,-90.9090909090909,4,2,1,80,0,1
65165,-90.9090909090909,4,2,1,60,0,1
65331,-90.9090909090909,4,2,1,80,0,1
65831,-90.9090909090909,4,2,3,60,0,1
65998,-90.9090909090909,4,2,1,80,0,1
66165,-90.9090909090909,4,2,1,40,0,1
66331,-90.9090909090909,4,2,1,80,0,1
66831,-90.9090909090909,4,2,3,80,0,1
66998,-90.9090909090909,4,2,1,80,0,1
67165,-90.9090909090909,4,2,3,80,0,1
67331,-90.9090909090909,4,2,1,80,0,1
67831,-90.9090909090909,4,2,1,60,0,1
67998,-90.9090909090909,4,2,1,80,0,1
68165,-90.9090909090909,4,2,3,65,0,1
68331,-90.9090909090909,4,2,1,80,0,1
68498,-90.9090909090909,4,2,3,65,0,1
68665,-90.9090909090909,4,2,1,80,0,1
69165,-90.9090909090909,4,2,3,65,0,1
69331,-90.9090909090909,4,2,1,80,0,1
69498,-90.9090909090909,4,2,3,65,0,1
69665,-90.9090909090909,4,2,1,80,0,1
69831,-90.9090909090909,4,2,3,65,0,1
69998,-90.9090909090909,4,2,1,80,0,1
70498,-90.9090909090909,4,2,1,60,0,1
70665,-90.9090909090909,4,2,1,80,0,1
71165,-90.9090909090909,4,2,1,60,0,1
71331,-90.9090909090909,4,2,1,80,0,1
71498,-90.9090909090909,4,2,1,40,0,1
71665,-90.9090909090909,4,2,1,80,0,1
71831,-90.9090909090909,4,2,3,70,0,1
71998,-90.9090909090909,4,2,1,80,0,1
72665,-90.9090909090909,4,2,1,60,0,1
72998,-90.9090909090909,4,2,1,80,0,1
73081,-90.9090909090909,4,2,1,60,0,1
73331,-90.9090909090909,4,2,1,80,0,1
73581,-90.9090909090909,4,2,1,5,0,1
73665,-90.9090909090909,4,2,1,80,0,1
73998,-90.9090909090909,4,2,1,65,0,1
74165,-90.9090909090909,4,2,1,80,0,1
75165,-90.9090909090909,4,2,3,60,0,1
75331,-90.9090909090909,4,2,1,80,0,1
75498,-90.9090909090909,4,2,1,65,0,1
75665,-90.9090909090909,4,2,1,80,0,1
75831,-90.9090909090909,4,2,1,65,0,1
75998,-90.9090909090909,4,2,1,80,0,1
76248,-90.9090909090909,4,2,1,5,0,1
76331,-90.9090909090909,4,2,1,80,0,1
76498,-76.9230769230769,4,2,1,80,0,1
76665,-76.9230769230769,4,2,1,40,0,1
76831,-76.9230769230769,4,2,1,80,0,1
76998,-76.9230769230769,4,2,1,40,0,1
77165,-76.9230769230769,4,2,1,80,0,1
77665,-90.9090909090909,4,2,1,80,0,1
77831,-90.9090909090909,4,2,3,60,0,1
77998,-90.9090909090909,4,2,1,80,0,1
78165,-90.9090909090909,4,2,5,70,0,1
78415,-90.9090909090909,4,2,1,60,0,1
78665,-90.9090909090909,4,2,1,80,0,1
78831,-90.9090909090909,4,2,1,60,0,1
78998,-90.9090909090909,4,2,1,80,0,1
79165,-90.9090909090909,4,2,1,60,0,1
79331,-90.9090909090909,4,2,1,80,0,1
79831,-90.9090909090909,4,2,3,80,0,1
79998,-90.9090909090909,4,2,1,80,0,1
80498,-90.9090909090909,4,2,1,60,0,1
80665,-90.9090909090909,4,2,1,80,0,1
80831,-90.9090909090909,4,2,3,80,0,1
80998,-90.9090909090909,4,2,1,80,0,1
81165,-90.9090909090909,4,2,3,80,0,1
81331,-90.9090909090909,4,2,1,80,0,1
81498,-90.9090909090909,4,2,1,60,0,1
81665,-90.9090909090909,4,2,1,80,0,1
81831,-90.9090909090909,4,2,1,60,0,1
81998,-90.9090909090909,4,2,1,80,0,1
82498,-90.9090909090909,4,2,2,80,0,1
82831,-90.9090909090909,4,2,1,70,0,1
82998,-90.9090909090909,4,2,3,70,0,1
83831,-100,4,2,1,40,0,0
83998,-100,4,2,1,70,0,0
84248,-100,4,2,1,5,0,0
84331,-100,4,2,1,60,0,0
84665,-100,4,2,1,50,0,0
84998,-100,4,2,1,60,0,0
85165,-100,4,2,2,60,0,0
85498,-100,4,2,1,30,0,0
85665,-100,4,2,1,60,0,0
85831,-100,4,2,1,65,0,0
85998,-100,4,2,1,30,0,0
86165,-100,4,2,1,65,0,0
86331,-100,4,2,1,60,0,0
86498,-100,4,2,4,40,0,0
86665,-100,4,2,1,70,0,0
86915,-100,4,2,1,5,0,0
86998,-100,4,2,1,60,0,0
87165,-100,4,2,1,30,0,0
87331,-100,4,2,1,50,0,0
87665,-100,4,2,1,60,0,0
88165,-100,4,2,1,30,0,0
88331,-100,4,2,1,60,0,0
88498,-100,4,2,1,50,0,0

[Colours]
Combo1 : 159,44,236
Combo2 : 236,30,68
Combo3 : 116,91,91
Combo4 : 53,66,200

[HitObjects]
443,232,6665,6,0,B|395:200|339:215|313:265|313:265|256:247|205:181|235:80|322:69,1,404.999987640381,2|0,0:0|0:0,0:0:0:0:
316,74,7998,6,0,P|233:116|156:81,1,161.999995056153,2|2,0:0|0:0,0:0:0:0:
72,174,8665,6,0,L|85:253,1,72,8|0,0:0|0:0,0:0:0:0:
187,335,8998,1,12,0:3:0:0:
222,339,9081,1,2,0:0:0:0:
257,330,9164,1,2,0:0:0:0:
285,309,9248,1,2,0:0:0:0:
308,281,9331,6,0,L|301:120,1,135,4|0,0:1|0:0,0:0:0:0:
295,121,9665,2,0,B|243:131|243:131|188:117,1,90,8|0,0:1|0:0,0:0:0:0:
367,0,9998,1,2,0:0:0:0:
377,164,10165,1,2,0:0:0:0:
241,36,10331,1,8,0:0:0:0:
470,100,10498,6,0,P|507:163|465:254,1,180,2|0,0:0|0:0,0:0:0:0:
305,260,10998,1,8,0:0:0:0:
383,89,11165,2,0,P|436:86|491:117,1,90,2|0,0:0|0:0,0:0:0:0:
503,320,11498,2,0,P|450:323|395:292,1,90,2|8,0:0|0:0,0:0:0:0:
395,293,11748,1,2,0:0:0:0:
371,305,11831,1,2,0:0:0:0:
357,328,11915,1,2,0:0:0:0:
349,353,11998,6,0,P|294:362|227:317,1,135,4|0,0:0|0:0,0:0:0:0:
215,298,12331,2,0,L|225:204,1,90,8|0,0:1|0:0,0:0:0:0:
362,121,12665,1,2,0:0:0:0:
395,293,12831,1,2,0:0:0:0:
224,208,12998,1,8,0:0:0:0:
353,45,13165,6,0,B|409:29|448:52|448:52|460:95|435:162,1,180,4|0,0:0|0:0,0:0:0:0:
271,77,13665,2,0,P|316:50|361:45,1,90,8|2,0:0|0:0,0:0:0:0:
352,44,13915,1,2,0:0:0:0:
352,44,13998,1,8,0:0:0:0:
256,192,14165,1,10,3:0:0:0:
215,190,14248,1,0,3:0:0:0:
180,170,14331,1,8,3:0:0:0:
158,137,14415,1,0,3:0:0:0:
152,97,14498,1,8,3:0:0:0:
166,59,14581,1,0,3:0:0:0:
201,38,14665,5,4,0:0:0:0:
201,38,14998,2,0,L|117:36,1,62.9999980773926,2|0,0:0|0:0,0:0:0:0:
62,82,15331,1,2,0:0:0:0:
53,170,15498,2,0,L|55:254,1,62.9999980773926,2|0,0:0|0:0,0:0:0:0:
99,309,15831,1,2,0:0:0:0:
180,229,15998,6,0,L|55:232,1,125.999996154785,2|0,0:0|0:0,0:0:0:0:
165,151,16498,2,0,L|227:149,1,62.9999980773926,2|0,0:0|0:0,0:0:0:0:
306,225,16831,1,2,0:0:0:0:
324,132,16998,1,2,0:0:0:0:
397,246,17165,1,2,0:0:0:0:
397,246,17248,1,2,0:0:0:0:
397,246,17331,6,0,L|459:244,1,62.9999980773926,6|0,0:0|0:0,0:0:0:0:
390,331,17665,2,0,P|356:335|318:327,1,62.9999980773926,2|0,0:0|0:0,0:0:0:0:
254,280,17998,1,2,0:0:0:0:
334,245,18165,2,0,P|368:241|406:249,1,62.9999980773926,2|0,0:0|0:0,0:0:0:0:
478,278,18498,1,2,0:0:0:0:
503,180,18665,6,0,L|501:104,1,62.9999980773926,2|0,0:0|0:0,0:0:0:0:
418,85,18998,1,2,0:0:0:0:
394,182,19165,2,0,L|395:244,1,62.9999980773926,2|0,0:0|0:0,0:0:0:0:
347,356,19498,1,2,0:0:0:0:
228,238,19665,6,0,P|279:210|346:234,1,108,8|0,0:0|0:0,0:0:0:0:
214,308,19998,6,0,P|160:262|205:169,1,180,4|8,0:0|0:1,0:0:0:0:
301,302,20498,2,0,P|258:314|214:308,1,90,2|0,0:0|1:0,0:0:0:0:
325,218,20831,1,0,1:0:0:0:
337,366,20998,1,2,0:0:0:0:
150,370,21165,6,0,B|98:373|98:373|7:363,1,135,8|0,0:0|0:0,0:0:0:0:
7,362,21498,1,2,0:0:0:0:
150,280,21665,2,0,L|150:370,1,90,8|0,0:0|0:0,0:0:0:0:
80,192,21998,1,0,1:0:0:0:
213,225,22165,1,0,1:0:0:0:
30,251,22331,2,0,P|7:206|11:165,1,90,8|0,0:0|0:0,0:0:0:0:
101,41,22665,5,0,1:0:0:0:
80,192,22831,1,2,0:0:0:0:
11,79,22998,1,8,0:0:0:0:
160,163,23165,2,0,P|124:189|80:192,1,90,2|0,0:0|1:0,0:0:0:0:
167,43,23498,1,2,0:0:0:0:
236,160,23665,1,2,0:0:0:0:
304,15,23831,6,0,P|348:7|400:30,1,90,8|0,0:0|0:0,0:0:0:0:
466,128,24165,1,2,0:0:0:0:
328,218,24331,2,0,L|329:122,1,90,8|0,0:0|3:0,0:0:0:0:
332,116,24581,1,0,3:0:0:0:
332,116,24665,5,8,0:0:0:0:
378,310,24831,1,6,0:0:0:0:
378,310,25165,5,2,0:0:0:0:
294,363,25331,2,0,L|237:364,1,45,4|0,0:1|0:0,0:0:0:0:
176,332,25665,2,0,L|119:331,1,45,0|0,1:0|0:0,0:0:0:0:
34,294,25998,2,0,P|21:249|36:205,1,90,0|0,1:0|1:0,0:0:0:0:
91,156,26498,1,2,0:2:0:0:
194,176,26665,6,0,B|228:180|228:180|292:175,1,90,2|0,0:2|1:0,0:0:0:0:
352,141,27165,1,2,0:2:0:0:
386,227,27331,2,0,B|390:261|390:261|385:325,1,90,2|0,0:2|1:0,0:0:0:0:
319,369,27831,1,2,0:2:0:0:
274,272,27998,6,0,L|330:271,1,45,4|0,0:2|0:0,0:0:0:0:
274,196,28331,2,0,L|229:196,1,45,0|0,1:0|0:0,0:0:0:0:
274,121,28665,2,0,L|318:120,1,45,0|0,1:0|0:0,0:0:0:0:
213,63,28998,1,0,1:0:0:0:
149,160,29165,1,2,0:0:0:0:
149,160,29248,1,2,0:0:0:0:
149,160,29331,6,0,P|141:211|163:255,1,90,0|0,1:0|1:0,0:0:0:0:
318,119,29998,2,0,P|326:68|304:24,1,90,0|0,1:0|1:0,0:0:0:0:
223,83,30498,1,2,0:2:0:0:
304,188,30665,6,0,L|355:187,1,45,4|0,0:2|0:0,0:0:0:0:
418,235,30998,2,0,L|418:286,1,45,0|0,1:0|0:0,0:0:0:0:
335,331,31331,2,0,L|233:332,1,90,0|0,1:0|1:0,0:0:0:0:
165,313,31831,1,2,0:2:0:0:
219,223,31998,6,0,P|228:184|208:135,1,90,2|0,0:2|1:0,0:0:0:0:
134,107,32498,1,2,0:2:0:0:
73,185,32665,2,0,P|64:224|84:273,1,90,2|0,0:2|1:0,0:0:0:0:
288,347,33331,5,2,1:2:0:0:
345,283,33498,1,2,0:0:0:0:
342,198,33665,1,2,1:2:0:0:
279,140,33831,1,2,0:0:0:0:
197,229,33998,5,2,1:2:0:0:
260,287,34165,1,2,0:0:0:0:
345,283,34331,1,2,1:2:0:0:
352,127,34498,1,0,1:0:0:0:
352,127,34581,1,0,1:0:0:0:
352,127,34665,5,12,0:3:0:0:
197,229,34831,1,8,0:3:0:0:
422,206,34998,1,8,0:1:0:0:
193,107,35165,1,4,0:0:0:0:
193,107,35498,5,8,0:0:0:0:
313,234,35665,1,8,0:1:0:0:
310,52,35831,1,8,0:0:0:0:
197,229,35998,6,0,L|207:333,1,90,4|0,0:0|0:0,0:0:0:0:
339,375,36331,1,8,0:0:0:0:
377,196,36498,2,0,P|334:166|285:166,1,90,2|0,0:0|0:0,0:0:0:0:
125,285,36831,2,0,P|160:312|205:318,1,90,2|8,0:0|0:0,0:0:0:0:
309,236,37165,1,2,0:0:0:0:
112,200,37331,6,0,P|64:222|40:264,1,90,4|0,0:0|0:0,0:0:0:0:
83,384,37665,1,8,0:0:0:0:
192,243,37831,2,0,L|192:145,1,90,2|0,0:0|0:0,0:0:0:0:
126,285,38165,1,2,0:0:0:0:
280,196,38331,1,8,0:0:0:0:
92,119,38498,1,0,3:0:0:0:
92,119,38581,1,0,3:0:0:0:
92,119,38665,6,0,L|92:209,1,90,4|0,0:0|0:0,0:0:0:0:
194,321,38998,1,8,0:0:0:0:
340,148,39165,2,0,B|295:127|295:127|236:130,1,99.0000030212403,2|0,0:0|0:0,0:0:0:0:
92,209,39498,2,0,B|137:188|137:188|196:191,1,99.0000030212403,2|8,0:0|0:0,0:0:0:0:
350,281,39831,6,0,B|333:321|298:332|298:332|176:319,1,180,4|0,0:0|0:0,0:0:0:0:
92,209,40331,1,8,0:0:0:0:
287,159,40498,2,0,L|283:267,1,99.0000030212403,2|0,0:0|0:0,0:0:0:0:
436,333,40831,2,0,L|439:234,1,99.0000030212403,2|8,0:0|0:0,0:0:0:0:
394,104,41165,1,2,0:0:0:0:
283,257,41331,6,0,P|235:266|181:244,1,90,4|0,0:0|0:0,0:0:0:0:
100,143,41665,2,0,P|148:134|202:156,1,90,8|0,0:0|0:0,0:0:0:0:
283,257,41998,1,2,0:0:0:0:
100,233,42165,1,2,0:0:0:0:
287,161,42331,1,8,0:0:0:0:
185,357,42498,6,0,B|125:362|125:362|77:347|77:347|3:348,1,180,4|0,0:0|0:0,0:0:0:0:
193,266,42998,2,0,L|282:256,1,90,8|0,0:0|0:0,0:0:0:0:
100,219,43331,1,2,0:0:0:0:
185,357,43498,1,2,0:0:0:0:
229,184,43665,1,8,0:0:0:0:
329,312,43831,1,2,0:0:0:0:
400,102,43998,5,4,0:0:0:0:
229,184,44165,1,8,0:0:0:0:
188,184,44248,1,8,0:0:0:0:
149,173,44331,1,8,0:0:0:0:
116,150,44415,1,8,0:0:0:0:
91,118,44498,1,8,0:0:0:0:
284,83,44665,5,8,0:0:0:0:
315,99,44748,1,8,0:0:0:0:
339,126,44831,2,8,L|336:183,1,45
244,294,44998,1,4,0:0:0:0:
116,150,45165,1,8,0:0:0:0:
132,119,45248,1,8,0:0:0:0:
159,95,45331,1,8,0:0:0:0:
183,239,45498,6,0,P|106:268|29:212,1,180,2|0,0:0|0:0,0:0:0:0:
216,164,45998,2,0,P|263:211|249:291,1,135,8|0,0:1|0:0,0:0:0:0:
244,297,46331,2,0,L|384:282,1,135,8|0,0:1|0:0,0:0:0:0:
461,323,46665,6,0,P|471:261|445:215,1,99.0000030212403,4|2,0:1|0:0,0:0:0:0:
328,75,46998,2,0,P|318:137|344:183,1,99.0000030212403,8|2,0:0|0:0,0:0:0:0:
437,29,47331,5,2,0:0:0:0:
231,88,47498,1,2,0:0:0:0:
378,279,47665,1,8,0:0:0:0:
389,118,47831,1,2,0:0:0:0:
248,297,47998,5,2,0:0:0:0:
457,229,48165,1,2,0:0:0:0:
181,163,48331,1,8,0:0:0:0:
344,351,48498,1,2,0:0:0:0:
389,118,48665,5,2,0:0:0:0:
265,282,48831,1,2,0:0:0:0:
489,157,48998,1,8,0:0:0:0:
271,74,49165,1,2,0:0:0:0:
452,259,49331,6,0,P|491:175|421:82,1,198.000006042481,4|8,0:0|0:0,0:0:0:0:
307,193,49831,1,2,0:0:0:0:
421,335,49998,2,0,P|472:334|517:306,1,99.0000030212403,2|0,0:0|0:0,0:0:0:0:
307,193,50331,2,0,P|256:194|211:222,1,99.0000030212403,8|2,0:0|0:0,0:0:0:0:
282,377,50665,5,2,0:0:0:0:
372,233,50831,2,0,P|378:182|338:120,1,99.0000030212403,2|8,0:0|0:0,0:0:0:0:
422,333,51165,2,0,P|462:301|477:229,1,99.0000030212403,2|2,0:0|0:0,0:0:0:0:
467,72,51498,1,2,0:0:0:0:
372,233,51665,1,8,0:0:0:0:
322,13,51831,1,2,3:0:0:0:
322,13,51915,1,2,3:0:0:0:
322,13,51998,6,0,L|223:13,1,99.0000030212403,4|2,0:1|0:0,0:0:0:0:
95,155,52331,2,0,L|194:155,1,99.0000030212403,8|2,0:0|0:0,0:0:0:0:
13,57,52665,5,2,0:0:0:0:
112,238,52831,1,2,0:0:0:0:
132,32,52998,1,8,0:0:0:0:
13,195,53165,1,2,0:0:0:0:
262,119,53331,5,2,0:0:0:0:
95,155,53498,1,2,0:0:0:0:
296,260,53665,1,8,0:0:0:0:
308,24,53831,1,2,0:0:0:0:
226,183,53998,5,2,0:0:0:0:
431,117,54165,1,2,0:0:0:0:
171,111,54331,1,8,0:0:0:0:
381,252,54498,1,2,0:0:0:0:
227,47,54665,6,0,B|164:7|102:12|102:12|48:61|47:101,1,198.000006042481,4|8,0:0|0:0,0:0:0:0:
27,204,55165,1,2,0:0:0:0:
222,145,55331,2,0,L|227:47,1,99.0000030212403,2|0,0:0|0:0,0:0:0:0:
130,204,55665,1,8,0:0:0:0:
302,228,55831,2,0,L|369:196,1,49.5000015106202,2|0,0:0|3:0,0:0:0:0:
369,56,55998,6,0,P|317:136|221:145,1,198.000006042481,4|8,0:0|0:0,0:0:0:0:
133,11,56498,1,2,0:0:0:0:
196,183,56665,5,2,0:3:0:0:
212,206,56748,1,2,0:3:0:0:
234,224,56831,1,2,0:3:0:0:
263,232,56915,1,2,0:3:0:0:
303,228,56998,5,10,0:0:0:0:
299,257,57081,1,2,1:2:0:0:
294,286,57165,1,2,0:0:0:0:
287,314,57248,1,2,1:2:0:0:
295,355,57331,6,0,P|236:322|157:345,1,148.50000453186,4|0,0:0|0:0,0:0:0:0:
146,356,57665,1,8,0:0:0:0:
38,227,57831,2,0,P|93:223|165:202,1,99.0000030212403,4|0,0:0|0:0,0:0:0:0:
218,99,58165,1,2,0:0:0:0:
81,150,58331,1,8,0:1:0:0:
305,183,58498,6,0,P|379:164|472:118,1,148.50000453186,4|0,0:0|0:0,0:0:0:0:
451,125,58831,1,2,0:0:0:0:
336,273,58998,2,0,P|281:269|209:248,1,99.0000030212403,8|0,0:0|3:0,0:0:0:0:
220,248,59248,1,0,3:0:0:0:
220,248,59331,5,8,1:0:0:0:
335,85,59581,1,8,1:3:0:0:
415,267,59831,1,0,1:2:0:0:
265,144,59998,6,0,P|292:100|341:84,1,99.0000030212403,6|0,0:0|0:0,0:0:0:0:
491,156,60331,2,0,L|323:157,1,148.50000453186,8|0,0:0|0:0,0:0:0:0:
334,84,60665,2,0,L|432:83,1,99.0000030212403,2|0,0:0|0:0,0:0:0:0:
491,232,60998,2,0,L|393:233,1,99.0000030212403,8|0,0:0|0:0,0:0:0:0:
195,203,61331,6,0,P|222:159|271:143,1,99.0000030212403,4|0,0:0|0:0,0:0:0:0:
432,82,61665,2,0,P|405:126|356:142,1,99.0000030212403,8|0,0:0|0:0,0:0:0:0:
206,45,61998,1,8,0:0:0:0:
245,25,62081,1,8,0:0:0:0:
289,22,62164,1,8,0:0:0:0:
331,37,62248,1,8,0:0:0:0:
361,69,62331,1,8,0:0:0:0:
282,210,62498,1,8,0:0:0:0:
237,217,62581,1,8,0:0:0:0:
195,203,62665,5,4,0:1:0:0:
319,308,62831,1,2,0:0:0:0:
280,102,62998,1,8,0:0:0:0:
72,187,63165,1,2,0:0:0:0:
353,204,63331,5,2,0:0:0:0:
187,84,63498,1,2,0:0:0:0:
221,317,63665,1,8,0:0:0:0:
346,152,63831,1,2,0:0:0:0:
141,151,63998,5,2,0:0:0:0:
348,279,64165,1,2,0:0:0:0:
336,35,64331,1,8,0:0:0:0:
282,210,64498,1,2,0:0:0:0:
458,104,64665,5,2,0:0:0:0:
233,24,64831,1,2,0:0:0:0:
394,213,64998,1,8,0:0:0:0:
432,0,65165,1,2,0:0:0:0:
213,155,65331,6,0,P|215:269|292:300,1,198.000006042481,4|8,0:0|0:0,0:0:0:0:
320,138,65831,1,2,0:0:0:0:
157,91,65998,2,0,P|104:86|50:114,1,99.0000030212403,2|0,0:0|0:0,0:0:0:0:
282,210,66331,2,0,P|335:215|389:187,1,99.0000030212403,8|2,0:0|0:0,0:0:0:0:
488,65,66665,5,2,0:0:0:0:
318,39,66831,2,0,L|320:151,1,99.0000030212403,2|8,0:0|0:0,0:0:0:0:
214,0,67165,2,0,L|216:112,1,99.0000030212403,2|2,0:0|0:0,0:0:0:0:
376,197,67498,1,2,0:0:0:0:
416,17,67665,1,8,0:0:0:0:
282,210,67831,1,2,3:0:0:0:
282,210,67915,1,2,3:0:0:0:
282,210,67998,5,4,0:1:0:0:
450,323,68165,1,2,0:0:0:0:
425,125,68331,1,8,0:0:0:0:
282,297,68498,1,2,0:0:0:0:
509,235,68665,5,2,0:0:0:0:
339,73,68831,1,2,0:0:0:0:
368,319,68998,1,8,0:0:0:0:
505,138,69165,1,2,0:0:0:0:
232,103,69331,5,2,0:0:0:0:
406,219,69498,1,2,0:0:0:0:
460,0,69665,1,8,0:0:0:0:
331,155,69831,1,2,0:0:0:0:
512,271,69998,5,2,0:0:0:0:
439,86,70165,1,2,0:0:0:0:
363,304,70331,1,8,0:0:0:0:
301,80,70498,1,2,0:0:0:0:
162,305,70665,6,0,B|120:338|84:335|84:335|26:295|36:219,1,198.000006042481,4|8,0:0|0:0,0:0:0:0:
64,97,71165,1,0,0:0:0:0:
224,230,71331,2,0,P|199:273|162:305,1,99.0000030212403,2|0,0:0|0:0,0:0:0:0:
157,133,71665,1,8,0:0:0:0:
322,187,71831,2,0,L|392:209,1,49.5000015106202,2|0,0:0|3:0,0:0:0:0:
491,99,71998,6,0,P|399:122|311:23,1,198.000006042481,4|8,0:0|0:0,0:0:0:0:
462,8,72498,1,2,0:0:0:0:
300,92,72665,5,2,0:3:0:0:
270,88,72748,1,2,0:3:0:0:
245,71,72831,1,2,0:3:0:0:
233,43,72915,1,2,0:3:0:0:
248,8,72998,5,10,0:0:0:0:
219,12,73081,1,2,1:2:0:0:
190,17,73165,1,2,0:0:0:0:
162,24,73248,1,2,1:2:0:0:
127,49,73331,6,0,P|164:120|126:202,1,148.50000453186,4|0,0:0|0:0,0:0:0:0:
130,197,73665,1,8,0:0:0:0:
262,299,73831,2,0,P|255:247|270:183,1,99.0000030212403,2|0,0:0|0:0,0:0:0:0:
384,90,74165,1,2,0:0:0:0:
347,250,74331,1,8,0:0:0:0:
281,86,74498,1,2,0:0:0:0:
442,232,74665,6,0,P|428:310|318:347,1,198.000006042481,4|8,0:0|0:0,0:0:0:0:
197,275,75165,1,2,0:0:0:0:
344,151,75331,2,0,L|347:270,1,99.0000030212403,2|0,0:0|0:0,0:0:0:0:
199,373,75665,2,0,L|196:274,1,99.0000030212403,8|0,0:0|0:0,0:0:0:0:
319,71,75998,6,0,P|396:85|419:171,1,148.50000453186,4|0,0:1|0:0,0:0:0:0:
424,166,76331,1,8,0:0:0:0:
218,129,76498,6,0,B|201:74|201:74|213:4,1,116.999994644165,4|0,0:0|0:0,0:0:0:0:
423,181,76831,2,0,B|440:236|440:236|428:306,1,116.999994644165,4|0,0:0|0:0,0:0:0:0:
206,355,77165,6,0,B|161:223|253:255|216:122,1,233.999989288331,4|2,0:0|0:0,0:0:0:0:
264,292,77665,2,0,P|314:295|370:248,1,99.0000030212403,8|2,0:0|0:0,0:0:0:0:
403,126,77998,1,8,0:1:0:0:
237,34,78165,1,8,0:0:0:0:
206,30,78248,1,8,0:0:0:0:
179,43,78331,1,8,0:0:0:0:
151,65,78415,5,8,0:3:0:0:
156,95,78498,1,8,0:3:0:0:
162,125,78581,1,8,0:3:0:0:
171,154,78665,6,0,P|182:203|161:249,1,99.0000030212403,4|0,0:0|0:0,0:0:0:0:
0,235,78998,2,0,P|36:200|87:196,1,99.0000030212403,8|0,0:0|0:0,0:0:0:0:
223,282,79331,1,2,0:0:0:0:
68,270,79498,1,2,0:0:0:0:
171,154,79665,1,8,0:0:0:0:
83,347,79831,6,0,P|34:341|0:306,1,99.0000030212403,2|2,0:0|0:0,0:0:0:0:
82,195,80165,1,2,0:0:0:0:
223,282,80331,2,0,L|226:386,1,99.0000030212403,8|0,0:0|0:0,0:0:0:0:
328,281,80665,1,2,0:0:0:0:
180,192,80831,2,0,L|76:195,1,99.0000030212403,2|8,0:0|0:0,0:0:0:0:
223,282,81165,1,2,0:0:0:0:
301,129,81331,6,0,P|311:75|286:26,1,99.0000030212403,4|0,0:0|0:0,0:0:0:0:
128,45,81665,2,0,P|169:80|224:83,1,99.0000030212403,8|0,0:0|0:0,0:0:0:0:
369,16,81998,1,2,0:0:0:0:
199,13,82165,1,2,0:0:0:0:
378,126,82331,1,8,0:0:0:0:
223,174,82498,1,2,0:0:0:0:
369,16,82665,5,2,0:0:0:0:
455,189,82831,1,2,3:0:0:0:
452,215,82915,1,2,3:0:0:0:
450,242,82998,1,8,0:0:0:0:
449,268,83081,1,8,0:0:0:0:
446,294,83165,1,8,0:0:0:0:
444,321,83248,1,8,0:0:0:0:
441,348,83331,5,12,0:0:0:0:
340,181,83498,1,4,0:0:0:0:
359,205,83831,5,2,0:0:0:0:
359,205,83915,1,2,0:0:0:0:
359,205,83998,2,0,P|294:222|223:177,1,135,4|0,0:1|0:0,0:0:0:0:
212,180,84331,2,0,L|220:289,1,90,8|0,0:1|0:0,0:0:0:0:
317,70,84665,1,2,0:0:0:0:
146,143,84831,1,2,0:0:0:0:
359,205,84998,1,8,0:0:0:0:
174,70,85165,6,0,P|86:89|72:171,1,180,2|0,0:0|0:0,0:0:0:0:
218,269,85665,1,8,0:0:0:0:
248,74,85831,2,0,P|232:27|185:-4,1,90,2|0,0:0|0:0,0:0:0:0:
70,167,86165,2,0,P|86:214|133:245,1,90,2|8,0:0|0:0,0:0:0:0:
311,163,86498,1,2,0:0:0:0:
311,163,86581,1,2,0:0:0:0:
311,163,86665,6,0,L|167:163,1,135,4|0,0:0|0:0,0:0:0:0:
158,170,86998,2,0,P|144:123|155:77,1,90,8|0,0:1|0:0,0:0:0:0:
263,0,87331,1,2,0:0:0:0:
311,163,87498,1,2,0:0:0:0:
307,185,87581,1,0,3:0:0:0:
303,207,87664,1,8,0:0:0:0:
299,229,87748,1,0,3:0:0:0:
297,256,87831,6,0,L|480:260,1,180,4|0,0:0|0:0,0:0:0:0:
290,374,88331,1,8,0:3:0:0:
163,219,88498,1,0,1:0:0:0:
150,180,88581,1,0,1:0:0:0:
156,140,88665,1,0,1:0:0:0:
178,107,88748,1,0,1:0:0:0:
212,86,88831,5,8,0:1:0:0:
241,315,88998,1,8,0:1:0:0:
9,215,89165,1,12,0:0:0:0:
